  0
SECTION
  2
HEADER
  9
$ACADVER
  1
AC1032
  9
$ACADMAINTVER
 90
      197
  9
$DWGCODEPAGE
  3
ANSI_932
  9
$LASTSAVEDBY
  1
hiro-ichiyama
  9
$REQUIREDVERSIONS
160
                 0
  9
$INSBASE
 10
0.0
 20
0.0
 30
0.0
  9
$EXTMIN
 10
33.24572896077962
 20
27.50035294226882
 30
-0.0015258207003583
  9
$EXTMAX
 10
793.6012589395991
 20
574.6841904908465
 30
0.0000000349246037
  9
$LIMMIN
 10
0.0
 20
0.0
  9
$LIMMAX
 10
594.0
 20
841.0
  9
$ORTHOMODE
 70
     0
  9
$REGENMODE
 70
     1
  9
$FILLMODE
 70
     1
  9
$QTEXTMODE
 70
     0
  9
$MIRRTEXT
 70
     0
  9
$LTSCALE
 40
20.0
  9
$ATTMODE
 70
     1
  9
$TEXTSIZE
 40
4.0
  9
$TRACEWID
 40
0.05
  9
$TEXTSTYLE
  7
STANDARD
  9
$CLAYER
  8
0
  9
$CELTYPE
  6
CONTINUOUS
  9
$CECOLOR
 62
   256
  9
$CELTSCALE
 40
1.0
  9
$DISPSILH
 70
     0
  9
$DIMSCALE
 40
1.0
  9
$DIMASZ
 40
1.0
  9
$DIMEXO
 40
0.8
  9
$DIMDLI
 40
0.38
  9
$DIMRND
 40
0.0
  9
$DIMDLE
 40
0.0
  9
$DIMEXE
 40
2.0
  9
$DIMTP
 40
0.0
  9
$DIMTM
 40
0.0
  9
$DIMTXT
 40
3.1
  9
$DIMCEN
 40
0.09
  9
$DIMTSZ
 40
0.0
  9
$DIMTOL
 70
     0
  9
$DIMLIM
 70
     0
  9
$DIMTIH
 70
     0
  9
$DIMTOH
 70
     0
  9
$DIMSE1
 70
     0
  9
$DIMSE2
 70
     0
  9
$DIMTAD
 70
     1
  9
$DIMZIN
 70
     0
  9
$DIMBLK
  1

  9
$DIMASO
 70
     1
  9
$DIMSHO
 70
     1
  9
$DIMPOST
  1

  9
$DIMAPOST
  1

  9
$DIMALT
 70
     0
  9
$DIMALTD
 70
     2
  9
$DIMALTF
 40
25.4
  9
$DIMLFAC
 40
1.0
  9
$DIMTOFL
 70
     0
  9
$DIMTVP
 40
0.5
  9
$DIMTIX
 70
     0
  9
$DIMSOXD
 70
     0
  9
$DIMSAH
 70
     0
  9
$DIMBLK1
  1

  9
$DIMBLK2
  1

  9
$DIMSTYLE
  2
Standard
  9
$DIMCLRD
 70
     0
  9
$DIMCLRE
 70
     0
  9
$DIMCLRT
 70
     0
  9
$DIMTFAC
 40
1.0
  9
$DIMGAP
 40
0.09
  9
$DIMJUST
 70
     0
  9
$DIMSD1
 70
     0
  9
$DIMSD2
 70
     0
  9
$DIMTOLJ
 70
     1
  9
$DIMTZIN
 70
     0
  9
$DIMALTZ
 70
     0
  9
$DIMALTTZ
 70
     0
  9
$DIMUPT
 70
     0
  9
$DIMDEC
 70
     4
  9
$DIMTDEC
 70
     4
  9
$DIMALTU
 70
     2
  9
$DIMALTTD
 70
     2
  9
$DIMTXSTY
  7
STANDARD
  9
$DIMAUNIT
 70
     0
  9
$DIMADEC
 70
     0
  9
$DIMALTRND
 40
0.0
  9
$DIMAZIN
 70
     0
  9
$DIMDSEP
 70
    46
  9
$DIMATFIT
 70
     3
  9
$DIMFRAC
 70
     0
  9
$DIMLDRBLK
  1

  9
$DIMLUNIT
 70
     2
  9
$DIMLWD
 70
    -2
  9
$DIMLWE
 70
    -2
  9
$DIMTMOVE
 70
     0
  9
$DIMFXL
 40
1.0
  9
$DIMFXLON
 70
     0
  9
$DIMJOGANG
 40
0.7853981633974483
  9
$DIMTFILL
 70
     0
  9
$DIMTFILLCLR
 70
     0
  9
$DIMARCSYM
 70
     0
  9
$DIMLTYPE
  6

  9
$DIMLTEX1
  6

  9
$DIMLTEX2
  6

  9
$DIMTXTDIRECTION
 70
     0
  9
$LUNITS
 70
     2
  9
$LUPREC
 70
     4
  9
$SKETCHINC
 40
0.1
  9
$FILLETRAD
 40
0.0
  9
$AUNITS
 70
     0
  9
$AUPREC
 70
     0
  9
$MENU
  1
.
  9
$ELEVATION
 40
0.0
  9
$PELEVATION
 40
0.0
  9
$THICKNESS
 40
0.0
  9
$LIMCHECK
 70
     0
  9
$CHAMFERA
 40
0.0
  9
$CHAMFERB
 40
0.0
  9
$CHAMFERC
 40
0.0
  9
$CHAMFERD
 40
0.0
  9
$SKPOLY
 70
     0
  9
$TDCREATE
 40
2459992.399282408
  9
$TDUCREATE
 40
2459992.024282407
  9
$TDUPDATE
 40
2459992.402800926
  9
$TDUUPDATE
 40
2459992.027800926
  9
$TDINDWG
 40
0.0035185185
  9
$TDUSRTIMER
 40
0.0035185185
  9
$USRTIMER
 70
     1
  9
$ANGBASE
 50
0.0
  9
$ANGDIR
 70
     0
  9
$PDMODE
 70
     0
  9
$PDSIZE
 40
0.0
  9
$PLINEWID
 40
0.0
  9
$SPLFRAME
 70
     0
  9
$SPLINETYPE
 70
     6
  9
$SPLINESEGS
 70
     8
  9
$HANDSEED
  5
661
  9
$SURFTAB1
 70
     6
  9
$SURFTAB2
 70
     6
  9
$SURFTYPE
 70
     6
  9
$SURFU
 70
     6
  9
$SURFV
 70
     6
  9
$UCSBASE
  2

  9
$UCSNAME
  2

  9
$UCSORG
 10
0.0
 20
0.0
 30
0.0
  9
$UCSXDIR
 10
1.0
 20
0.0
 30
0.0
  9
$UCSYDIR
 10
0.0
 20
1.0
 30
0.0
  9
$UCSORTHOREF
  2

  9
$UCSORTHOVIEW
 70
     0
  9
$UCSORGTOP
 10
0.0
 20
0.0
 30
0.0
  9
$UCSORGBOTTOM
 10
0.0
 20
0.0
 30
0.0
  9
$UCSORGLEFT
 10
0.0
 20
0.0
 30
0.0
  9
$UCSORGRIGHT
 10
0.0
 20
0.0
 30
0.0
  9
$UCSORGFRONT
 10
0.0
 20
0.0
 30
0.0
  9
$UCSORGBACK
 10
0.0
 20
0.0
 30
0.0
  9
$PUCSBASE
  2

  9
$PUCSNAME
  2

  9
$PUCSORG
 10
0.0
 20
0.0
 30
0.0
  9
$PUCSXDIR
 10
1.0
 20
0.0
 30
0.0
  9
$PUCSYDIR
 10
0.0
 20
1.0
 30
0.0
  9
$PUCSORTHOREF
  2

  9
$PUCSORTHOVIEW
 70
     0
  9
$PUCSORGTOP
 10
0.0
 20
0.0
 30
0.0
  9
$PUCSORGBOTTOM
 10
0.0
 20
0.0
 30
0.0
  9
$PUCSORGLEFT
 10
0.0
 20
0.0
 30
0.0
  9
$PUCSORGRIGHT
 10
0.0
 20
0.0
 30
0.0
  9
$PUCSORGFRONT
 10
0.0
 20
0.0
 30
0.0
  9
$PUCSORGBACK
 10
0.0
 20
0.0
 30
0.0
  9
$USERI1
 70
     0
  9
$USERI2
 70
     0
  9
$USERI3
 70
     0
  9
$USERI4
 70
     0
  9
$USERI5
 70
     0
  9
$USERR1
 40
0.0
  9
$USERR2
 40
0.0
  9
$USERR3
 40
0.0
  9
$USERR4
 40
0.0
  9
$USERR5
 40
0.0
  9
$WORLDVIEW
 70
     1
  9
$SHADEDGE
 70
     3
  9
$SHADEDIF
 70
    70
  9
$TILEMODE
 70
     1
  9
$MAXACTVP
 70
    64
  9
$PINSBASE
 10
0.0
 20
0.0
 30
0.0
  9
$PLIMCHECK
 70
     0
  9
$PEXTMIN
 10
1.000000000000000E+20
 20
1.000000000000000E+20
 30
1.000000000000000E+20
  9
$PEXTMAX
 10
-1.000000000000000E+20
 20
-1.000000000000000E+20
 30
-1.000000000000000E+20
  9
$PLIMMIN
 10
0.0
 20
0.0
  9
$PLIMMAX
 10
12.0
 20
9.0
  9
$UNITMODE
 70
     0
  9
$VISRETAIN
 70
     1
  9
$PLINEGEN
 70
     0
  9
$PSLTSCALE
 70
     1
  9
$TREEDEPTH
 70
  3020
  9
$CMLSTYLE
  2
Standard
  9
$CMLJUST
 70
     0
  9
$CMLSCALE
 40
1.0
  9
$PROXYGRAPHICS
 70
     1
  9
$MEASUREMENT
 70
     1
  9
$CELWEIGHT
370
    -1
  9
$ENDCAPS
280
     0
  9
$JOINSTYLE
280
     0
  9
$LWDISPLAY
290
     0
  9
$INSUNITS
 70
     0
  9
$HYPERLINKBASE
  1

  9
$STYLESHEET
  1

  9
$XEDIT
290
     1
  9
$CEPSNTYPE
380
     0
  9
$PSTYLEMODE
290
     1
  9
$FINGERPRINTGUID
  2
{B5B6CE15-A687-224E-B007-C1FB250C6604}
  9
$VERSIONGUID
  2
{58789EE1-99CE-CF4B-ABA0-37E0D8C8316B}
  9
$EXTNAMES
290
     1
  9
$PSVPSCALE
 40
0.0
  9
$OLESTARTUP
290
     0
  9
$SORTENTS
280
   127
  9
$INDEXCTL
280
     0
  9
$HIDETEXT
280
     0
  9
$XCLIPFRAME
280
     2
  9
$HALOGAP
280
     0
  9
$OBSCOLOR
 70
   257
  9
$OBSLTYPE
280
     0
  9
$INTERSECTIONDISPLAY
280
     0
  9
$INTERSECTIONCOLOR
 70
   257
  9
$DIMASSOC
280
     1
  9
$PROJECTNAME
  1

  9
$CAMERADISPLAY
290
     0
  9
$LENSLENGTH
 40
50.0
  9
$CAMERAHEIGHT
 40
0.0
  9
$STEPSPERSEC
 40
2.0
  9
$STEPSIZE
 40
6.0
  9
$3DDWFPREC
 40
2.0
  9
$PSOLWIDTH
 40
0.25
  9
$PSOLHEIGHT
 40
4.0
  9
$LOFTANG1
 40
1.570796326794896
  9
$LOFTANG2
 40
1.570796326794896
  9
$LOFTMAG1
 40
0.0
  9
$LOFTMAG2
 40
0.0
  9
$LOFTPARAM
 70
     7
  9
$LOFTNORMALS
280
     1
  9
$LATITUDE
 40
37.795
  9
$LONGITUDE
 40
-122.394
  9
$NORTHDIRECTION
 40
0.0
  9
$TIMEZONE
 70
 -8000
  9
$LIGHTGLYPHDISPLAY
280
     1
  9
$TILEMODELIGHTSYNCH
280
     1
  9
$CMATERIAL
347
11
  9
$SOLIDHIST
280
     0
  9
$SHOWHIST
280
     1
  9
$DWFFRAME
280
     2
  9
$DGNFRAME
280
     0
  9
$REALWORLDSCALE
290
     1
  9
$INTERFERECOLOR
 62
     1
  9
$INTERFEREOBJVS
345
33
  9
$INTERFEREVPVS
346
30
  9
$CSHADOW
280
     0
  9
$SHADOWPLANELOCATION
 40
0.0
  0
ENDSEC
  0
SECTION
  2
CLASSES
  0
CLASS
  1
ACDBDICTIONARYWDFLT
  2
AcDbDictionaryWithDefault
  3
ObjectDBX Classes
 90
        0
 91
        1
280
     0
281
     0
  0
CLASS
  1
MATERIAL
  2
AcDbMaterial
  3
ObjectDBX Classes
 90
     1153
 91
        3
280
     0
281
     0
  0
CLASS
  1
VISUALSTYLE
  2
AcDbVisualStyle
  3
ObjectDBX Classes
 90
     4095
 91
       24
280
     0
281
     0
  0
CLASS
  1
SCALE
  2
AcDbScale
  3
ObjectDBX Classes
 90
     1153
 91
       17
280
     0
281
     0
  0
CLASS
  1
TABLESTYLE
  2
AcDbTableStyle
  3
ObjectDBX Classes
 90
     4095
 91
        1
280
     0
281
     0
  0
CLASS
  1
MLEADERSTYLE
  2
AcDbMLeaderStyle
  3
ACDB_MLEADERSTYLE_CLASS
 90
     4095
 91
        1
280
     0
281
     0
  0
CLASS
  1
ACDBSECTIONVIEWSTYLE
  2
AcDbSectionViewStyle
  3
ObjectDBX Classes
 90
     1025
 91
        2
280
     0
281
     0
  0
CLASS
  1
ACDBDETAILVIEWSTYLE
  2
AcDbDetailViewStyle
  3
ObjectDBX Classes
 90
     1025
 91
        2
280
     0
281
     0
  0
CLASS
  1
DICTIONARYVAR
  2
AcDbDictionaryVar
  3
ObjectDBX Classes
 90
        0
 91
        9
280
     0
281
     0
  0
CLASS
  1
CELLSTYLEMAP
  2
AcDbCellStyleMap
  3
ObjectDBX Classes
 90
     1152
 91
        1
280
     0
281
     0
  0
ENDSEC
  0
SECTION
  2
TABLES
  0
TABLE
  2
VPORT
  5
8
330
0
100
AcDbSymbolTable
 70
     1
  0
VPORT
  5
85
330
8
100
AcDbSymbolTableRecord
100
AcDbViewportTableRecord
  2
*Active
 70
     0
 10
0.0
 20
0.0
 11
1.0
 21
1.0
 12
413.4234939501893
 22
301.0922717165577
 13
0.0
 23
0.0
 14
1.0
 24
1.0
 15
0.0
 25
0.0
 16
0.0
 26
0.0
 36
1.0
 17
0.0
 27
0.0
 37
0.0
 40
551.1585385477198
 41
2.295757575757575
 42
50.0
 43
0.0
 44
0.0
 50
0.0
 51
0.0
 71
     0
 72
   100
 73
     1
 74
     1
 75
     0
 76
     0
 77
     0
 78
     0
281
     0
 65
     1
110
0.0
120
0.0
130
0.0
111
1.0
121
0.0
131
0.0
112
0.0
122
1.0
132
0.0
 79
     0
146
0.0
348
2F
 60
     3
 61
     5
292
     1
282
     1
141
0.0
142
0.0
 63
   250
421
  3355443
1001
ACAD_NAV_VCDISPLAY
1070
     3
  0
ENDTAB
  0
TABLE
  2
LTYPE
  5
5
330
0
100
AcDbSymbolTable
 70
     6
  0
LTYPE
  5
5A
330
5
100
AcDbSymbolTableRecord
100
AcDbLinetypeTableRecord
  2
ByBlock
 70
     0
  3

 72
    65
 73
     0
 40
0.0
  0
LTYPE
  5
5B
330
5
100
AcDbSymbolTableRecord
100
AcDbLinetypeTableRecord
  2
ByLayer
 70
     0
  3

 72
    65
 73
     0
 40
0.0
  0
LTYPE
  5
5C
330
5
100
AcDbSymbolTableRecord
100
AcDbLinetypeTableRecord
  2
CONTINUOUS
 70
     0
  3
Solid line (NEC CAE2D for Win R15.2 : 2020.12.23)
 72
    65
 73
     0
 40
0.0
  0
LTYPE
  5
73
330
5
100
AcDbSymbolTableRecord
100
AcDbLinetypeTableRecord
  2
DASHED
 70
     0
  3
__ __ __ __ __ __ __ __ __ __ __ __ __ _
 72
    65
 73
     2
 40
0.75
 49
0.5
 74
     0
 49
-0.25
 74
     0
  0
LTYPE
  5
74
330
5
100
AcDbSymbolTableRecord
100
AcDbLinetypeTableRecord
  2
HIDDEN
 70
     0
  3
__ __ __ __ __ __ __ __ __ __ __ __ __ __
 72
    65
 73
     2
 40
0.375
 49
0.25
 74
     0
 49
-0.125
 74
     0
  0
LTYPE
  5
75
330
5
100
AcDbSymbolTableRecord
100
AcDbLinetypeTableRecord
  2
CENTER
 70
     0
  3
____ _ ____ _ ____ _ ____ _ ____ _ ____
 72
    65
 73
     4
 40
2.0
 49
1.25
 74
     0
 49
-0.25
 74
     0
 49
0.25
 74
     0
 49
-0.25
 74
     0
  0
ENDTAB
  0
TABLE
  2
LAYER
  5
2
330
0
100
AcDbSymbolTable
 70
    11
  0
LAYER
  5
54
102
{ACAD_XDICTIONARY
360
63E
102
}
330
2
100
AcDbSymbolTableRecord
100
AcDbLayerTableRecord
  2
0
 70
     0
 62
     7
  6
CONTINUOUS
370
    -3
390
F
347
21
348
0
  0
LAYER
  5
76
102
{ACAD_XDICTIONARY
360
640
102
}
330
2
100
AcDbSymbolTableRecord
100
AcDbLayerTableRecord
  2
DXF0
 70
     0
 62
     3
  6
CONTINUOUS
370
    -3
390
F
347
21
348
0
  0
LAYER
  5
77
102
{ACAD_XDICTIONARY
360
642
102
}
330
2
100
AcDbSymbolTableRecord
100
AcDbLayerTableRecord
  2
LOUVER
 70
     0
 62
     4
  6
CONTINUOUS
370
    -3
390
F
347
21
348
0
  0
LAYER
  5
78
102
{ACAD_XDICTIONARY
360
644
102
}
330
2
100
AcDbSymbolTableRecord
100
AcDbLayerTableRecord
  2
UKEZAI
 70
     0
 62
     5
  6
CONTINUOUS
370
    -3
390
F
347
21
348
0
  0
LAYER
  5
79
102
{ACAD_XDICTIONARY
360
646
102
}
330
2
100
AcDbSymbolTableRecord
100
AcDbLayerTableRecord
  2
ANCHOR
 70
     0
 62
     2
  6
CONTINUOUS
370
    -3
390
F
347
21
348
0
  0
LAYER
  5
7A
102
{ACAD_XDICTIONARY
360
648
102
}
330
2
100
AcDbSymbolTableRecord
100
AcDbLayerTableRecord
  2
KUTAI
 70
     0
 62
     6
  6
CONTINUOUS
370
    -3
390
F
347
21
348
0
  0
LAYER
  5
7B
102
{ACAD_XDICTIONARY
360
64A
102
}
330
2
100
AcDbSymbolTableRecord
100
AcDbLayerTableRecord
  2
WASHER
 70
     0
 62
     2
  6
CONTINUOUS
370
    -3
390
F
347
21
348
0
  0
LAYER
  5
7C
102
{ACAD_XDICTIONARY
360
64C
102
}
330
2
100
AcDbSymbolTableRecord
100
AcDbLayerTableRecord
  2
COMMENT
 70
     0
 62
     3
  6
CONTINUOUS
370
    -3
390
F
347
21
348
0
  0
LAYER
  5
7D
102
{ACAD_XDICTIONARY
360
64E
102
}
330
2
100
AcDbSymbolTableRecord
100
AcDbLayerTableRecord
  2
WAKU
 70
     0
 62
     1
  6
CONTINUOUS
370
    -3
390
F
347
21
348
0
  0
LAYER
  5
7E
102
{ACAD_XDICTIONARY
360
650
102
}
330
2
100
AcDbSymbolTableRecord
100
AcDbLayerTableRecord
  2
UNTITLED0001023
 70
     0
 62
     8
  6
CONTINUOUS
370
    -3
390
F
347
21
348
0
  0
LAYER
  5
7F
102
{ACAD_XDICTIONARY
360
652
102
}
330
2
100
AcDbSymbolTableRecord
100
AcDbLayerTableRecord
  2
DXF1023
 70
     0
 62
     6
  6
CONTINUOUS
370
    -3
390
F
347
21
348
0
  0
ENDTAB
  0
TABLE
  2
STYLE
  5
3
330
0
100
AcDbSymbolTable
 70
     5
  0
STYLE
  5
55
330
3
100
AcDbSymbolTableRecord
100
AcDbTextStyleTableRecord
  2
STANDARD
 70
     0
 40
0.0
 41
1.0
 50
0.0
 71
     0
 42
4.0
  3
TXT
  4

  0
STYLE
  5
59
330
3
100
AcDbSymbolTableRecord
100
AcDbTextStyleTableRecord
  2
Annotative
 70
     0
 40
0.0
 41
1.0
 50
0.0
 71
     0
 42
0.2
  3
txt
  4

1001
AcadAnnotative
1000
AnnotativeData
1002
{
1070
     1
1070
     1
1002
}
  0
STYLE
  5
80
330
3
100
AcDbSymbolTableRecord
100
AcDbTextStyleTableRecord
  2
ANKTATE
 70
     4
 40
0.0
 41
1.0
 50
0.0
 71
     0
 42
4.0
  3
TXT
  4

  0
STYLE
  5
81
330
3
100
AcDbSymbolTableRecord
100
AcDbTextStyleTableRecord
  2
KNJYOKO
 70
     0
 40
0.0
 41
1.0
 50
0.0
 71
     0
 42
4.0
  3
TXT
  4
BIGFONT
  0
STYLE
  5
82
330
3
100
AcDbSymbolTableRecord
100
AcDbTextStyleTableRecord
  2
KNJTATE
 70
     4
 40
0.0
 41
1.0
 50
0.0
 71
     0
 42
4.0
  3
TXT
  4
BIGFONT
  0
ENDTAB
  0
TABLE
  2
VIEW
  5
6
330
0
100
AcDbSymbolTable
 70
     0
  0
ENDTAB
  0
TABLE
  2
UCS
  5
7
330
0
100
AcDbSymbolTable
 70
     0
  0
ENDTAB
  0
TABLE
  2
APPID
  5
9
330
0
100
AcDbSymbolTable
 70
     4
  0
APPID
  5
56
330
9
100
AcDbSymbolTableRecord
100
AcDbRegAppTableRecord
  2
ACAD
 70
     0
  0
APPID
  5
5D
330
9
100
AcDbSymbolTableRecord
100
AcDbRegAppTableRecord
  2
AcadAnnotative
 70
     0
  0
APPID
  5
627
330
9
100
AcDbSymbolTableRecord
100
AcDbRegAppTableRecord
  2
ACAD_EXEMPT_FROM_CAD_STANDARDS
 70
     0
  0
APPID
  5
62E
330
9
100
AcDbSymbolTableRecord
100
AcDbRegAppTableRecord
  2
ACAD_NAV_VCDISPLAY
 70
     0
  0
ENDTAB
  0
TABLE
  2
DIMSTYLE
  5
A
330
0
100
AcDbSymbolTable
 70
     3
100
AcDbDimStyleTable
 71
     0
  0
DIMSTYLE
105
57
102
{ACAD_REACTORS
330
590
330
591
330
592
330
593
330
594
330
595
330
596
330
597
330
598
330
599
330
59A
330
59B
330
59C
330
59D
330
59E
330
59F
330
5A0
330
5A1
102
}
330
A
100
AcDbSymbolTableRecord
100
AcDbDimStyleTableRecord
  2
Standard
 70
     0
340
55
  0
DIMSTYLE
105
58
330
A
100
AcDbSymbolTableRecord
100
AcDbDimStyleTableRecord
  2
Annotative
 70
     0
340
55
1001
AcadAnnotative
1000
AnnotativeData
1002
{
1070
     1
1070
     1
1002
}
  0
ENDTAB
  0
TABLE
  2
BLOCK_RECORD
  5
1
330
0
100
AcDbSymbolTable
 70
    27
  0
BLOCK_RECORD
  5
6F
330
1
100
AcDbSymbolTableRecord
100
AcDbBlockTableRecord
  2
*Model_Space
340
72
 70
     0
280
     1
281
     0
  0
BLOCK_RECORD
  5
6B
330
1
100
AcDbSymbolTableRecord
100
AcDbBlockTableRecord
  2
*Paper_Space
340
6E
 70
     0
280
     1
281
     0
  0
BLOCK_RECORD
  5
86
330
1
100
AcDbSymbolTableRecord
100
AcDbBlockTableRecord
  2
*X0
340
0
102
{BLKREFS
331
265
102
}
 70
     0
280
     1
281
     0
  0
BLOCK_RECORD
  5
97
330
1
100
AcDbSymbolTableRecord
100
AcDbBlockTableRecord
  2
*D1
340
0
 70
     0
280
     1
281
     0
  0
BLOCK_RECORD
  5
A5
330
1
100
AcDbSymbolTableRecord
100
AcDbBlockTableRecord
  2
*D2
340
0
 70
     0
280
     1
281
     0
  0
BLOCK_RECORD
  5
B3
330
1
100
AcDbSymbolTableRecord
100
AcDbBlockTableRecord
  2
*D3
340
0
 70
     0
280
     1
281
     0
  0
BLOCK_RECORD
  5
C1
330
1
100
AcDbSymbolTableRecord
100
AcDbBlockTableRecord
  2
*D4
340
0
 70
     0
280
     1
281
     0
  0
BLOCK_RECORD
  5
CF
330
1
100
AcDbSymbolTableRecord
100
AcDbBlockTableRecord
  2
*D5
340
0
 70
     0
280
     1
281
     0
  0
BLOCK_RECORD
  5
DD
330
1
100
AcDbSymbolTableRecord
100
AcDbBlockTableRecord
  2
*D6
340
0
 70
     0
280
     1
281
     0
  0
BLOCK_RECORD
  5
EB
330
1
100
AcDbSymbolTableRecord
100
AcDbBlockTableRecord
  2
*D7
340
0
 70
     0
280
     1
281
     0
  0
BLOCK_RECORD
  5
FA
330
1
100
AcDbSymbolTableRecord
100
AcDbBlockTableRecord
  2
*D8
340
0
 70
     0
280
     1
281
     0
  0
BLOCK_RECORD
  5
109
330
1
100
AcDbSymbolTableRecord
100
AcDbBlockTableRecord
  2
*D9
340
0
 70
     0
280
     1
281
     0
  0
BLOCK_RECORD
  5
117
330
1
100
AcDbSymbolTableRecord
100
AcDbBlockTableRecord
  2
*D10
340
0
 70
     0
280
     1
281
     0
  0
BLOCK_RECORD
  5
125
330
1
100
AcDbSymbolTableRecord
100
AcDbBlockTableRecord
  2
*D11
340
0
 70
     0
280
     1
281
     0
  0
BLOCK_RECORD
  5
134
330
1
100
AcDbSymbolTableRecord
100
AcDbBlockTableRecord
  2
*D12
340
0
 70
     0
280
     1
281
     0
  0
BLOCK_RECORD
  5
143
330
1
100
AcDbSymbolTableRecord
100
AcDbBlockTableRecord
  2
*D13
340
0
 70
     0
280
     1
281
     0
  0
BLOCK_RECORD
  5
151
330
1
100
AcDbSymbolTableRecord
100
AcDbBlockTableRecord
  2
*D14
340
0
 70
     0
280
     1
281
     0
  0
BLOCK_RECORD
  5
15F
330
1
100
AcDbSymbolTableRecord
100
AcDbBlockTableRecord
  2
*D15
340
0
 70
     0
280
     1
281
     0
  0
BLOCK_RECORD
  5
16D
330
1
100
AcDbSymbolTableRecord
100
AcDbBlockTableRecord
  2
*D16
340
0
 70
     0
280
     1
281
     0
  0
BLOCK_RECORD
  5
17C
330
1
100
AcDbSymbolTableRecord
100
AcDbBlockTableRecord
  2
*D17
340
0
 70
     0
280
     1
281
     0
  0
BLOCK_RECORD
  5
18A
330
1
100
AcDbSymbolTableRecord
100
AcDbBlockTableRecord
  2
*D18
340
0
 70
     0
280
     1
281
     0
  0
BLOCK_RECORD
  5
198
330
1
100
AcDbSymbolTableRecord
100
AcDbBlockTableRecord
  2
*D19
340
0
 70
     0
280
     1
281
     0
  0
BLOCK_RECORD
  5
1A6
330
1
100
AcDbSymbolTableRecord
100
AcDbBlockTableRecord
  2
*D20
340
0
 70
     0
280
     1
281
     0
  0
BLOCK_RECORD
  5
1B4
330
1
100
AcDbSymbolTableRecord
100
AcDbBlockTableRecord
  2
*D21
340
0
 70
     0
280
     1
281
     0
  0
BLOCK_RECORD
  5
1C2
330
1
100
AcDbSymbolTableRecord
100
AcDbBlockTableRecord
  2
*D22
340
0
 70
     0
280
     1
281
     0
  0
BLOCK_RECORD
  5
1D1
330
1
100
AcDbSymbolTableRecord
100
AcDbBlockTableRecord
  2
*D23
340
0
 70
     0
280
     1
281
     0
  0
BLOCK_RECORD
  5
1E0
330
1
100
AcDbSymbolTableRecord
100
AcDbBlockTableRecord
  2
*D24
340
0
 70
     0
280
     1
281
     0
  0
ENDTAB
  0
ENDSEC
  0
SECTION
  2
BLOCKS
  0
BLOCK
  5
70
330
6F
100
AcDbEntity
  8
0
100
AcDbBlockBegin
  2
*Model_Space
 70
     0
 10
0.0
 20
0.0
 30
0.0
  3
*Model_Space
  1

  0
ENDBLK
  5
71
330
6F
100
AcDbEntity
  8
0
100
AcDbBlockEnd
  0
BLOCK
  5
6C
330
6B
100
AcDbEntity
 67
     1
  8
0
100
AcDbBlockBegin
  2
*Paper_Space
 70
     0
 10
0.0
 20
0.0
 30
0.0
  3
*Paper_Space
  1

  0
ENDBLK
  5
6D
330
6B
100
AcDbEntity
 67
     1
  8
0
100
AcDbBlockEnd
  0
BLOCK
  5
87
330
86
100
AcDbEntity
  8
KUTAI
  6
ByBlock
 62
    12
100
AcDbBlockBegin
  2
*X0
 70
     1
 10
0.0
 20
0.0
 30
0.0
  3
*X0
  1

  0
LINE
  5
88
330
86
100
AcDbEntity
  8
KUTAI
  6
ByBlock
 62
     0
100
AcDbLine
 10
227.7273721234332
 20
47.28402483377447
 30
0.0
 11
229.3273721234318
 21
48.88402483377256
 31
0.0
  0
LINE
  5
89
330
86
100
AcDbEntity
  8
KUTAI
  6
ByBlock
 62
     0
100
AcDbLine
 10
228.0509278357716
 20
46.19336698166542
 30
0.0
 11
229.3908846518857
 21
47.53332379922357
 31
0.0
  0
LINE
  5
8A
330
86
100
AcDbEntity
  8
KUTAI
  6
ByBlock
 62
     0
100
AcDbLine
 10
227.7273721234332
 20
68.49722826937088
 30
0.0
 11
229.3273721234303
 21
70.09722826936846
 31
0.0
  0
LINE
  5
8B
330
86
100
AcDbEntity
  8
KUTAI
  6
ByBlock
 62
     0
100
AcDbLine
 10
256.1273721234334
 20
96.89722826937094
 30
0.0
 11
257.7273721234319
 21
98.49722826936954
 31
0.0
  0
LINE
  5
8C
330
86
100
AcDbEntity
  8
KUTAI
  6
ByBlock
 62
     0
100
AcDbLine
 10
227.7273721234328
 20
67.0830147069967
 30
0.0
 11
229.3273721234318
 21
68.68301470699619
 31
0.0
  0
LINE
  5
8D
330
86
100
AcDbEntity
  8
KUTAI
  6
ByBlock
 62
     0
100
AcDbLine
 10
256.1273721234338
 20
95.48301470699819
 30
0.0
 11
257.7273721234333
 21
97.08301470699765
 31
0.0
  0
LINE
  5
8E
330
86
100
AcDbEntity
  8
KUTAI
  6
ByBlock
 62
     0
100
AcDbLine
 10
227.7273721234315
 20
89.71043170496534
 30
0.0
 11
229.3273721234309
 21
91.31043170496484
 31
0.0
  0
LINE
  5
8F
330
86
100
AcDbEntity
  8
KUTAI
  6
ByBlock
 62
     0
100
AcDbLine
 10
241.7009652522406
 20
103.6840248337746
 30
0.0
 11
243.3009652522401
 21
105.2840248337741
 31
0.0
  0
LINE
  5
90
330
86
100
AcDbEntity
  8
KUTAI
  6
ByBlock
 62
     0
100
AcDbLine
 10
227.7273721234324
 20
88.29621814259303
 30
0.0
 11
229.3273721234314
 21
89.89621814259155
 31
0.0
  0
LINE
  5
91
330
86
100
AcDbEntity
  8
KUTAI
  6
ByBlock
 62
     0
100
AcDbLine
 10
243.1151788146158
 20
103.684024833776
 30
0.0
 11
244.7151788146125
 21
105.2840248337732
 31
0.0
  0
LINE
  5
92
330
86
100
AcDbEntity
  8
KUTAI
  6
ByBlock
 62
     0
100
AcDbLine
 10
246.9405755590291
 20
45.28402483377403
 30
0.0
 11
248.5405755590272
 21
46.88402483377165
 31
0.0
  0
LINE
  5
93
330
86
100
AcDbEntity
  8
KUTAI
  6
ByBlock
 62
     0
100
AcDbLine
 10
256.1273721234341
 20
54.47082139817908
 30
0.0
 11
256.9405755590263
 21
55.28402483377125
 31
0.0
  0
LINE
  5
94
330
86
100
AcDbEntity
  8
KUTAI
  6
ByBlock
 62
     0
100
AcDbLine
 10
248.3547891214028
 20
45.28402483377442
 30
0.0
 11
249.9547891214004
 21
46.88402483377205
 31
0.0
  0
LINE
  5
95
330
86
100
AcDbEntity
  8
KUTAI
  6
ByBlock
 62
     0
100
AcDbLine
 10
256.1273721234347
 20
53.05660783580589
 30
0.0
 11
257.727372123431
 21
54.65660783580257
 31
0.0
  0
ENDBLK
  5
96
330
86
100
AcDbEntity
  8
KUTAI
  6
ByBlock
 62
    12
100
AcDbBlockEnd
  0
BLOCK
  5
98
330
97
100
AcDbEntity
  8
DXF0
  6
Continuous
 62
     3
100
AcDbBlockBegin
  2
*D1
 70
     1
 10
0.0
 20
0.0
 30
0.0
  3
*D1
  1

  0
LINE
  5
99
330
97
100
AcDbEntity
  8
DXF0
  6
ByBlock
 62
     0
100
AcDbLine
 10
216.927372112166
 20
258.2840248337744
 30
0.0
 11
190.061826083633
 21
258.2840248337744
 31
0.0
  0
LINE
  5
9A
330
97
100
AcDbEntity
  8
DXF0
  6
ByBlock
 62
     0
100
AcDbLine
 10
192.061826083633
 20
258.2840248337744
 30
0.0
 11
192.061826083633
 21
108.2840248337749
 31
0.0
  0
LWPOLYLINE
  5
9B
330
97
100
AcDbEntity
  8
DXF0
  6
ByBlock
 62
     0
100
AcDbPolyline
 90
        2
 70
     1
 43
0.5
 10
192.311826083633
 20
258.2840248337744
 42
1.0
 10
191.811826083633
 20
258.2840248337744
 42
1.0
  0
LWPOLYLINE
  5
9F
330
97
100
AcDbEntity
  8
DXF0
  6
ByBlock
 62
     0
100
AcDbPolyline
 90
        2
 70
     1
 43
0.5
 10
192.311826083633
 20
108.2840248337749
 42
1.0
 10
191.811826083633
 20
108.2840248337749
 42
1.0
  0
TEXT
  5
A3
330
97
100
AcDbEntity
  8
DXF0
  6
ByBlock
 62
     0
100
AcDbText
 10
191.561826083633
 20
179.2890247097969
 30
0.0
 40
3.099999904632568
  1
150
 50
90.0
100
AcDbText
  0
ENDBLK
  5
A4
330
97
100
AcDbEntity
  8
DXF0
  6
Continuous
 62
     3
100
AcDbBlockEnd
  0
BLOCK
  5
A6
330
A5
100
AcDbEntity
  8
DXF0
  6
Continuous
 62
     3
100
AcDbBlockBegin
  2
*D2
 70
     1
 10
0.0
 20
0.0
 30
0.0
  3
*D2
  1

  0
LINE
  5
A7
330
A5
100
AcDbEntity
  8
DXF0
  6
ByBlock
 62
     0
100
AcDbLine
 10
204.44578413911
 20
108.2840248337749
 30
0.0
 11
204.44578413911
 21
118.284024833764
 31
0.0
  0
LWPOLYLINE
  5
A8
330
A5
100
AcDbEntity
  8
DXF0
  6
ByBlock
 62
     0
100
AcDbPolyline
 90
        2
 70
     1
 43
0.5
 10
204.69578413911
 20
108.2840248337749
 42
1.0
 10
204.19578413911
 20
108.2840248337749
 42
1.0
  0
LWPOLYLINE
  5
AC
330
A5
100
AcDbEntity
  8
DXF0
  6
ByBlock
 62
     0
100
AcDbPolyline
 90
        2
 70
     1
 43
0.5
 10
204.69578413911
 20
118.284024833764
 42
1.0
 10
204.19578413911
 20
118.284024833764
 42
1.0
  0
LINE
  5
B0
330
A5
100
AcDbEntity
  8
DXF0
  6
ByBlock
 62
     0
100
AcDbLine
 10
212.5387701867228
 20
118.2840248337837
 30
0.0
 11
202.44578413911
 21
118.2840248337591
 31
0.0
  0
TEXT
  5
B1
330
A5
100
AcDbEntity
  8
DXF0
  6
ByBlock
 62
     0
100
AcDbText
 10
203.94578413911
 20
110.6840247503229
 30
0.0
 40
3.099999904632568
  1
10
 50
90.0
100
AcDbText
  0
ENDBLK
  5
B2
330
A5
100
AcDbEntity
  8
DXF0
  6
Continuous
 62
     3
100
AcDbBlockEnd
  0
BLOCK
  5
B4
330
B3
100
AcDbEntity
  8
DXF0
  6
Continuous
 62
     3
100
AcDbBlockBegin
  2
*D3
 70
     1
 10
0.0
 20
0.0
 30
0.0
  3
*D3
  1

  0
LINE
  5
B5
330
B3
100
AcDbEntity
  8
DXF0
  6
ByBlock
 62
     0
100
AcDbLine
 10
212.5948511759181
 20
108.2840248337749
 30
0.0
 11
212.5948511759181
 21
112.79900896465
 31
0.0
  0
LWPOLYLINE
  5
B6
330
B3
100
AcDbEntity
  8
DXF0
  6
ByBlock
 62
     0
100
AcDbPolyline
 90
        2
 70
     1
 43
0.5
 10
212.8448511759181
 20
108.2840248337749
 42
1.0
 10
212.3448511759181
 20
108.2840248337749
 42
1.0
  0
LWPOLYLINE
  5
BA
330
B3
100
AcDbEntity
  8
DXF0
  6
ByBlock
 62
     0
100
AcDbPolyline
 90
        2
 70
     1
 43
0.5
 10
212.8448511759181
 20
109.2840248337906
 42
1.0
 10
212.3448511759181
 20
109.2840248337906
 42
1.0
  0
LINE
  5
BE
330
B3
100
AcDbEntity
  8
DXF0
  6
ByBlock
 62
     0
100
AcDbLine
 10
216.9273721119658
 20
109.2840248337873
 30
0.0
 11
210.5948511759181
 21
109.2840248337922
 31
0.0
  0
TEXT
  5
BF
330
B3
100
AcDbEntity
  8
DXF0
  6
ByBlock
 62
     0
100
AcDbText
 10
212.0948511759181
 20
110.1990087785381
 30
0.0
 40
3.099999904632568
  1
1
 50
90.0
100
AcDbText
  0
ENDBLK
  5
C0
330
B3
100
AcDbEntity
  8
DXF0
  6
Continuous
 62
     3
100
AcDbBlockEnd
  0
BLOCK
  5
C2
330
C1
100
AcDbEntity
  8
DXF0
  6
Continuous
 62
     3
100
AcDbBlockBegin
  2
*D4
 70
     1
 10
0.0
 20
0.0
 30
0.0
  3
*D4
  1

  0
LINE
  5
C3
330
C1
100
AcDbEntity
  8
DXF0
  6
ByBlock
 62
     0
100
AcDbLine
 10
556.2278594647026
 20
107.4245292464519
 30
0.0
 11
556.2278594647026
 21
257.4245292464514
 31
0.0
  0
LWPOLYLINE
  5
C4
330
C1
100
AcDbEntity
  8
DXF0
  6
ByBlock
 62
     0
100
AcDbPolyline
 90
        2
 70
     1
 43
0.5
 10
556.4778594647026
 20
107.4245292464519
 42
1.0
 10
555.9778594647026
 20
107.4245292464519
 42
1.0
  0
LWPOLYLINE
  5
C8
330
C1
100
AcDbEntity
  8
DXF0
  6
ByBlock
 62
     0
100
AcDbPolyline
 90
        2
 70
     1
 43
0.5
 10
556.4778594647026
 20
257.4245292464514
 42
1.0
 10
555.9778594647026
 20
257.4245292464514
 42
1.0
  0
LINE
  5
CC
330
C1
100
AcDbEntity
  8
DXF0
  6
ByBlock
 62
     0
100
AcDbLine
 10
581.9412277077364
 20
257.4245292464514
 30
0.0
 11
554.2278594647026
 21
257.4245292464514
 31
0.0
  0
TEXT
  5
CD
330
C1
100
AcDbEntity
  8
DXF0
  6
ByBlock
 62
     0
100
AcDbText
 10
555.7278594647026
 20
178.429529122474
 30
0.0
 40
3.099999904632568
  1
150
 50
90.0
100
AcDbText
  0
ENDBLK
  5
CE
330
C1
100
AcDbEntity
  8
DXF0
  6
Continuous
 62
     3
100
AcDbBlockEnd
  0
BLOCK
  5
D0
330
CF
100
AcDbEntity
  8
DXF0
  6
Continuous
 62
     3
100
AcDbBlockBegin
  2
*D5
 70
     1
 10
0.0
 20
0.0
 30
0.0
  3
*D5
  1

  0
LINE
  5
D1
330
CF
100
AcDbEntity
  8
DXF0
  6
ByBlock
 62
     0
100
AcDbLine
 10
569.1489678468752
 20
107.4245292464519
 30
0.0
 11
569.1489678468752
 21
117.4245292464626
 31
0.0
  0
LWPOLYLINE
  5
D2
330
CF
100
AcDbEntity
  8
DXF0
  6
ByBlock
 62
     0
100
AcDbPolyline
 90
        2
 70
     1
 43
0.5
 10
569.3989678468752
 20
107.4245292464519
 42
1.0
 10
568.8989678468752
 20
107.4245292464519
 42
1.0
  0
LWPOLYLINE
  5
D6
330
CF
100
AcDbEntity
  8
DXF0
  6
ByBlock
 62
     0
100
AcDbPolyline
 90
        2
 70
     1
 43
0.5
 10
569.3989678468752
 20
117.4245292464626
 42
1.0
 10
568.8989678468752
 20
117.4245292464626
 42
1.0
  0
LINE
  5
DA
330
CF
100
AcDbEntity
  8
DXF0
  6
ByBlock
 62
     0
100
AcDbLine
 10
577.5526257822914
 20
117.4245292464626
 30
0.0
 11
567.1489678468752
 21
117.4245292464626
 31
0.0
  0
TEXT
  5
DB
330
CF
100
AcDbEntity
  8
DXF0
  6
ByBlock
 62
     0
100
AcDbText
 10
568.6489678468753
 20
109.8245291630107
 30
0.0
 40
3.099999904632568
  1
10
 50
90.0
100
AcDbText
  0
ENDBLK
  5
DC
330
CF
100
AcDbEntity
  8
DXF0
  6
Continuous
 62
     3
100
AcDbBlockEnd
  0
BLOCK
  5
DE
330
DD
100
AcDbEntity
  8
DXF0
  6
Continuous
 62
     3
100
AcDbBlockBegin
  2
*D6
 70
     1
 10
0.0
 20
0.0
 30
0.0
  3
*D6
  1

  0
LINE
  5
DF
330
DD
100
AcDbEntity
  8
DXF0
  6
ByBlock
 62
     0
100
AcDbLine
 10
576.8941086565816
 20
107.4245292464519
 30
0.0
 11
576.8941086565816
 21
111.2366461078071
 31
0.0
  0
LWPOLYLINE
  5
E0
330
DD
100
AcDbEntity
  8
DXF0
  6
ByBlock
 62
     0
100
AcDbPolyline
 90
        2
 70
     1
 43
0.5
 10
577.1441086565817
 20
107.4245292464519
 42
1.0
 10
576.6441086565817
 20
107.4245292464519
 42
1.0
  0
LWPOLYLINE
  5
E4
330
DD
100
AcDbEntity
  8
DXF0
  6
ByBlock
 62
     0
100
AcDbPolyline
 90
        2
 70
     1
 43
0.5
 10
577.1441086565817
 20
108.4245292464637
 42
1.0
 10
576.6441086565817
 20
108.4245292464637
 42
1.0
  0
LINE
  5
E8
330
DD
100
AcDbEntity
  8
DXF0
  6
ByBlock
 62
     0
100
AcDbLine
 10
581.941227707536
 20
108.4245292464637
 30
0.0
 11
574.8941086565817
 21
108.4245292464637
 31
0.0
  0
TEXT
  5
E9
330
DD
100
AcDbEntity
  8
DXF0
  6
ByBlock
 62
     0
100
AcDbText
 10
576.3941086565816
 20
108.6366460162853
 30
0.0
 40
3.099999904632568
  1
1
 50
90.0
100
AcDbText
  0
ENDBLK
  5
EA
330
DD
100
AcDbEntity
  8
DXF0
  6
Continuous
 62
     3
100
AcDbBlockEnd
  0
BLOCK
  5
EC
330
EB
100
AcDbEntity
  8
DXF0
  6
Continuous
 62
     3
100
AcDbBlockBegin
  2
*D7
 70
     1
 10
0.0
 20
0.0
 30
0.0
  3
*D7
  1

  0
LINE
  5
ED
330
EB
100
AcDbEntity
  8
DXF0
  6
ByBlock
 62
     0
100
AcDbLine
 10
217.7273721240869
 20
108.4840248218656
 30
0.0
 11
217.7273721240869
 21
53.79678759746882
 31
0.0
  0
LINE
  5
EE
330
EB
100
AcDbEntity
  8
DXF0
  6
ByBlock
 62
     0
100
AcDbLine
 10
217.7273721240869
 20
55.79678759746882
 30
0.0
 11
242.7273721234328
 21
55.79678759746882
 31
0.0
  0
LWPOLYLINE
  5
EF
330
EB
100
AcDbEntity
  8
DXF0
  6
ByBlock
 62
     0
100
AcDbPolyline
 90
        2
 70
     1
 43
0.5
 10
217.9773721240869
 20
55.79678759746882
 42
1.0
 10
217.4773721240869
 20
55.79678759746882
 42
1.0
  0
LWPOLYLINE
  5
F3
330
EB
100
AcDbEntity
  8
DXF0
  6
ByBlock
 62
     0
100
AcDbPolyline
 90
        2
 70
     1
 43
0.5
 10
242.9773721234328
 20
55.79678759746882
 42
1.0
 10
242.4773721234328
 20
55.79678759746882
 42
1.0
  0
LINE
  5
F7
330
EB
100
AcDbEntity
  8
DXF0
  6
ByBlock
 62
     0
100
AcDbLine
 10
242.7273721234328
 20
60.91396926265893
 30
0.0
 11
242.7273721234328
 21
53.79678759746882
 31
0.0
  0
TEXT
  5
F8
330
EB
100
AcDbEntity
  8
DXF0
  6
ByBlock
 62
     0
100
AcDbText
 10
227.6273720403133
 20
56.29678759746882
 30
0.0
 40
3.099999904632568
  1
25
100
AcDbText
  0
ENDBLK
  5
F9
330
EB
100
AcDbEntity
  8
DXF0
  6
Continuous
 62
     3
100
AcDbBlockEnd
  0
BLOCK
  5
FB
330
FA
100
AcDbEntity
  8
DXF0
  6
Continuous
 62
     3
100
AcDbBlockBegin
  2
*D8
 70
     1
 10
0.0
 20
0.0
 30
0.0
  3
*D8
  1

  0
LINE
  5
FC
330
FA
100
AcDbEntity
  8
DXF0
  6
ByBlock
 62
     0
100
AcDbLine
 10
242.7273721234328
 20
60.91396926265893
 30
0.0
 11
242.7273721234328
 21
53.79678759746882
 31
0.0
  0
LINE
  5
FD
330
FA
100
AcDbEntity
  8
DXF0
  6
ByBlock
 62
     0
100
AcDbLine
 10
242.7273721234328
 20
55.79678759746882
 30
0.0
 11
267.7273721239927
 21
55.79678759746882
 31
0.0
  0
LWPOLYLINE
  5
FE
330
FA
100
AcDbEntity
  8
DXF0
  6
ByBlock
 62
     0
100
AcDbPolyline
 90
        2
 70
     1
 43
0.5
 10
242.9773721234328
 20
55.79678759746882
 42
1.0
 10
242.4773721234328
 20
55.79678759746882
 42
1.0
  0
LWPOLYLINE
  5
102
330
FA
100
AcDbEntity
  8
DXF0
  6
ByBlock
 62
     0
100
AcDbPolyline
 90
        2
 70
     1
 43
0.5
 10
267.9773721239927
 20
55.79678759746882
 42
1.0
 10
267.4773721239926
 20
55.79678759746882
 42
1.0
  0
LINE
  5
106
330
FA
100
AcDbEntity
  8
DXF0
  6
ByBlock
 62
     0
100
AcDbLine
 10
267.7273721239927
 20
108.4840248218684
 30
0.0
 11
267.7273721239927
 21
53.79678759746882
 31
0.0
  0
TEXT
  5
107
330
FA
100
AcDbEntity
  8
DXF0
  6
ByBlock
 62
     0
100
AcDbText
 10
252.6273720402663
 20
56.29678759746882
 30
0.0
 40
3.099999904632568
  1
25
100
AcDbText
  0
ENDBLK
  5
108
330
FA
100
AcDbEntity
  8
DXF0
  6
Continuous
 62
     3
100
AcDbBlockEnd
  0
BLOCK
  5
10A
330
109
100
AcDbEntity
  8
DXF0
  6
Continuous
 62
     3
100
AcDbBlockBegin
  2
*D9
 70
     1
 10
0.0
 20
0.0
 30
0.0
  3
*D9
  1

  0
LINE
  5
10B
330
109
100
AcDbEntity
  8
DXF0
  6
ByBlock
 62
     0
100
AcDbLine
 10
582.7412277196573
 20
107.6245292345427
 30
0.0
 11
582.7412277196573
 21
65.18180835674647
 31
0.0
  0
LINE
  5
10C
330
109
100
AcDbEntity
  8
DXF0
  6
ByBlock
 62
     0
100
AcDbLine
 10
582.7412277196573
 20
67.18180835674647
 30
0.0
 11
607.7412277190031
 21
67.18180835674647
 31
0.0
  0
LWPOLYLINE
  5
10D
330
109
100
AcDbEntity
  8
DXF0
  6
ByBlock
 62
     0
100
AcDbPolyline
 90
        2
 70
     1
 43
0.5
 10
582.9912277196573
 20
67.18180835674647
 42
1.0
 10
582.4912277196573
 20
67.18180835674647
 42
1.0
  0
LWPOLYLINE
  5
111
330
109
100
AcDbEntity
  8
DXF0
  6
ByBlock
 62
     0
100
AcDbPolyline
 90
        2
 70
     1
 43
0.5
 10
607.9912277190032
 20
67.18180835674647
 42
1.0
 10
607.4912277190032
 20
67.18180835674647
 42
1.0
  0
TEXT
  5
115
330
109
100
AcDbEntity
  8
DXF0
  6
ByBlock
 62
     0
100
AcDbText
 10
592.6412276358838
 20
67.68180835674647
 30
0.0
 40
3.099999904632568
  1
25
100
AcDbText
  0
ENDBLK
  5
116
330
109
100
AcDbEntity
  8
DXF0
  6
Continuous
 62
     3
100
AcDbBlockEnd
  0
BLOCK
  5
118
330
117
100
AcDbEntity
  8
DXF0
  6
Continuous
 62
     3
100
AcDbBlockBegin
  2
*D10
 70
     1
 10
0.0
 20
0.0
 30
0.0
  3
*D10
  1

  0
LINE
  5
119
330
117
100
AcDbEntity
  8
DXF0
  6
ByBlock
 62
     0
100
AcDbLine
 10
607.7412277190031
 20
67.18180835674647
 30
0.0
 11
632.741227719563
 21
67.18180835674647
 31
0.0
  0
LWPOLYLINE
  5
11A
330
117
100
AcDbEntity
  8
DXF0
  6
ByBlock
 62
     0
100
AcDbPolyline
 90
        2
 70
     1
 43
0.5
 10
607.9912277190032
 20
67.18180835674647
 42
1.0
 10
607.4912277190032
 20
67.18180835674647
 42
1.0
  0
LWPOLYLINE
  5
11E
330
117
100
AcDbEntity
  8
DXF0
  6
ByBlock
 62
     0
100
AcDbPolyline
 90
        2
 70
     1
 43
0.5
 10
632.9912277195631
 20
67.18180835674647
 42
1.0
 10
632.4912277195631
 20
67.18180835674647
 42
1.0
  0
LINE
  5
122
330
117
100
AcDbEntity
  8
DXF0
  6
ByBlock
 62
     0
100
AcDbLine
 10
632.741227719563
 20
107.6245292345454
 30
0.0
 11
632.741227719563
 21
65.18180835674647
 31
0.0
  0
TEXT
  5
123
330
117
100
AcDbEntity
  8
DXF0
  6
ByBlock
 62
     0
100
AcDbText
 10
617.6412276358367
 20
67.68180835674647
 30
0.0
 40
3.099999904632568
  1
25
100
AcDbText
  0
ENDBLK
  5
124
330
117
100
AcDbEntity
  8
DXF0
  6
Continuous
 62
     3
100
AcDbBlockEnd
  0
BLOCK
  5
126
330
125
100
AcDbEntity
  8
DXF0
  6
Continuous
 62
     3
100
AcDbBlockBegin
  2
*D11
 70
     1
 10
0.0
 20
0.0
 30
0.0
  3
*D11
  1

  0
LINE
  5
127
330
125
100
AcDbEntity
  8
DXF0
  6
ByBlock
 62
     0
100
AcDbLine
 10
217.727372124087
 20
259.0840248456957
 30
0.0
 11
217.727372124087
 21
271.1680454783311
 31
0.0
  0
LINE
  5
128
330
125
100
AcDbEntity
  8
DXF0
  6
ByBlock
 62
     0
100
AcDbLine
 10
217.727372124087
 20
269.1680454783311
 30
0.0
 11
267.7273721239928
 21
269.1680454783311
 31
0.0
  0
LWPOLYLINE
  5
129
330
125
100
AcDbEntity
  8
DXF0
  6
ByBlock
 62
     0
100
AcDbPolyline
 90
        2
 70
     1
 43
0.5
 10
217.977372124087
 20
269.1680454783311
 42
1.0
 10
217.477372124087
 20
269.1680454783311
 42
1.0
  0
LWPOLYLINE
  5
12D
330
125
100
AcDbEntity
  8
DXF0
  6
ByBlock
 62
     0
100
AcDbPolyline
 90
        2
 70
     1
 43
0.5
 10
267.9773721239928
 20
269.1680454783311
 42
1.0
 10
267.4773721239928
 20
269.1680454783311
 42
1.0
  0
LINE
  5
131
330
125
100
AcDbEntity
  8
DXF0
  6
ByBlock
 62
     0
100
AcDbLine
 10
267.7273721239928
 20
259.0840248456952
 30
0.0
 11
267.7273721239928
 21
271.1680454783311
 31
0.0
  0
TEXT
  5
132
330
125
100
AcDbEntity
  8
DXF0
  6
ByBlock
 62
     0
100
AcDbText
 10
240.1273720405934
 20
269.6680454783311
 30
0.0
 40
3.099999904632568
  1
50
100
AcDbText
  0
ENDBLK
  5
133
330
125
100
AcDbEntity
  8
DXF0
  6
Continuous
 62
     3
100
AcDbBlockEnd
  0
BLOCK
  5
135
330
134
100
AcDbEntity
  8
DXF0
  6
Continuous
 62
     3
100
AcDbBlockBegin
  2
*D12
 70
     1
 10
0.0
 20
0.0
 30
0.0
  3
*D12
  1

  0
LINE
  5
136
330
134
100
AcDbEntity
  8
DXF0
  6
ByBlock
 62
     0
100
AcDbLine
 10
582.7412277196573
 20
258.2245292583727
 30
0.0
 11
582.7412277196573
 21
271.1680454783311
 31
0.0
  0
LINE
  5
137
330
134
100
AcDbEntity
  8
DXF0
  6
ByBlock
 62
     0
100
AcDbLine
 10
582.7412277196573
 20
269.1680454783311
 30
0.0
 11
632.7412277195632
 21
269.1680454783311
 31
0.0
  0
LWPOLYLINE
  5
138
330
134
100
AcDbEntity
  8
DXF0
  6
ByBlock
 62
     0
100
AcDbPolyline
 90
        2
 70
     1
 43
0.5
 10
582.9912277196573
 20
269.1680454783311
 42
1.0
 10
582.4912277196573
 20
269.1680454783311
 42
1.0
  0
LWPOLYLINE
  5
13C
330
134
100
AcDbEntity
  8
DXF0
  6
ByBlock
 62
     0
100
AcDbPolyline
 90
        2
 70
     1
 43
0.5
 10
632.9912277195631
 20
269.1680454783311
 42
1.0
 10
632.4912277195632
 20
269.1680454783311
 42
1.0
  0
LINE
  5
140
330
134
100
AcDbEntity
  8
DXF0
  6
ByBlock
 62
     0
100
AcDbLine
 10
632.7412277195632
 20
258.2245292583722
 30
0.0
 11
632.7412277195632
 21
271.1680454783311
 31
0.0
  0
TEXT
  5
141
330
134
100
AcDbEntity
  8
DXF0
  6
ByBlock
 62
     0
100
AcDbText
 10
605.1412276361637
 20
269.6680454783311
 30
0.0
 40
3.099999904632568
  1
50
100
AcDbText
  0
ENDBLK
  5
142
330
134
100
AcDbEntity
  8
DXF0
  6
Continuous
 62
     3
100
AcDbBlockEnd
  0
BLOCK
  5
144
330
143
100
AcDbEntity
  8
DXF0
  6
Continuous
 62
     3
100
AcDbBlockBegin
  2
*D13
 70
     1
 10
0.0
 20
0.0
 30
0.0
  3
*D13
  1

  0
LINE
  5
145
330
143
100
AcDbEntity
  8
DXF0
  6
ByBlock
 62
     0
100
AcDbLine
 10
188.4331011178252
 20
376.7970166017144
 30
0.0
 11
188.4331011178252
 21
526.7970166017138
 31
0.0
  0
LWPOLYLINE
  5
146
330
143
100
AcDbEntity
  8
DXF0
  6
ByBlock
 62
     0
100
AcDbPolyline
 90
        2
 70
     1
 43
0.5
 10
188.6831011178252
 20
376.7970166017144
 42
1.0
 10
188.1831011178252
 20
376.7970166017144
 42
1.0
  0
LWPOLYLINE
  5
14A
330
143
100
AcDbEntity
  8
DXF0
  6
ByBlock
 62
     0
100
AcDbPolyline
 90
        2
 70
     1
 43
0.5
 10
188.6831011178252
 20
526.7970166017138
 42
1.0
 10
188.1831011178252
 20
526.7970166017138
 42
1.0
  0
LINE
  5
14E
330
143
100
AcDbEntity
  8
DXF0
  6
ByBlock
 62
     0
100
AcDbLine
 10
216.927372112166
 20
526.7970166017138
 30
0.0
 11
186.4331011178252
 21
526.7970166017138
 31
0.0
  0
TEXT
  5
14F
330
143
100
AcDbEntity
  8
DXF0
  6
ByBlock
 62
     0
100
AcDbText
 10
187.9331011178252
 20
447.8020164777364
 30
0.0
 40
3.099999904632568
  1
150
 50
90.0
100
AcDbText
  0
ENDBLK
  5
150
330
143
100
AcDbEntity
  8
DXF0
  6
Continuous
 62
     3
100
AcDbBlockEnd
  0
BLOCK
  5
152
330
151
100
AcDbEntity
  8
DXF0
  6
Continuous
 62
     3
100
AcDbBlockBegin
  2
*D14
 70
     1
 10
0.0
 20
0.0
 30
0.0
  3
*D14
  1

  0
LINE
  5
153
330
151
100
AcDbEntity
  8
DXF0
  6
ByBlock
 62
     0
100
AcDbLine
 10
199.602050947332
 20
376.7970166017144
 30
0.0
 11
199.602050947332
 21
386.7970166017254
 31
0.0
  0
LWPOLYLINE
  5
154
330
151
100
AcDbEntity
  8
DXF0
  6
ByBlock
 62
     0
100
AcDbPolyline
 90
        2
 70
     1
 43
0.5
 10
199.852050947332
 20
376.7970166017144
 42
1.0
 10
199.352050947332
 20
376.7970166017144
 42
1.0
  0
LWPOLYLINE
  5
158
330
151
100
AcDbEntity
  8
DXF0
  6
ByBlock
 62
     0
100
AcDbPolyline
 90
        2
 70
     1
 43
0.5
 10
199.852050947332
 20
386.7970166017254
 42
1.0
 10
199.352050947332
 20
386.7970166017254
 42
1.0
  0
LINE
  5
15C
330
151
100
AcDbEntity
  8
DXF0
  6
ByBlock
 62
     0
100
AcDbLine
 10
212.5387701867189
 20
386.7970166017254
 30
0.0
 11
197.602050947332
 21
386.7970166017254
 31
0.0
  0
TEXT
  5
15D
330
151
100
AcDbEntity
  8
DXF0
  6
ByBlock
 62
     0
100
AcDbText
 10
199.102050947332
 20
379.1970165182734
 30
0.0
 40
3.099999904632568
  1
10
 50
90.0
100
AcDbText
  0
ENDBLK
  5
15E
330
151
100
AcDbEntity
  8
DXF0
  6
Continuous
 62
     3
100
AcDbBlockEnd
  0
BLOCK
  5
160
330
15F
100
AcDbEntity
  8
DXF0
  6
Continuous
 62
     3
100
AcDbBlockBegin
  2
*D15
 70
     1
 10
0.0
 20
0.0
 30
0.0
  3
*D15
  1

  0
LINE
  5
161
330
15F
100
AcDbEntity
  8
DXF0
  6
ByBlock
 62
     0
100
AcDbLine
 10
210.1475889760042
 20
376.7970166017144
 30
0.0
 11
210.1475889760042
 21
381.075467329189
 31
0.0
  0
LWPOLYLINE
  5
162
330
15F
100
AcDbEntity
  8
DXF0
  6
ByBlock
 62
     0
100
AcDbPolyline
 90
        2
 70
     1
 43
0.5
 10
210.3975889760042
 20
376.7970166017144
 42
1.0
 10
209.8975889760042
 20
376.7970166017144
 42
1.0
  0
LWPOLYLINE
  5
166
330
15F
100
AcDbEntity
  8
DXF0
  6
ByBlock
 62
     0
100
AcDbPolyline
 90
        2
 70
     1
 43
0.5
 10
210.3975889760042
 20
377.7970166017262
 42
1.0
 10
209.8975889760042
 20
377.7970166017262
 42
1.0
  0
LINE
  5
16A
330
15F
100
AcDbEntity
  8
DXF0
  6
ByBlock
 62
     0
100
AcDbLine
 10
216.9273721119658
 20
377.7970166017262
 30
0.0
 11
208.1475889760042
 21
377.7970166017262
 31
0.0
  0
TEXT
  5
16B
330
15F
100
AcDbEntity
  8
DXF0
  6
ByBlock
 62
     0
100
AcDbText
 10
209.6475889760042
 20
378.4754672908892
 30
0.0
 40
3.099999904632568
  1
1
 50
90.0
100
AcDbText
  0
ENDBLK
  5
16C
330
15F
100
AcDbEntity
  8
DXF0
  6
Continuous
 62
     3
100
AcDbBlockEnd
  0
BLOCK
  5
16E
330
16D
100
AcDbEntity
  8
DXF0
  6
Continuous
 62
     3
100
AcDbBlockBegin
  2
*D16
 70
     1
 10
0.0
 20
0.0
 30
0.0
  3
*D16
  1

  0
LINE
  5
16F
330
16D
100
AcDbEntity
  8
DXF0
  6
ByBlock
 62
     0
100
AcDbLine
 10
217.727372124087
 20
527.5970166136352
 30
0.0
 11
217.727372124087
 21
535.9816242819265
 31
0.0
  0
LINE
  5
170
330
16D
100
AcDbEntity
  8
DXF0
  6
ByBlock
 62
     0
100
AcDbLine
 10
217.727372124087
 20
533.9816242819265
 30
0.0
 11
267.7273721239927
 21
533.9816242819265
 31
0.0
  0
LWPOLYLINE
  5
171
330
16D
100
AcDbEntity
  8
DXF0
  6
ByBlock
 62
     0
100
AcDbPolyline
 90
        2
 70
     1
 43
0.5
 10
217.977372124087
 20
533.9816242819265
 42
1.0
 10
217.477372124087
 20
533.9816242819265
 42
1.0
  0
LWPOLYLINE
  5
175
330
16D
100
AcDbEntity
  8
DXF0
  6
ByBlock
 62
     0
100
AcDbPolyline
 90
        2
 70
     1
 43
0.5
 10
267.9773721239927
 20
533.9816242819265
 42
1.0
 10
267.4773721239926
 20
533.9816242819265
 42
1.0
  0
LINE
  5
179
330
16D
100
AcDbEntity
  8
DXF0
  6
ByBlock
 62
     0
100
AcDbLine
 10
267.7273721239928
 20
527.5970166136347
 30
0.0
 11
267.7273721239927
 21
535.9816242819265
 31
0.0
  0
TEXT
  5
17A
330
16D
100
AcDbEntity
  8
DXF0
  6
ByBlock
 62
     0
100
AcDbText
 10
240.1273720405933
 20
534.4816242819265
 30
0.0
 40
3.099999904632568
  1
50
100
AcDbText
  0
ENDBLK
  5
17B
330
16D
100
AcDbEntity
  8
DXF0
  6
Continuous
 62
     3
100
AcDbBlockEnd
  0
BLOCK
  5
17D
330
17C
100
AcDbEntity
  8
DXF0
  6
Continuous
 62
     3
100
AcDbBlockBegin
  2
*D17
 70
     1
 10
0.0
 20
0.0
 30
0.0
  3
*D17
  1

  0
LINE
  5
17E
330
17C
100
AcDbEntity
  8
DXF0
  6
ByBlock
 62
     0
100
AcDbLine
 10
217.7273721240869
 20
376.9970165898052
 30
0.0
 11
217.7273721240869
 21
315.7722844917574
 31
0.0
  0
LINE
  5
17F
330
17C
100
AcDbEntity
  8
DXF0
  6
ByBlock
 62
     0
100
AcDbLine
 10
217.7273721240869
 20
317.7722844917574
 30
0.0
 11
242.7273721234328
 21
317.7722844917574
 31
0.0
  0
LWPOLYLINE
  5
180
330
17C
100
AcDbEntity
  8
DXF0
  6
ByBlock
 62
     0
100
AcDbPolyline
 90
        2
 70
     1
 43
0.5
 10
217.9773721240869
 20
317.7722844917574
 42
1.0
 10
217.4773721240869
 20
317.7722844917574
 42
1.0
  0
LWPOLYLINE
  5
184
330
17C
100
AcDbEntity
  8
DXF0
  6
ByBlock
 62
     0
100
AcDbPolyline
 90
        2
 70
     1
 43
0.5
 10
242.9773721234328
 20
317.7722844917574
 42
1.0
 10
242.4773721234328
 20
317.7722844917574
 42
1.0
  0
TEXT
  5
188
330
17C
100
AcDbEntity
  8
DXF0
  6
ByBlock
 62
     0
100
AcDbText
 10
227.6273720403133
 20
318.2722844917574
 30
0.0
 40
3.099999904632568
  1
25
100
AcDbText
  0
ENDBLK
  5
189
330
17C
100
AcDbEntity
  8
DXF0
  6
Continuous
 62
     3
100
AcDbBlockEnd
  0
BLOCK
  5
18B
330
18A
100
AcDbEntity
  8
DXF0
  6
Continuous
 62
     3
100
AcDbBlockBegin
  2
*D18
 70
     1
 10
0.0
 20
0.0
 30
0.0
  3
*D18
  1

  0
LINE
  5
18C
330
18A
100
AcDbEntity
  8
DXF0
  6
ByBlock
 62
     0
100
AcDbLine
 10
242.7273721234328
 20
317.7722844917574
 30
0.0
 11
267.7273721239927
 21
317.7722844917574
 31
0.0
  0
LWPOLYLINE
  5
18D
330
18A
100
AcDbEntity
  8
DXF0
  6
ByBlock
 62
     0
100
AcDbPolyline
 90
        2
 70
     1
 43
0.5
 10
242.9773721234328
 20
317.7722844917574
 42
1.0
 10
242.4773721234328
 20
317.7722844917574
 42
1.0
  0
LWPOLYLINE
  5
191
330
18A
100
AcDbEntity
  8
DXF0
  6
ByBlock
 62
     0
100
AcDbPolyline
 90
        2
 70
     1
 43
0.5
 10
267.9773721239927
 20
317.7722844917574
 42
1.0
 10
267.4773721239926
 20
317.7722844917574
 42
1.0
  0
LINE
  5
195
330
18A
100
AcDbEntity
  8
DXF0
  6
ByBlock
 62
     0
100
AcDbLine
 10
267.7273721239927
 20
376.9970165898079
 30
0.0
 11
267.7273721239927
 21
315.7722844917574
 31
0.0
  0
TEXT
  5
196
330
18A
100
AcDbEntity
  8
DXF0
  6
ByBlock
 62
     0
100
AcDbText
 10
252.6273720402663
 20
318.2722844917574
 30
0.0
 40
3.099999904632568
  1
25
100
AcDbText
  0
ENDBLK
  5
197
330
18A
100
AcDbEntity
  8
DXF0
  6
Continuous
 62
     3
100
AcDbBlockEnd
  0
BLOCK
  5
199
330
198
100
AcDbEntity
  8
DXF0
  6
Continuous
 62
     3
100
AcDbBlockBegin
  2
*D19
 70
     1
 10
0.0
 20
0.0
 30
0.0
  3
*D19
  1

  0
LINE
  5
19A
330
198
100
AcDbEntity
  8
DXF0
  6
ByBlock
 62
     0
100
AcDbLine
 10
581.9412277077364
 20
534.8538883225579
 30
0.0
 11
552.8250836647592
 21
534.8538883225579
 31
0.0
  0
LINE
  5
19B
330
198
100
AcDbEntity
  8
DXF0
  6
ByBlock
 62
     0
100
AcDbLine
 10
554.8250836647593
 20
534.8538883225579
 30
0.0
 11
554.8250836647593
 21
384.8538883225584
 31
0.0
  0
LWPOLYLINE
  5
19C
330
198
100
AcDbEntity
  8
DXF0
  6
ByBlock
 62
     0
100
AcDbPolyline
 90
        2
 70
     1
 43
0.5
 10
555.0750836647592
 20
534.8538883225579
 42
1.0
 10
554.5750836647592
 20
534.8538883225579
 42
1.0
  0
LWPOLYLINE
  5
1A0
330
198
100
AcDbEntity
  8
DXF0
  6
ByBlock
 62
     0
100
AcDbPolyline
 90
        2
 70
     1
 43
0.5
 10
555.0750836647592
 20
384.8538883225584
 42
1.0
 10
554.5750836647592
 20
384.8538883225584
 42
1.0
  0
TEXT
  5
1A4
330
198
100
AcDbEntity
  8
DXF0
  6
ByBlock
 62
     0
100
AcDbText
 10
554.3250836647593
 20
455.8588881985804
 30
0.0
 40
3.099999904632568
  1
150
 50
90.0
100
AcDbText
  0
ENDBLK
  5
1A5
330
198
100
AcDbEntity
  8
DXF0
  6
Continuous
 62
     3
100
AcDbBlockEnd
  0
BLOCK
  5
1A7
330
1A6
100
AcDbEntity
  8
DXF0
  6
Continuous
 62
     3
100
AcDbBlockBegin
  2
*D20
 70
     1
 10
0.0
 20
0.0
 30
0.0
  3
*D20
  1

  0
LINE
  5
1A8
330
1A6
100
AcDbEntity
  8
DXF0
  6
ByBlock
 62
     0
100
AcDbLine
 10
568.5655751117122
 20
384.8538883225584
 30
0.0
 11
568.5655751117122
 21
394.8538883225692
 31
0.0
  0
LWPOLYLINE
  5
1A9
330
1A6
100
AcDbEntity
  8
DXF0
  6
ByBlock
 62
     0
100
AcDbPolyline
 90
        2
 70
     1
 43
0.5
 10
568.8155751117123
 20
384.8538883225584
 42
1.0
 10
568.3155751117123
 20
384.8538883225584
 42
1.0
  0
LWPOLYLINE
  5
1AD
330
1A6
100
AcDbEntity
  8
DXF0
  6
ByBlock
 62
     0
100
AcDbPolyline
 90
        2
 70
     1
 43
0.5
 10
568.8155751117123
 20
394.8538883225692
 42
1.0
 10
568.3155751117123
 20
394.8538883225692
 42
1.0
  0
LINE
  5
1B1
330
1A6
100
AcDbEntity
  8
DXF0
  6
ByBlock
 62
     0
100
AcDbLine
 10
577.5526257822909
 20
394.8538883225692
 30
0.0
 11
566.5655751117123
 21
394.8538883225692
 31
0.0
  0
TEXT
  5
1B2
330
1A6
100
AcDbEntity
  8
DXF0
  6
ByBlock
 62
     0
100
AcDbText
 10
568.0655751117122
 20
387.2538882391173
 30
0.0
 40
3.099999904632568
  1
10
 50
90.0
100
AcDbText
  0
ENDBLK
  5
1B3
330
1A6
100
AcDbEntity
  8
DXF0
  6
Continuous
 62
     3
100
AcDbBlockEnd
  0
BLOCK
  5
1B5
330
1B4
100
AcDbEntity
  8
DXF0
  6
Continuous
 62
     3
100
AcDbBlockBegin
  2
*D21
 70
     1
 10
0.0
 20
0.0
 30
0.0
  3
*D21
  1

  0
LINE
  5
1B6
330
1B4
100
AcDbEntity
  8
DXF0
  6
ByBlock
 62
     0
100
AcDbLine
 10
577.9517250010843
 20
384.8538883225584
 30
0.0
 11
577.9517250010843
 21
389.0997970597568
 31
0.0
  0
LWPOLYLINE
  5
1B7
330
1B4
100
AcDbEntity
  8
DXF0
  6
ByBlock
 62
     0
100
AcDbPolyline
 90
        2
 70
     1
 43
0.5
 10
578.2017250010843
 20
384.8538883225584
 42
1.0
 10
577.7017250010843
 20
384.8538883225584
 42
1.0
  0
LWPOLYLINE
  5
1BB
330
1B4
100
AcDbEntity
  8
DXF0
  6
ByBlock
 62
     0
100
AcDbPolyline
 90
        2
 70
     1
 43
0.5
 10
578.2017250010843
 20
385.8538883225742
 42
1.0
 10
577.7017250010843
 20
385.8538883225742
 42
1.0
  0
LINE
  5
1BF
330
1B4
100
AcDbEntity
  8
DXF0
  6
ByBlock
 62
     0
100
AcDbLine
 10
581.9412277075362
 20
385.8538883225709
 30
0.0
 11
575.9517250010843
 21
385.8538883225758
 31
0.0
  0
TEXT
  5
1C0
330
1B4
100
AcDbEntity
  8
DXF0
  6
ByBlock
 62
     0
100
AcDbText
 10
577.4517250010843
 20
386.499796877948
 30
0.0
 40
3.099999904632568
  1
1
 50
90.0
100
AcDbText
  0
ENDBLK
  5
1C1
330
1B4
100
AcDbEntity
  8
DXF0
  6
Continuous
 62
     3
100
AcDbBlockEnd
  0
BLOCK
  5
1C3
330
1C2
100
AcDbEntity
  8
DXF0
  6
Continuous
 62
     3
100
AcDbBlockBegin
  2
*D22
 70
     1
 10
0.0
 20
0.0
 30
0.0
  3
*D22
  1

  0
LINE
  5
1C4
330
1C2
100
AcDbEntity
  8
DXF0
  6
ByBlock
 62
     0
100
AcDbLine
 10
582.7412277196573
 20
385.0538883106492
 30
0.0
 11
582.7412277196573
 21
320.9952986475398
 31
0.0
  0
LINE
  5
1C5
330
1C2
100
AcDbEntity
  8
DXF0
  6
ByBlock
 62
     0
100
AcDbLine
 10
582.7412277196573
 20
322.9952986475398
 30
0.0
 11
607.7412277190031
 21
322.9952986475398
 31
0.0
  0
LWPOLYLINE
  5
1C6
330
1C2
100
AcDbEntity
  8
DXF0
  6
ByBlock
 62
     0
100
AcDbPolyline
 90
        2
 70
     1
 43
0.5
 10
582.9912277196573
 20
322.9952986475398
 42
1.0
 10
582.4912277196573
 20
322.9952986475398
 42
1.0
  0
LWPOLYLINE
  5
1CA
330
1C2
100
AcDbEntity
  8
DXF0
  6
ByBlock
 62
     0
100
AcDbPolyline
 90
        2
 70
     1
 43
0.5
 10
607.9912277190032
 20
322.9952986475398
 42
1.0
 10
607.4912277190032
 20
322.9952986475398
 42
1.0
  0
LINE
  5
1CE
330
1C2
100
AcDbEntity
  8
DXF0
  6
ByBlock
 62
     0
100
AcDbLine
 10
607.7412277190031
 20
322.8424526523572
 30
0.0
 11
607.7412277190031
 21
320.9952986475398
 31
0.0
  0
TEXT
  5
1CF
330
1C2
100
AcDbEntity
  8
DXF0
  6
ByBlock
 62
     0
100
AcDbText
 10
592.6412276358838
 20
323.4952986475398
 30
0.0
 40
3.099999904632568
  1
25
100
AcDbText
  0
ENDBLK
  5
1D0
330
1C2
100
AcDbEntity
  8
DXF0
  6
Continuous
 62
     3
100
AcDbBlockEnd
  0
BLOCK
  5
1D2
330
1D1
100
AcDbEntity
  8
DXF0
  6
Continuous
 62
     3
100
AcDbBlockBegin
  2
*D23
 70
     1
 10
0.0
 20
0.0
 30
0.0
  3
*D23
  1

  0
LINE
  5
1D3
330
1D1
100
AcDbEntity
  8
DXF0
  6
ByBlock
 62
     0
100
AcDbLine
 10
607.7412277190031
 20
322.8424526523572
 30
0.0
 11
607.7412277190031
 21
320.9952986475398
 31
0.0
  0
LINE
  5
1D4
330
1D1
100
AcDbEntity
  8
DXF0
  6
ByBlock
 62
     0
100
AcDbLine
 10
607.7412277190031
 20
322.9952986475398
 30
0.0
 11
632.741227719563
 21
322.9952986475398
 31
0.0
  0
LWPOLYLINE
  5
1D5
330
1D1
100
AcDbEntity
  8
DXF0
  6
ByBlock
 62
     0
100
AcDbPolyline
 90
        2
 70
     1
 43
0.5
 10
607.9912277190032
 20
322.9952986475398
 42
1.0
 10
607.4912277190032
 20
322.9952986475398
 42
1.0
  0
LWPOLYLINE
  5
1D9
330
1D1
100
AcDbEntity
  8
DXF0
  6
ByBlock
 62
     0
100
AcDbPolyline
 90
        2
 70
     1
 43
0.5
 10
632.9912277195631
 20
322.9952986475398
 42
1.0
 10
632.4912277195631
 20
322.9952986475398
 42
1.0
  0
LINE
  5
1DD
330
1D1
100
AcDbEntity
  8
DXF0
  6
ByBlock
 62
     0
100
AcDbLine
 10
632.741227719563
 20
385.0538883106519
 30
0.0
 11
632.741227719563
 21
320.9952986475398
 31
0.0
  0
TEXT
  5
1DE
330
1D1
100
AcDbEntity
  8
DXF0
  6
ByBlock
 62
     0
100
AcDbText
 10
617.6412276358367
 20
323.4952986475398
 30
0.0
 40
3.099999904632568
  1
25
100
AcDbText
  0
ENDBLK
  5
1DF
330
1D1
100
AcDbEntity
  8
DXF0
  6
Continuous
 62
     3
100
AcDbBlockEnd
  0
BLOCK
  5
1E1
330
1E0
100
AcDbEntity
  8
DXF0
  6
Continuous
 62
     3
100
AcDbBlockBegin
  2
*D24
 70
     1
 10
0.0
 20
0.0
 30
0.0
  3
*D24
  1

  0
LINE
  5
1E2
330
1E0
100
AcDbEntity
  8
DXF0
  6
ByBlock
 62
     0
100
AcDbLine
 10
582.7412277196573
 20
535.6538883344792
 30
0.0
 11
582.7412277196573
 21
543.6495717127607
 31
0.0
  0
LINE
  5
1E3
330
1E0
100
AcDbEntity
  8
DXF0
  6
ByBlock
 62
     0
100
AcDbLine
 10
582.7412277196573
 20
541.6495717127608
 30
0.0
 11
632.7412277195632
 21
541.6495717127608
 31
0.0
  0
LWPOLYLINE
  5
1E4
330
1E0
100
AcDbEntity
  8
DXF0
  6
ByBlock
 62
     0
100
AcDbPolyline
 90
        2
 70
     1
 43
0.5
 10
582.9912277196573
 20
541.6495717127608
 42
1.0
 10
582.4912277196573
 20
541.6495717127608
 42
1.0
  0
LWPOLYLINE
  5
1E8
330
1E0
100
AcDbEntity
  8
DXF0
  6
ByBlock
 62
     0
100
AcDbPolyline
 90
        2
 70
     1
 43
0.5
 10
632.9912277195631
 20
541.6495717127608
 42
1.0
 10
632.4912277195632
 20
541.6495717127608
 42
1.0
  0
LINE
  5
1EC
330
1E0
100
AcDbEntity
  8
DXF0
  6
ByBlock
 62
     0
100
AcDbLine
 10
632.7412277195632
 20
535.6538883344788
 30
0.0
 11
632.7412277195632
 21
543.6495717127607
 31
0.0
  0
TEXT
  5
1ED
330
1E0
100
AcDbEntity
  8
DXF0
  6
ByBlock
 62
     0
100
AcDbText
 10
605.1412276361637
 20
542.1495717127608
 30
0.0
 40
3.099999904632568
  1
50
100
AcDbText
  0
ENDBLK
  5
1EE
330
1E0
100
AcDbEntity
  8
DXF0
  6
Continuous
 62
     3
100
AcDbBlockEnd
  0
ENDSEC
  0
SECTION
  2
ENTITIES
  0
LINE
  5
1F0
330
6F
100
AcDbEntity
  8
KUTAI
  6
Continuous
100
AcDbLine
 10
284.0129803851768
 20
340.7402453253002
 30
0.0
 11
320.0697516615907
 21
376.7970166017144
 31
0.0
  0
LINE
  5
1F1
330
6F
100
AcDbEntity
  8
KUTAI
  6
Continuous
100
AcDbLine
 10
276.9419125733111
 20
340.7402453253001
 30
0.0
 11
312.9986838497251
 21
376.7970166017144
 31
0.0
  0
LINE
  5
1F2
330
6F
100
AcDbEntity
  8
KUTAI
  6
Continuous
100
AcDbLine
 10
269.8708447614457
 20
340.7402453253003
 30
0.0
 11
305.9276160378598
 21
376.7970166017144
 31
0.0
  0
LINE
  5
1F3
330
6F
100
AcDbEntity
  8
KUTAI
  6
Continuous
100
AcDbLine
 10
148.4647851474592
 20
340.7402453253002
 30
0.0
 11
184.5215564238731
 21
376.7970166017142
 31
0.0
  0
LINE
  5
1F4
330
6F
100
AcDbEntity
  8
KUTAI
  6
Continuous
100
AcDbLine
 10
141.3937173355937
 20
340.7402453253003
 30
0.0
 11
177.4504886120078
 21
376.7970166017144
 31
0.0
  0
LINE
  5
1F5
330
6F
100
AcDbEntity
  8
KUTAI
  6
Continuous
100
AcDbLine
 10
134.3226495237282
 20
340.7402453253002
 30
0.0
 11
170.3794208001425
 21
376.7970166017144
 31
0.0
  0
LINE
  5
1FC
330
6F
100
AcDbEntity
  8
ANCHOR
  6
CENTER
100
AcDbLine
 10
607.7412277190031
 20
65.21399354186077
 30
0.0
 11
607.7412277190031
 21
120.8948959060991
 31
0.0
  0
LINE
  5
1FD
330
6F
100
AcDbEntity
  8
WASHER
  6
Continuous
100
AcDbLine
 10
592.7412277190032
 20
110.9245292464517
 30
0.0
 11
622.7412277190031
 21
110.9245292464517
 31
0.0
  0
LINE
  5
1FE
330
6F
100
AcDbEntity
  8
WASHER
  6
Continuous
100
AcDbLine
 10
622.7412277190031
 20
108.9245292464517
 30
0.0
 11
622.7412277190031
 21
110.9245292464517
 31
0.0
  0
LINE
  5
1FF
330
6F
100
AcDbEntity
  8
WASHER
  6
Continuous
100
AcDbLine
 10
592.7412277190032
 20
108.9245292464517
 30
0.0
 11
592.7412277190032
 21
110.9245292464517
 31
0.0
  0
LINE
  5
200
330
6F
100
AcDbEntity
  8
ANCHOR
  6
CENTER
100
AcDbLine
 10
596.8015886547852
 20
117.424529246441
 30
0.0
 11
578.3526257942123
 21
117.4245292464626
 31
0.0
  0
LINE
  5
201
330
6F
100
AcDbEntity
  8
ANCHOR
  6
HIDDEN
100
AcDbLine
 10
592.2412277201555
 20
119.4245292465669
 30
0.0
 11
582.7412277188267
 21
119.4245292466074
 31
0.0
  0
LINE
  5
202
330
6F
100
AcDbEntity
  8
ANCHOR
  6
HIDDEN
100
AcDbLine
 10
592.2412277207105
 20
115.4245292465669
 30
0.0
 11
582.741227718811
 21
115.4245292466074
 31
0.0
  0
LINE
  5
203
330
6F
100
AcDbEntity
  8
ANCHOR
  6
HIDDEN
100
AcDbLine
 10
595.1638774509205
 20
118.4245292465755
 30
0.0
 11
593.241227720166
 21
118.4245292465716
 31
0.0
  0
LINE
  5
204
330
6F
100
AcDbEntity
  8
ANCHOR
  6
HIDDEN
100
AcDbLine
 10
595.1638774511165
 20
116.4245292465755
 30
0.0
 11
593.2412277207039
 21
116.4245292465716
 31
0.0
  0
LINE
  5
205
330
6F
100
AcDbEntity
  8
ANCHOR
  6
HIDDEN
100
AcDbLine
 10
595.7412277202084
 20
117.4245292464154
 30
0.0
 11
595.163877450921
 21
118.4245292465761
 31
0.0
  0
LINE
  5
206
330
6F
100
AcDbEntity
  8
ANCHOR
  6
HIDDEN
100
AcDbLine
 10
595.1638774511175
 20
116.4245292465766
 30
0.0
 11
595.7412277202092
 21
117.4245292464155
 31
0.0
  0
ARC
  5
207
330
6F
100
AcDbEntity
  8
ANCHOR
  6
HIDDEN
100
AcDbCircle
 10
593.7412277207133
 20
117.4245292465739
 30
0.0
 40
0.5
100
AcDbArc
 50
97.20679386168658
 51
262.7932061387912
  0
LINE
  5
208
330
6F
100
AcDbEntity
  8
ANCHOR
  6
HIDDEN
100
AcDbLine
 10
593.6785022842484
 20
116.9284793301129
 30
0.0
 11
595.1638774511166
 21
116.4245292465751
 31
0.0
  0
LINE
  5
209
330
6F
100
AcDbEntity
  8
ANCHOR
  6
HIDDEN
100
AcDbLine
 10
593.6785022842448
 20
117.9205791630337
 30
0.0
 11
595.1638774509206
 21
118.4245292465758
 31
0.0
  0
LINE
  5
20A
330
6F
100
AcDbEntity
  8
ANCHOR
  6
HIDDEN
100
AcDbLine
 10
593.2412277201644
 20
118.4245292465712
 30
0.0
 11
592.2412277201551
 21
119.4245292465685
 31
0.0
  0
LINE
  5
20B
330
6F
100
AcDbEntity
  8
ANCHOR
  6
HIDDEN
100
AcDbLine
 10
592.2412277207105
 20
115.4245292465704
 30
0.0
 11
593.241227720703
 21
116.4245292465704
 31
0.0
  0
LINE
  5
20C
330
6F
100
AcDbEntity
  8
ANCHOR
  6
HIDDEN
100
AcDbLine
 10
592.2412277204419
 20
115.4245292465693
 30
0.0
 11
592.2412277204272
 21
119.4245292465693
 31
0.0
  0
LINE
  5
20D
330
6F
100
AcDbEntity
  8
ANCHOR
  6
HIDDEN
100
AcDbLine
 10
593.2412277202072
 20
116.4245292465693
 30
0.0
 11
593.241227720198
 21
118.4245292465693
 31
0.0
  0
LINE
  5
20E
330
6F
100
AcDbEntity
  8
ANCHOR
  6
HIDDEN
100
AcDbLine
 10
593.0412277207056
 20
116.2245292465698
 30
0.0
 11
582.7412277188151
 21
116.2245292466109
 31
0.0
  0
LINE
  5
20F
330
6F
100
AcDbEntity
  8
ANCHOR
  6
HIDDEN
100
AcDbLine
 10
593.0412277201643
 20
118.6245292465694
 30
0.0
 11
582.7412277188241
 21
118.6245292466105
 31
0.0
  0
LINE
  5
210
330
6F
100
AcDbEntity
  8
ANCHOR
  6
Continuous
100
AcDbLine
 10
580.7189171376771
 20
117.9227274941997
 30
0.0
 11
580.7189171376775
 21
116.9263309987175
 31
0.0
  0
LINE
  5
211
330
6F
100
AcDbEntity
  8
ANCHOR
  6
Continuous
100
AcDbLine
 10
580.7189171376767
 20
117.9227274941999
 30
0.0
 11
580.2412277190024
 21
117.9227274941999
 31
0.0
  0
LINE
  5
212
330
6F
100
AcDbEntity
  8
ANCHOR
  6
Continuous
100
AcDbLine
 10
580.7189171376771
 20
116.9263309987177
 30
0.0
 11
580.2412277190027
 21
116.9263309987177
 31
0.0
  0
LINE
  5
213
330
6F
100
AcDbEntity
  8
ANCHOR
  6
Continuous
100
AcDbLine
 10
582.241227719019
 20
112.7245292464567
 30
0.0
 11
582.741227719019
 21
112.7245292464571
 31
0.0
  0
ARC
  5
214
330
6F
100
AcDbEntity
  8
ANCHOR
  6
Continuous
100
AcDbCircle
 10
586.3326931133253
 20
117.2488978131414
 30
0.0
 40
6.099999999999999
100
AcDbArc
 50
183.0312034848472
 51
227.876411461438
  0
LINE
  5
215
330
6F
100
AcDbEntity
  8
ANCHOR
  6
Continuous
100
AcDbLine
 10
582.2412277189852
 20
122.1245292464586
 30
0.0
 11
582.24122771902
 21
112.724529246457
 31
0.0
  0
ARC
  5
216
330
6F
100
AcDbEntity
  8
ANCHOR
  6
Continuous
100
AcDbCircle
 10
586.3326931133253
 20
117.600160679779
 30
0.0
 40
6.099999999999999
100
AcDbArc
 50
132.1235885386251
 51
176.9687965152159
  0
LINE
  5
217
330
6F
100
AcDbEntity
  8
ANCHOR
  6
Continuous
100
AcDbLine
 10
582.741227718986
 20
122.1245292464599
 30
0.0
 11
582.7412277190208
 21
112.7245292464585
 31
0.0
  0
LINE
  5
218
330
6F
100
AcDbEntity
  8
ANCHOR
  6
Continuous
100
AcDbLine
 10
582.2412277190148
 20
122.1245292464583
 30
0.0
 11
582.7412277190148
 21
122.1245292464587
 31
0.0
  0
LINE
  5
219
330
6F
100
AcDbEntity
  8
WASHER
  6
Continuous
100
AcDbLine
 10
592.7412277190032
 20
108.9245292464517
 30
0.0
 11
622.7412277190031
 21
108.9245292464517
 31
0.0
  0
LINE
  5
21A
330
6F
100
AcDbEntity
  8
WASHER
  6
HIDDEN
100
AcDbLine
 10
610.9412277190032
 20
108.9245292464516
 30
0.0
 11
610.9412277190032
 21
110.9245292464583
 31
0.0
  0
LINE
  5
21B
330
6F
100
AcDbEntity
  8
WASHER
  6
HIDDEN
100
AcDbLine
 10
604.5412277190033
 20
108.9245292464516
 30
0.0
 11
604.5412277190033
 21
110.9245292464448
 31
0.0
  0
LINE
  5
21C
330
6F
100
AcDbEntity
  8
KUTAI
  6
Continuous
100
AcDbLine
 10
132.4720475945935
 20
108.2840248337749
 30
0.0
 11
334.6456117066339
 21
108.2840248337749
 31
0.0
  0
LINE
  5
21D
330
6F
100
AcDbEntity
  8
ANCHOR
  6
CENTER
100
AcDbLine
 10
242.7273721234328
 20
61.71396927457987
 30
0.0
 11
242.7273721234328
 21
121.7543914934221
 31
0.0
  0
LINE
  5
21E
330
6F
100
AcDbEntity
  8
WASHER
  6
Continuous
100
AcDbLine
 10
227.7273721234328
 20
111.7840248337747
 30
0.0
 11
257.7273721234328
 21
111.7840248337747
 31
0.0
  0
LINE
  5
21F
330
6F
100
AcDbEntity
  8
WASHER
  6
Continuous
100
AcDbLine
 10
257.7273721234328
 20
109.7840248337747
 30
0.0
 11
257.7273721234328
 21
111.7840248337747
 31
0.0
  0
LINE
  5
220
330
6F
100
AcDbEntity
  8
WASHER
  6
Continuous
100
AcDbLine
 10
227.7273721234328
 20
109.7840248337747
 30
0.0
 11
227.7273721234328
 21
111.7840248337747
 31
0.0
  0
LINE
  5
221
330
6F
100
AcDbEntity
  8
ANCHOR
  6
CENTER
100
AcDbLine
 10
231.7877330592167
 20
118.284024833764
 30
0.0
 11
213.3387701986437
 21
118.2840248337857
 31
0.0
  0
LINE
  5
222
330
6F
100
AcDbEntity
  8
ANCHOR
  6
HIDDEN
100
AcDbLine
 10
227.2273721245868
 20
120.28402483389
 30
0.0
 11
217.727372123258
 21
120.2840248339303
 31
0.0
  0
LINE
  5
223
330
6F
100
AcDbEntity
  8
ANCHOR
  6
HIDDEN
100
AcDbLine
 10
227.2273721251419
 20
116.28402483389
 30
0.0
 11
217.7273721232424
 21
116.2840248339303
 31
0.0
  0
LINE
  5
224
330
6F
100
AcDbEntity
  8
ANCHOR
  6
HIDDEN
100
AcDbLine
 10
230.150021855352
 20
119.2840248338985
 30
0.0
 11
228.2273721245974
 21
119.2840248338945
 31
0.0
  0
LINE
  5
225
330
6F
100
AcDbEntity
  8
ANCHOR
  6
HIDDEN
100
AcDbLine
 10
230.1500218555479
 20
117.2840248338985
 30
0.0
 11
228.2273721251354
 21
117.2840248338945
 31
0.0
  0
LINE
  5
226
330
6F
100
AcDbEntity
  8
ANCHOR
  6
HIDDEN
100
AcDbLine
 10
230.7273721246398
 20
118.2840248337384
 30
0.0
 11
230.1500218553523
 21
119.284024833899
 31
0.0
  0
LINE
  5
227
330
6F
100
AcDbEntity
  8
ANCHOR
  6
HIDDEN
100
AcDbLine
 10
230.1500218555486
 20
117.2840248338998
 30
0.0
 11
230.7273721246403
 21
118.2840248337387
 31
0.0
  0
ARC
  5
228
330
6F
100
AcDbEntity
  8
ANCHOR
  6
HIDDEN
100
AcDbCircle
 10
228.7273721251447
 20
118.2840248338968
 30
0.0
 40
0.5
100
AcDbArc
 50
97.20679386168658
 51
262.7932061387912
  0
LINE
  5
229
330
6F
100
AcDbEntity
  8
ANCHOR
  6
HIDDEN
100
AcDbLine
 10
228.6646466886797
 20
117.7879749174357
 30
0.0
 11
230.1500218555479
 21
117.2840248338979
 31
0.0
  0
LINE
  5
22A
330
6F
100
AcDbEntity
  8
ANCHOR
  6
HIDDEN
100
AcDbLine
 10
228.6646466886761
 20
118.7800747503566
 30
0.0
 11
230.1500218553519
 21
119.2840248338987
 31
0.0
  0
LINE
  5
22B
330
6F
100
AcDbEntity
  8
ANCHOR
  6
HIDDEN
100
AcDbLine
 10
228.2273721245957
 20
119.2840248338941
 30
0.0
 11
227.2273721245864
 21
120.2840248338914
 31
0.0
  0
LINE
  5
22C
330
6F
100
AcDbEntity
  8
ANCHOR
  6
HIDDEN
100
AcDbLine
 10
227.2273721251419
 20
116.2840248338932
 30
0.0
 11
228.2273721251345
 21
117.2840248338934
 31
0.0
  0
LINE
  5
22D
330
6F
100
AcDbEntity
  8
ANCHOR
  6
HIDDEN
100
AcDbLine
 10
227.2273721248733
 20
116.2840248338922
 30
0.0
 11
227.2273721248585
 21
120.2840248338922
 31
0.0
  0
LINE
  5
22E
330
6F
100
AcDbEntity
  8
ANCHOR
  6
HIDDEN
100
AcDbLine
 10
228.2273721246386
 20
117.2840248338924
 30
0.0
 11
228.2273721246294
 21
119.2840248338924
 31
0.0
  0
LINE
  5
22F
330
6F
100
AcDbEntity
  8
ANCHOR
  6
HIDDEN
100
AcDbLine
 10
228.0273721251369
 20
117.0840248338927
 30
0.0
 11
217.7273721232463
 21
117.0840248339338
 31
0.0
  0
LINE
  5
230
330
6F
100
AcDbEntity
  8
ANCHOR
  6
HIDDEN
100
AcDbLine
 10
228.0273721245957
 20
119.4840248338923
 30
0.0
 11
217.7273721232555
 21
119.4840248339335
 31
0.0
  0
LINE
  5
231
330
6F
100
AcDbEntity
  8
ANCHOR
  6
Continuous
100
AcDbLine
 10
215.7050615421084
 20
118.7822230815226
 30
0.0
 11
215.7050615421089
 21
117.7858265860404
 31
0.0
  0
LINE
  5
232
330
6F
100
AcDbEntity
  8
ANCHOR
  6
Continuous
100
AcDbLine
 10
215.7050615421081
 20
118.7822230815229
 30
0.0
 11
215.2273721234338
 21
118.7822230815229
 31
0.0
  0
LINE
  5
233
330
6F
100
AcDbEntity
  8
ANCHOR
  6
Continuous
100
AcDbLine
 10
215.7050615421086
 20
117.7858265860407
 30
0.0
 11
215.2273721234342
 21
117.7858265860407
 31
0.0
  0
LINE
  5
234
330
6F
100
AcDbEntity
  8
ANCHOR
  6
Continuous
100
AcDbLine
 10
217.2273721234506
 20
113.5840248337796
 30
0.0
 11
217.7273721234506
 21
113.58402483378
 31
0.0
  0
ARC
  5
235
330
6F
100
AcDbEntity
  8
ANCHOR
  6
Continuous
100
AcDbCircle
 10
221.3188375177567
 20
118.1083934004643
 30
0.0
 40
6.099999999999999
100
AcDbArc
 50
183.0312034848472
 51
227.876411461438
  0
LINE
  5
236
330
6F
100
AcDbEntity
  8
ANCHOR
  6
Continuous
100
AcDbLine
 10
217.2273721234166
 20
122.9840248337815
 30
0.0
 11
217.2273721234514
 21
113.5840248337799
 31
0.0
  0
ARC
  5
237
330
6F
100
AcDbEntity
  8
ANCHOR
  6
Continuous
100
AcDbCircle
 10
221.3188375177567
 20
118.4596562671019
 30
0.0
 40
6.099999999999999
100
AcDbArc
 50
132.1235885386251
 51
176.9687965152159
  0
LINE
  5
238
330
6F
100
AcDbEntity
  8
ANCHOR
  6
Continuous
100
AcDbLine
 10
217.7273721234175
 20
122.9840248337829
 30
0.0
 11
217.7273721234522
 21
113.5840248337814
 31
0.0
  0
LINE
  5
239
330
6F
100
AcDbEntity
  8
ANCHOR
  6
Continuous
100
AcDbLine
 10
217.2273721234463
 20
122.9840248337812
 30
0.0
 11
217.7273721234463
 21
122.9840248337817
 31
0.0
  0
LINE
  5
23A
330
6F
100
AcDbEntity
  8
WASHER
  6
Continuous
100
AcDbLine
 10
227.7273721234328
 20
109.7840248337747
 30
0.0
 11
257.7273721234328
 21
109.7840248337747
 31
0.0
  0
LINE
  5
23B
330
6F
100
AcDbEntity
  8
WASHER
  6
HIDDEN
100
AcDbLine
 10
245.9273721234329
 20
109.7840248337745
 30
0.0
 11
245.9273721234329
 21
111.7840248337812
 31
0.0
  0
LINE
  5
23C
330
6F
100
AcDbEntity
  8
WASHER
  6
HIDDEN
100
AcDbLine
 10
239.527372123433
 20
109.7840248337745
 30
0.0
 11
239.527372123433
 21
111.7840248337677
 31
0.0
  0
LINE
  5
23D
330
6F
100
AcDbEntity
  8
ANCHOR
  6
Continuous
100
AcDbLine
 10
248.2273721234651
 20
111.7840248337788
 30
0.0
 11
237.2273721234651
 21
111.7840248337707
 31
0.0
  0
LINE
  5
23E
330
6F
100
AcDbEntity
  8
ANCHOR
  6
Continuous
100
AcDbLine
 10
248.2273721234645
 20
111.7840248337793
 30
0.0
 11
248.2273721234648
 21
112.584024833779
 31
0.0
  0
LINE
  5
23F
330
6F
100
AcDbEntity
  8
ANCHOR
  6
Continuous
100
AcDbLine
 10
237.2273721234645
 20
111.7840248337707
 30
0.0
 11
237.2273721234648
 21
112.584024833771
 31
0.0
  0
LINE
  5
240
330
6F
100
AcDbEntity
  8
ANCHOR
  6
Continuous
100
AcDbLine
 10
248.2273721234645
 20
112.584024833779
 30
0.0
 11
237.2273721234645
 21
112.5840248337709
 31
0.0
  0
ARC
  5
241
330
6F
100
AcDbEntity
  8
ANCHOR
  6
Continuous
100
AcDbCircle
 10
242.7273721234668
 20
108.7281424808338
 30
0.0
 40
5.555882352941173
100
AcDbArc
 50
43.94901598298635
 51
136.0509840170985
  0
LINE
  5
242
330
6F
100
AcDbEntity
  8
ANCHOR
  6
HIDDEN
100
AcDbLine
 10
240.7273721233263
 20
75.28402483382715
 30
0.0
 11
240.7273721232859
 21
111.7840248339507
 31
0.0
  0
LINE
  5
243
330
6F
100
AcDbEntity
  8
ANCHOR
  6
HIDDEN
100
AcDbLine
 10
244.7273721233263
 20
75.28402483327207
 30
0.0
 11
244.7273721232859
 21
111.7840248339663
 31
0.0
  0
LINE
  5
244
330
6F
100
AcDbEntity
  8
ANCHOR
  6
HIDDEN
100
AcDbLine
 10
241.7273721233181
 20
72.36137510306196
 30
0.0
 11
241.727372123322
 21
74.28402483381645
 31
0.0
  0
LINE
  5
245
330
6F
100
AcDbEntity
  8
ANCHOR
  6
HIDDEN
100
AcDbLine
 10
243.7273721233181
 20
72.36137510286607
 30
0.0
 11
243.727372123322
 21
74.28402483327857
 31
0.0
  0
LINE
  5
246
330
6F
100
AcDbEntity
  8
ANCHOR
  6
HIDDEN
100
AcDbLine
 10
242.7273721234784
 20
71.78402483377387
 30
0.0
 11
241.7273721233177
 21
72.36137510306126
 31
0.0
  0
LINE
  5
247
330
6F
100
AcDbEntity
  8
ANCHOR
  6
HIDDEN
100
AcDbLine
 10
243.727372123317
 20
72.36137510286569
 30
0.0
 11
242.7273721234781
 21
71.78402483377387
 31
0.0
  0
ARC
  5
248
330
6F
100
AcDbEntity
  8
ANCHOR
  6
HIDDEN
100
AcDbCircle
 10
242.7273721233194
 20
73.78402483326876
 30
0.0
 40
0.5
100
AcDbArc
 50
7.206793861208892
 51
172.7932061383134
  0
LINE
  5
249
330
6F
100
AcDbEntity
  8
ANCHOR
  6
HIDDEN
100
AcDbLine
 10
243.2234220397804
 20
73.84675026973366
 30
0.0
 11
243.7273721233182
 21
72.36137510286525
 31
0.0
  0
LINE
  5
24A
330
6F
100
AcDbEntity
  8
ANCHOR
  6
HIDDEN
100
AcDbLine
 10
242.2313222068599
 20
73.84675026973716
 30
0.0
 11
241.7273721233178
 21
72.36137510306169
 31
0.0
  0
LINE
  5
24B
330
6F
100
AcDbEntity
  8
ANCHOR
  6
HIDDEN
100
AcDbLine
 10
241.7273721233227
 20
74.28402483381844
 30
0.0
 11
240.7273721233254
 21
75.28402483382784
 31
0.0
  0
LINE
  5
24C
330
6F
100
AcDbEntity
  8
ANCHOR
  6
HIDDEN
100
AcDbLine
 10
244.7273721233234
 20
75.2840248332721
 30
0.0
 11
243.7273721233232
 21
74.28402483327956
 31
0.0
  0
LINE
  5
24D
330
6F
100
AcDbEntity
  8
ANCHOR
  6
HIDDEN
100
AcDbLine
 10
244.727372123324
 20
75.28402483354044
 30
0.0
 11
240.727372123324
 21
75.28402483355526
 31
0.0
  0
LINE
  5
24E
330
6F
100
AcDbEntity
  8
ANCHOR
  6
HIDDEN
100
AcDbLine
 10
243.7273721233241
 20
74.28402483377516
 30
0.0
 11
241.7273721233241
 21
74.28402483378436
 31
0.0
  0
LINE
  5
24F
330
6F
100
AcDbEntity
  8
ANCHOR
  6
HIDDEN
100
AcDbLine
 10
243.9273721233238
 20
74.48402483327694
 30
0.0
 11
243.9273721232827
 21
111.7840248339624
 31
0.0
  0
LINE
  5
250
330
6F
100
AcDbEntity
  8
ANCHOR
  6
HIDDEN
100
AcDbLine
 10
241.5273721233242
 20
74.48402483381816
 30
0.0
 11
241.5273721232831
 21
111.7840248339532
 31
0.0
  0
LINE
  5
251
330
6F
100
AcDbEntity
  8
KUTAI
  6
Continuous
100
AcDbLine
 10
227.7273721234328
 20
47.28402483377482
 30
0.0
 11
227.7273721234328
 21
103.2840248337749
 31
0.0
  0
LINE
  5
252
330
6F
100
AcDbEntity
  8
KUTAI
  6
Continuous
100
AcDbLine
 10
229.7273721234328
 20
45.28402483377482
 30
0.0
 11
255.7273721234328
 21
45.28402483377482
 31
0.0
  0
LINE
  5
253
330
6F
100
AcDbEntity
  8
KUTAI
  6
Continuous
100
AcDbLine
 10
230.3273721234328
 20
103.6840248337749
 30
0.0
 11
255.1273721234328
 21
103.6840248337749
 31
0.0
  0
LINE
  5
254
330
6F
100
AcDbEntity
  8
KUTAI
  6
Continuous
100
AcDbLine
 10
229.3273721234328
 20
47.88402483377482
 30
0.0
 11
229.3273721234328
 21
102.6840248337749
 31
0.0
  0
LINE
  5
255
330
6F
100
AcDbEntity
  8
KUTAI
  6
Continuous
100
AcDbLine
 10
230.3273721234328
 20
46.88402483377482
 30
0.0
 11
255.1273721234329
 21
46.88402483377482
 31
0.0
  0
LINE
  5
256
330
6F
100
AcDbEntity
  8
KUTAI
  6
Continuous
100
AcDbLine
 10
256.1273721234328
 20
95.28402483377485
 30
0.0
 11
257.7273721234328
 21
95.28402483377485
 31
0.0
  0
LINE
  5
257
330
6F
100
AcDbEntity
  8
KUTAI
  6
Continuous
100
AcDbLine
 10
256.1273721234328
 20
55.28402483377487
 30
0.0
 11
257.7273721234328
 21
55.28402483377487
 31
0.0
  0
LINE
  5
258
330
6F
100
AcDbEntity
  8
KUTAI
  6
Continuous
100
AcDbLine
 10
256.1273721234328
 20
47.88402483377482
 30
0.0
 11
256.1273721234328
 21
55.28402483377487
 31
0.0
  0
LINE
  5
259
330
6F
100
AcDbEntity
  8
KUTAI
  6
Continuous
100
AcDbLine
 10
256.1273721234328
 20
95.28402483377485
 30
0.0
 11
256.1273721234328
 21
102.6840248337749
 31
0.0
  0
LINE
  5
25A
330
6F
100
AcDbEntity
  8
KUTAI
  6
Continuous
100
AcDbLine
 10
257.7273721234328
 20
47.28402483377482
 30
0.0
 11
257.7273721234328
 21
55.28402483377487
 31
0.0
  0
LINE
  5
25B
330
6F
100
AcDbEntity
  8
KUTAI
  6
Continuous
100
AcDbLine
 10
257.7273721234328
 20
95.28402483377485
 30
0.0
 11
257.7273721234328
 21
103.2840248337749
 31
0.0
  0
ARC
  5
25C
330
6F
100
AcDbEntity
  8
KUTAI
  6
Continuous
100
AcDbCircle
 10
255.7273721234328
 20
103.2840248337749
 30
0.0
 40
2.0
100
AcDbArc
 50
0.0
 51
90.0
  0
ARC
  5
25D
330
6F
100
AcDbEntity
  8
KUTAI
  6
Continuous
100
AcDbCircle
 10
229.7273721234328
 20
103.2840248337749
 30
0.0
 40
2.0
100
AcDbArc
 50
90.0
 51
180.0
  0
ARC
  5
25E
330
6F
100
AcDbEntity
  8
KUTAI
  6
Continuous
100
AcDbCircle
 10
229.7273721234328
 20
47.28402483377482
 30
0.0
 40
2.0
100
AcDbArc
 50
180.0
 51
270.0
  0
ARC
  5
25F
330
6F
100
AcDbEntity
  8
KUTAI
  6
Continuous
100
AcDbCircle
 10
255.7273721234328
 20
47.28402483377482
 30
0.0
 40
2.0
100
AcDbArc
 50
270.0
 51
0.0
  0
ARC
  5
260
330
6F
100
AcDbEntity
  8
KUTAI
  6
Continuous
100
AcDbCircle
 10
255.1273721234329
 20
47.88402483377482
 30
0.0
 40
1.0
100
AcDbArc
 50
270.0
 51
0.0
  0
ARC
  5
261
330
6F
100
AcDbEntity
  8
KUTAI
  6
Continuous
100
AcDbCircle
 10
255.1273721234328
 20
102.6840248337749
 30
0.0
 40
1.0
100
AcDbArc
 50
0.0
 51
90.0
  0
ARC
  5
262
330
6F
100
AcDbEntity
  8
KUTAI
  6
Continuous
100
AcDbCircle
 10
230.3273721234328
 20
102.6840248337749
 30
0.0
 40
1.0
100
AcDbArc
 50
90.0
 51
180.0
  0
ARC
  5
263
330
6F
100
AcDbEntity
  8
KUTAI
  6
Continuous
100
AcDbCircle
 10
230.3273721234328
 20
47.88402483377482
 30
0.0
 40
1.0
100
AcDbArc
 50
180.0
 51
270.0
  0
LINE
  5
264
330
6F
100
AcDbEntity
  8
KUTAI
  6
Continuous
100
AcDbLine
 10
132.4720475945935
 20
105.2840248337749
 30
0.0
 11
334.6456117066339
 21
105.2840248337749
 31
0.0
  0
INSERT
  5
265
330
6F
100
AcDbEntity
  8
KUTAI
  6
Continuous
100
AcDbBlockReference
  2
*X0
 10
0.0
 20
0.0
 30
0.0
  0
TEXT
  5
266
330
6F
100
AcDbEntity
  8
COMMENT
  6
Continuous
100
AcDbText
 10
349.9418172490461
 20
322.2594101746117
 30
0.0
 40
6.0
  1
RC納まり図
  7
KNJYOKO
100
AcDbText
  0
LINE
  5
267
330
6F
100
AcDbEntity
  8
COMMENT
  6
Continuous
100
AcDbLine
 10
343.7194436660042
 20
316.0977062953458
 30
0.0
 11
393.4272863119038
 21
316.0977062953458
 31
0.0
  0
LINE
  5
268
330
6F
100
AcDbEntity
  8
COMMENT
  6
Continuous
100
AcDbLine
 10
393.4272863119038
 20
316.0977062953458
 30
0.0
 11
393.4272863119038
 21
332.4572886387153
 31
0.0
  0
LINE
  5
269
330
6F
100
AcDbEntity
  8
COMMENT
  6
Continuous
100
AcDbLine
 10
393.4272863119038
 20
332.4572886387153
 30
0.0
 11
343.7194436660042
 21
332.4572886387153
 31
0.0
  0
LINE
  5
26A
330
6F
100
AcDbEntity
  8
COMMENT
  6
Continuous
100
AcDbLine
 10
343.7194436660042
 20
332.4572886387153
 30
0.0
 11
343.7194436660042
 21
316.0977062953458
 31
0.0
  0
TEXT
  5
270
330
6F
100
AcDbEntity
  8
COMMENT
  6
Continuous
100
AcDbText
 10
727.6696757584102
 20
53.68204903107908
 30
0.0
 40
6.0
  1
ECP納まり図
  7
KNJYOKO
100
AcDbText
  0
LINE
  5
271
330
6F
100
AcDbEntity
  8
COMMENT
  6
Continuous
100
AcDbLine
 10
723.8888328008928
 20
47.52034515181315
 30
0.0
 11
773.5966754467924
 21
47.52034515181315
 31
0.0
  0
LINE
  5
272
330
6F
100
AcDbEntity
  8
COMMENT
  6
Continuous
100
AcDbLine
 10
773.5966754467924
 20
47.52034515181315
 30
0.0
 11
773.5966754467924
 21
63.87992749518264
 31
0.0
  0
LINE
  5
273
330
6F
100
AcDbEntity
  8
COMMENT
  6
Continuous
100
AcDbLine
 10
773.5966754467924
 20
63.87992749518264
 30
0.0
 11
723.8888328008928
 21
63.87992749518264
 31
0.0
  0
LINE
  5
274
330
6F
100
AcDbEntity
  8
COMMENT
  6
Continuous
100
AcDbLine
 10
723.8888328008928
 20
63.87992749518264
 30
0.0
 11
723.8888328008928
 21
47.52034515181315
 31
0.0
  0
TEXT
  5
275
330
6F
100
AcDbEntity
  8
COMMENT
  6
Continuous
100
AcDbText
 10
349.941817249046
 20
53.68204903107908
 30
0.0
 40
6.0
  1
鉄骨納まり図
  7
KNJYOKO
100
AcDbText
  0
LINE
  5
276
330
6F
100
AcDbEntity
  8
COMMENT
  6
Continuous
100
AcDbLine
 10
343.7194436660041
 20
47.52034515181315
 30
0.0
 11
393.4272863119038
 21
47.52034515181315
 31
0.0
  0
LINE
  5
277
330
6F
100
AcDbEntity
  8
COMMENT
  6
Continuous
100
AcDbLine
 10
393.4272863119038
 20
47.52034515181315
 30
0.0
 11
393.4272863119038
 21
63.87992749518264
 31
0.0
  0
LINE
  5
278
330
6F
100
AcDbEntity
  8
COMMENT
  6
Continuous
100
AcDbLine
 10
393.4272863119038
 20
63.87992749518264
 30
0.0
 11
343.7194436660041
 21
63.87992749518264
 31
0.0
  0
LINE
  5
279
330
6F
100
AcDbEntity
  8
COMMENT
  6
Continuous
100
AcDbLine
 10
343.7194436660041
 20
63.87992749518264
 30
0.0
 11
343.7194436660041
 21
47.52034515181315
 31
0.0
  0
LINE
  5
27A
330
6F
100
AcDbEntity
  8
WAKU
  6
Continuous
100
AcDbLine
 10
33.25789717601344
 20
27.52034515181316
 30
0.0
 11
793.5966754467925
 21
27.52034515181316
 31
0.0
  0
LINE
  5
27B
330
6F
100
AcDbEntity
  8
WAKU
  6
Continuous
100
AcDbLine
 10
793.5966754467925
 20
27.52034515181316
 30
0.0
 11
793.5966754467925
 21
574.6750674359869
 31
0.0
  0
LINE
  5
27C
330
6F
100
AcDbEntity
  8
WAKU
  6
Continuous
100
AcDbLine
 10
33.25789717601344
 20
574.6750674359869
 30
0.0
 11
33.25789717601344
 21
27.52034515181316
 31
0.0
  0
LINE
  5
27D
330
6F
100
AcDbEntity
  8
WAKU
  6
Continuous
100
AcDbLine
 10
793.5966754467925
 20
296.0977062953458
 30
0.0
 11
33.25789717601344
 21
296.0977062953458
 31
0.0
  0
LINE
  5
27E
330
6F
100
AcDbEntity
  8
WAKU
  6
Continuous
100
AcDbLine
 10
413.4272863119038
 20
27.52034515181315
 30
0.0
 11
413.4272863119038
 21
549.6750674359869
 31
0.0
  0
LINE
  5
27F
330
6F
100
AcDbEntity
  8
WAKU
  6
Continuous
100
AcDbLine
 10
793.5966754467925
 20
574.6750674359869
 30
0.0
 11
33.25789717601344
 21
574.6750674359869
 31
0.0
  0
LINE
  5
280
330
6F
100
AcDbEntity
  8
WAKU
  6
Continuous
100
AcDbLine
 10
793.5966754467925
 20
549.6750674359869
 30
0.0
 11
33.25789717601344
 21
549.6750674359869
 31
0.0
  0
LINE
  5
281
330
6F
100
AcDbEntity
  8
UKEZAI
  6
Continuous
100
AcDbLine
 10
224.5273721244798
 20
376.7970166017144
 30
0.0
 11
260.9273721245829
 21
376.7970166017144
 31
0.0
  0
TEXT
  5
2D1
330
6F
100
AcDbEntity
  8
WAKU
  6
Continuous
100
AcDbText
 10
38.64675006063919
 20
555.4024753726626
 30
0.0
 40
12.0
  1
外装ルーバー　スカイフィット　直付タイプ
  7
KNJYOKO
100
AcDbText
  0
LINE
  5
2D2
330
6F
100
AcDbEntity
  8
ANCHOR
  6
CENTER
100
AcDbLine
 10
242.7273721234328
 20
315.5855809434343
 30
0.0
 11
242.7273721234328
 21
390.2312783162358
 31
0.0
  0
LINE
  5
2D3
330
6F
100
AcDbEntity
  8
KUTAI
  6
Continuous
100
AcDbLine
 10
335.1307796053935
 20
376.7970166017144
 30
0.0
 11
132.957215493353
 21
376.7970166017144
 31
0.0
  0
LINE
  5
2D4
330
6F
100
AcDbEntity
  8
ANCHOR
  6
CENTER
100
AcDbLine
 10
231.7877330592127
 20
386.7970166017037
 30
0.0
 11
213.3387701986398
 21
386.7970166017254
 31
0.0
  0
LINE
  5
2D5
330
6F
100
AcDbEntity
  8
ANCHOR
  6
HIDDEN
100
AcDbLine
 10
227.2273721245831
 20
388.7970166018296
 30
0.0
 11
217.7273721232543
 21
388.79701660187
 31
0.0
  0
LINE
  5
2D6
330
6F
100
AcDbEntity
  8
ANCHOR
  6
HIDDEN
100
AcDbLine
 10
227.2273721251381
 20
384.7970166018297
 30
0.0
 11
217.7273721232387
 21
384.79701660187
 31
0.0
  0
LINE
  5
2D7
330
6F
100
AcDbEntity
  8
ANCHOR
  6
HIDDEN
100
AcDbLine
 10
230.1500218553486
 20
387.7970166018383
 30
0.0
 11
228.2273721245938
 21
387.7970166018345
 31
0.0
  0
LINE
  5
2D8
330
6F
100
AcDbEntity
  8
ANCHOR
  6
HIDDEN
100
AcDbLine
 10
230.1500218555444
 20
385.7970166018383
 30
0.0
 11
228.2273721251317
 21
385.7970166018345
 31
0.0
  0
LINE
  5
2D9
330
6F
100
AcDbEntity
  8
ANCHOR
  6
HIDDEN
100
AcDbLine
 10
230.7273721246359
 20
386.797016601678
 30
0.0
 11
230.1500218553484
 21
387.7970166018389
 31
0.0
  0
LINE
  5
2DA
330
6F
100
AcDbEntity
  8
ANCHOR
  6
HIDDEN
100
AcDbLine
 10
230.1500218555452
 20
385.7970166018399
 30
0.0
 11
230.7273721246369
 21
386.7970166016789
 31
0.0
  0
ARC
  5
2DB
330
6F
100
AcDbEntity
  8
ANCHOR
  6
HIDDEN
100
AcDbCircle
 10
228.7273721251411
 20
386.797016601837
 30
0.0
 40
0.5
100
AcDbArc
 50
97.20679386168658
 51
262.7932061387912
  0
LINE
  5
2DC
330
6F
100
AcDbEntity
  8
ANCHOR
  6
HIDDEN
100
AcDbLine
 10
228.6646466886761
 20
386.3009666853758
 30
0.0
 11
230.1500218555444
 21
385.7970166018382
 31
0.0
  0
LINE
  5
2DD
330
6F
100
AcDbEntity
  8
ANCHOR
  6
HIDDEN
100
AcDbLine
 10
228.6646466886726
 20
387.2930665182969
 30
0.0
 11
230.1500218553483
 21
387.797016601839
 31
0.0
  0
LINE
  5
2DE
330
6F
100
AcDbEntity
  8
ANCHOR
  6
HIDDEN
100
AcDbLine
 10
228.2273721245922
 20
387.7970166018338
 30
0.0
 11
227.2273721245828
 21
388.7970166018312
 31
0.0
  0
LINE
  5
2DF
330
6F
100
AcDbEntity
  8
ANCHOR
  6
HIDDEN
100
AcDbLine
 10
227.2273721251386
 20
384.7970166018335
 30
0.0
 11
228.2273721251311
 21
385.7970166018337
 31
0.0
  0
LINE
  5
2E0
330
6F
100
AcDbEntity
  8
ANCHOR
  6
HIDDEN
100
AcDbLine
 10
227.2273721248696
 20
384.7970166018321
 30
0.0
 11
227.2273721248548
 21
388.7970166018321
 31
0.0
  0
LINE
  5
2E1
330
6F
100
AcDbEntity
  8
ANCHOR
  6
HIDDEN
100
AcDbLine
 10
228.2273721246356
 20
385.7970166018323
 30
0.0
 11
228.2273721246263
 21
387.7970166018323
 31
0.0
  0
LINE
  5
2E2
330
6F
100
AcDbEntity
  8
ANCHOR
  6
HIDDEN
100
AcDbLine
 10
228.0273721251333
 20
385.5970166018324
 30
0.0
 11
217.7273721232427
 21
385.5970166018735
 31
0.0
  0
LINE
  5
2E3
330
6F
100
AcDbEntity
  8
ANCHOR
  6
HIDDEN
100
AcDbLine
 10
228.0273721245922
 20
387.9970166018322
 30
0.0
 11
217.7273721232519
 21
387.9970166018734
 31
0.0
  0
LINE
  5
2E4
330
6F
100
AcDbEntity
  8
ANCHOR
  6
Continuous
100
AcDbLine
 10
215.7050615421047
 20
387.2952148494625
 30
0.0
 11
215.7050615421052
 21
386.2988183539803
 31
0.0
  0
LINE
  5
2E5
330
6F
100
AcDbEntity
  8
ANCHOR
  6
Continuous
100
AcDbLine
 10
215.7050615421045
 20
387.2952148494629
 30
0.0
 11
215.2273721234301
 21
387.2952148494629
 31
0.0
  0
LINE
  5
2E6
330
6F
100
AcDbEntity
  8
ANCHOR
  6
Continuous
100
AcDbLine
 10
215.7050615421049
 20
386.2988183539806
 30
0.0
 11
215.2273721234306
 21
386.2988183539806
 31
0.0
  0
LINE
  5
2E7
330
6F
100
AcDbEntity
  8
ANCHOR
  6
Continuous
100
AcDbLine
 10
217.2273721234471
 20
382.0970166017196
 30
0.0
 11
217.7273721234471
 21
382.0970166017199
 31
0.0
  0
ARC
  5
2E8
330
6F
100
AcDbEntity
  8
ANCHOR
  6
Continuous
100
AcDbCircle
 10
221.3188375177531
 20
386.6213851684045
 30
0.0
 40
6.099999999999999
100
AcDbArc
 50
183.0312034848472
 51
227.876411461438
  0
LINE
  5
2E9
330
6F
100
AcDbEntity
  8
ANCHOR
  6
Continuous
100
AcDbLine
 10
217.2273721234131
 20
391.4970166017217
 30
0.0
 11
217.2273721234479
 21
382.0970166017201
 31
0.0
  0
ARC
  5
2EA
330
6F
100
AcDbEntity
  8
ANCHOR
  6
Continuous
100
AcDbCircle
 10
221.3188375177531
 20
386.972648035042
 30
0.0
 40
6.099999999999999
100
AcDbArc
 50
132.1235885386251
 51
176.9687965152159
  0
LINE
  5
2EB
330
6F
100
AcDbEntity
  8
ANCHOR
  6
Continuous
100
AcDbLine
 10
217.7273721234137
 20
391.497016601723
 30
0.0
 11
217.7273721234484
 21
382.0970166017215
 31
0.0
  0
LINE
  5
2EC
330
6F
100
AcDbEntity
  8
ANCHOR
  6
Continuous
100
AcDbLine
 10
217.2273721234426
 20
391.4970166017213
 30
0.0
 11
217.7273721234426
 21
391.4970166017217
 31
0.0
  0
LINE
  5
2ED
330
6F
100
AcDbEntity
  8
ANCHOR
  6
HIDDEN
100
AcDbLine
 10
242.7273721234749
 20
369.7970166017253
 30
0.0
 11
243.0273721234833
 21
369.7970166017253
 31
0.0
  0
LINE
  5
2EE
330
6F
100
AcDbEntity
  8
ANCHOR
  6
HIDDEN
100
AcDbLine
 10
243.0273721235101
 20
344.2970166017255
 30
0.0
 11
243.0273721234819
 21
369.7970166017257
 31
0.0
  0
LINE
  5
2EF
330
6F
100
AcDbEntity
  8
ANCHOR
  6
HIDDEN
100
AcDbLine
 10
241.0689159441696
 20
336.4687127814584
 30
0.0
 11
238.6982166493243
 21
336.7277835428954
 31
0.0
  0
LINE
  5
2F0
330
6F
100
AcDbEntity
  8
ANCHOR
  6
HIDDEN
100
AcDbLine
 10
238.7273721234807
 20
371.7970166017164
 30
0.0
 11
238.0273721234753
 21
376.7970166017144
 31
0.0
  0
LINE
  5
2F1
330
6F
100
AcDbEntity
  8
ANCHOR
  6
HIDDEN
100
AcDbLine
 10
242.7273721234893
 20
369.7970166017246
 30
0.0
 11
242.4273721234827
 21
369.797016601724
 31
0.0
  0
LINE
  5
2F2
330
6F
100
AcDbEntity
  8
ANCHOR
  6
HIDDEN
100
AcDbLine
 10
242.4273721235109
 20
344.297016601724
 30
0.0
 11
242.4273721234825
 21
369.7970166017244
 31
0.0
  0
LINE
  5
2F3
330
6F
100
AcDbEntity
  8
ANCHOR
  6
HIDDEN
100
AcDbLine
 10
238.7273721234866
 20
366.2970166017162
 30
0.0
 11
239.7273721234866
 21
365.7970166017187
 31
0.0
  0
LINE
  5
2F4
330
6F
100
AcDbEntity
  8
ANCHOR
  6
HIDDEN
100
AcDbLine
 10
239.7273721234872
 20
365.7970166017191
 30
0.0
 11
239.9773721234958
 21
357.7970166017196
 31
0.0
  0
LINE
  5
2F5
330
6F
100
AcDbEntity
  8
ANCHOR
  6
HIDDEN
100
AcDbLine
 10
238.7273721234875
 20
366.2970166017166
 30
0.0
 11
238.7273721234759
 21
376.7970166017166
 31
0.0
  0
LINE
  5
2F6
330
6F
100
AcDbEntity
  8
ANCHOR
  6
HIDDEN
100
AcDbLine
 10
241.8918576058291
 20
339.3966415752485
 30
0.0
 11
237.6324027755069
 21
339.8621161331554
 31
0.0
  0
LINE
  5
2F7
330
6F
100
AcDbEntity
  8
ANCHOR
  6
HIDDEN
100
AcDbLine
 10
242.0004911829198
 20
340.3907234360269
 30
0.0
 11
238.3871895621033
 21
340.7855861688256
 31
0.0
  0
LINE
  5
2F8
330
6F
100
AcDbEntity
  8
ANCHOR
  6
HIDDEN
100
AcDbLine
 10
238.6982166493257
 20
336.7277835428943
 30
0.0
 11
237.6324027755076
 21
339.8621161331549
 31
0.0
  0
LINE
  5
2F9
330
6F
100
AcDbEntity
  8
ANCHOR
  6
HIDDEN
100
AcDbLine
 10
237.6324027755062
 20
339.8621161331544
 30
0.0
 11
238.3871895621033
 21
340.7855861688252
 31
0.0
  0
LINE
  5
2FA
330
6F
100
AcDbEntity
  8
ANCHOR
  6
HIDDEN
100
AcDbLine
 10
242.1091247600114
 20
341.3848052968044
 30
0.0
 11
237.8496699296875
 21
341.8502798547113
 31
0.0
  0
LINE
  5
2FB
330
6F
100
AcDbEntity
  8
ANCHOR
  6
HIDDEN
100
AcDbLine
 10
238.387189562104
 20
340.7855861688244
 30
0.0
 11
237.8496699296887
 21
341.8502798547107
 31
0.0
  0
LINE
  5
2FC
330
6F
100
AcDbEntity
  8
ANCHOR
  6
HIDDEN
100
AcDbLine
 10
242.2720751256486
 20
342.8759280879719
 30
0.0
 11
238.0126202953246
 21
343.341402645879
 31
0.0
  0
LINE
  5
2FD
330
6F
100
AcDbEntity
  8
ANCHOR
  6
HIDDEN
100
AcDbLine
 10
237.8496699296879
 20
341.8502798547113
 30
0.0
 11
238.0126202953238
 21
343.3414026458788
 31
0.0
  0
LINE
  5
2FE
330
6F
100
AcDbEntity
  8
ANCHOR
  6
HIDDEN
100
AcDbLine
 10
238.1918656975243
 20
344.9816377161578
 30
0.0
 11
238.4471546036877
 21
347.3177300889919
 31
0.0
  0
LINE
  5
2FF
330
6F
100
AcDbEntity
  8
ANCHOR
  6
HIDDEN
100
AcDbLine
 10
242.3263919141914
 20
343.3729690183623
 30
0.0
 11
238.7130902933712
 21
343.7678317511612
 31
0.0
  0
LINE
  5
300
330
6F
100
AcDbEntity
  8
ANCHOR
  6
HIDDEN
100
AcDbLine
 10
242.3807087027381
 20
343.8700099487506
 30
0.0
 11
238.7674070819162
 21
344.2648726815499
 31
0.0
  0
LINE
  5
301
330
6F
100
AcDbEntity
  8
ANCHOR
  6
HIDDEN
100
AcDbLine
 10
238.713090293372
 20
343.7678317511604
 30
0.0
 11
238.0126202953234
 21
343.3414026458788
 31
0.0
  0
LINE
  5
302
330
6F
100
AcDbEntity
  8
ANCHOR
  6
HIDDEN
100
AcDbLine
 10
238.7130902933732
 20
343.7678317511601
 30
0.0
 11
238.7674070819173
 21
344.2648726815494
 31
0.0
  0
LINE
  5
303
330
6F
100
AcDbEntity
  8
ANCHOR
  6
HIDDEN
100
AcDbLine
 10
238.7674070819151
 20
344.26487268155
 30
0.0
 11
238.1918656975218
 21
344.9816377161584
 31
0.0
  0
LINE
  5
304
330
6F
100
AcDbEntity
  8
ANCHOR
  6
HIDDEN
100
AcDbLine
 10
242.0258493024886
 20
346.9266492114698
 30
0.0
 11
238.4471546036859
 21
347.3177300889922
 31
0.0
  0
LINE
  5
305
330
6F
100
AcDbEntity
  8
ANCHOR
  6
HIDDEN
100
AcDbLine
 10
239.0933078131907
 20
347.2471182638842
 30
0.0
 11
239.1476246017349
 21
347.744159194273
 31
0.0
  0
LINE
  5
306
330
6F
100
AcDbEntity
  8
ANCHOR
  6
HIDDEN
100
AcDbLine
 10
242.0801660910341
 20
347.4236901418596
 30
0.0
 11
239.1476246017333
 21
347.7441591942743
 31
0.0
  0
LINE
  5
307
330
6F
100
AcDbEntity
  8
ANCHOR
  6
HIDDEN
100
AcDbLine
 10
239.147624601732
 20
347.744159194272
 30
0.0
 11
238.5720832173386
 21
348.4609242288805
 31
0.0
  0
LINE
  5
308
330
6F
100
AcDbEntity
  8
ANCHOR
  6
HIDDEN
100
AcDbLine
 10
238.8273721235076
 20
348.4470166017119
 30
0.0
 11
238.8273721235049
 21
350.7970166017169
 31
0.0
  0
LINE
  5
309
330
6F
100
AcDbEntity
  8
ANCHOR
  6
HIDDEN
100
AcDbLine
 10
242.4273721235044
 20
350.7970166017241
 30
0.0
 11
238.8273721235041
 21
350.7970166017162
 31
0.0
  0
LINE
  5
30A
330
6F
100
AcDbEntity
  8
ANCHOR
  6
HIDDEN
100
AcDbLine
 10
239.4773721234997
 20
350.7970166017173
 30
0.0
 11
239.477372123498
 21
351.2970166017173
 31
0.0
  0
LINE
  5
30B
330
6F
100
AcDbEntity
  8
ANCHOR
  6
HIDDEN
100
AcDbLine
 10
242.4273721235045
 20
351.2970166017246
 30
0.0
 11
239.4773721234983
 21
351.297016601718
 31
0.0
  0
LINE
  5
30C
330
6F
100
AcDbEntity
  8
ANCHOR
  6
HIDDEN
100
AcDbLine
 10
239.4773721234978
 20
351.2970166017186
 30
0.0
 11
238.8273721235016
 21
351.9470166017121
 31
0.0
  0
LINE
  5
30D
330
6F
100
AcDbEntity
  8
ANCHOR
  6
HIDDEN
100
AcDbLine
 10
238.8273721235035
 20
351.9470166017117
 30
0.0
 11
238.8273721235008
 21
354.2970166017166
 31
0.0
  0
LINE
  5
30E
330
6F
100
AcDbEntity
  8
ANCHOR
  6
HIDDEN
100
AcDbLine
 10
242.427372123501
 20
354.2970166017251
 30
0.0
 11
238.8273721235007
 21
354.297016601717
 31
0.0
  0
LINE
  5
30F
330
6F
100
AcDbEntity
  8
ANCHOR
  6
HIDDEN
100
AcDbLine
 10
239.4773721234977
 20
354.2970166017182
 30
0.0
 11
239.4773721234961
 21
354.7970166017182
 31
0.0
  0
LINE
  5
310
330
6F
100
AcDbEntity
  8
ANCHOR
  6
HIDDEN
100
AcDbLine
 10
242.4273721235005
 20
354.7970166017251
 30
0.0
 11
239.4773721234961
 21
354.7970166017186
 31
0.0
  0
LINE
  5
311
330
6F
100
AcDbEntity
  8
ANCHOR
  6
HIDDEN
100
AcDbLine
 10
239.4773721234946
 20
354.797016601718
 30
0.0
 11
238.8273721234982
 21
355.4470166017114
 31
0.0
  0
LINE
  5
312
330
6F
100
AcDbEntity
  8
ANCHOR
  6
HIDDEN
100
AcDbLine
 10
238.8273721235006
 20
354.2970166017167
 30
0.0
 11
238.8273721234967
 21
357.7970166017172
 31
0.0
  0
LINE
  5
313
330
6F
100
AcDbEntity
  8
ANCHOR
  6
HIDDEN
100
AcDbLine
 10
242.4273721234962
 20
357.7970166017246
 30
0.0
 11
238.7273721233555
 21
357.7970166017166
 31
0.0
  0
LINE
  5
314
330
6F
100
AcDbEntity
  8
ANCHOR
  6
HIDDEN
100
AcDbLine
 10
242.4273721234953
 20
358.2970166017247
 30
0.0
 11
239.9617471234946
 21
358.2970166017193
 31
0.0
  0
LINE
  5
315
330
6F
100
AcDbEntity
  8
ANCHOR
  6
HIDDEN
100
AcDbLine
 10
242.4273721234893
 20
361.2970166017253
 30
0.0
 11
239.8679971234922
 21
361.2970166017196
 31
0.0
  0
LINE
  5
316
330
6F
100
AcDbEntity
  8
ANCHOR
  6
HIDDEN
100
AcDbLine
 10
242.4273721234866
 20
361.7970166017248
 30
0.0
 11
239.8523721234913
 21
361.7970166017191
 31
0.0
  0
LINE
  5
317
330
6F
100
AcDbEntity
  8
ANCHOR
  6
HIDDEN
100
AcDbLine
 10
242.4273721234815
 20
364.7970166017244
 30
0.0
 11
239.758622123488
 21
364.7970166017186
 31
0.0
  0
LINE
  5
318
330
6F
100
AcDbEntity
  8
ANCHOR
  6
HIDDEN
100
AcDbLine
 10
242.4273721234794
 20
365.2970166017248
 30
0.0
 11
239.7429971234878
 21
365.297016601719
 31
0.0
  0
LINE
  5
319
330
6F
100
AcDbEntity
  8
ANCHOR
  6
HIDDEN
100
AcDbLine
 10
242.4273721235093
 20
344.2970166017123
 30
0.0
 11
241.6202736631017
 21
336.9114369233016
 31
0.0
  0
ARC
  5
31A
330
6F
100
AcDbEntity
  8
ANCHOR
  6
HIDDEN
100
AcDbCircle
 10
241.123232732715
 20
336.9657537118474
 30
0.0
 40
0.5
100
AcDbArc
 50
263.7634467283077
 51
353.7634467282444
  0
LINE
  5
31B
330
6F
100
AcDbEntity
  8
ANCHOR
  6
HIDDEN
100
AcDbLine
 10
242.7273720779525
 20
369.7970166017257
 30
0.0
 11
242.4273720779441
 21
369.7970166017232
 31
0.0
  0
LINE
  5
31C
330
6F
100
AcDbEntity
  8
ANCHOR
  6
HIDDEN
100
AcDbLine
 10
242.4273720781444
 20
344.2970166017226
 30
0.0
 11
242.4273720779464
 21
369.7970166017226
 31
0.0
  0
LINE
  5
31D
330
6F
100
AcDbEntity
  8
ANCHOR
  6
HIDDEN
100
AcDbLine
 10
244.3858282575541
 20
336.4687127814728
 30
0.0
 11
246.7565275523972
 21
336.7277835429309
 31
0.0
  0
LINE
  5
31E
330
6F
100
AcDbEntity
  8
ANCHOR
  6
HIDDEN
100
AcDbLine
 10
246.7273720779321
 20
371.7970166017516
 30
0.0
 11
247.4273720778932
 21
376.7970166017568
 31
0.0
  0
LINE
  5
31F
330
6F
100
AcDbEntity
  8
ANCHOR
  6
HIDDEN
100
AcDbLine
 10
242.7273720779369
 20
369.7970166017247
 30
0.0
 11
243.0273720779452
 21
369.7970166017269
 31
0.0
  0
LINE
  5
320
330
6F
100
AcDbEntity
  8
ANCHOR
  6
HIDDEN
100
AcDbLine
 10
243.0273720781441
 20
344.2970166017269
 30
0.0
 11
243.0273720779462
 21
369.7970166017269
 31
0.0
  0
LINE
  5
321
330
6F
100
AcDbEntity
  8
ANCHOR
  6
HIDDEN
100
AcDbLine
 10
246.7273720779745
 20
366.2970166017521
 30
0.0
 11
245.7273720779772
 21
365.7970166017451
 31
0.0
  0
LINE
  5
322
330
6F
100
AcDbEntity
  8
ANCHOR
  6
HIDDEN
100
AcDbLine
 10
245.7273720779773
 20
365.797016601745
 30
0.0
 11
245.4773720780396
 21
357.7970166017436
 31
0.0
  0
LINE
  5
323
330
6F
100
AcDbEntity
  8
ANCHOR
  6
HIDDEN
100
AcDbLine
 10
246.727372077972
 20
366.2970166017523
 30
0.0
 11
246.7273720778905
 21
376.7970166017524
 31
0.0
  0
LINE
  5
324
330
6F
100
AcDbEntity
  8
ANCHOR
  6
HIDDEN
100
AcDbLine
 10
243.5628865958693
 20
339.3966415752553
 30
0.0
 11
247.8223414261872
 21
339.8621161332001
 31
0.0
  0
LINE
  5
325
330
6F
100
AcDbEntity
  8
ANCHOR
  6
HIDDEN
100
AcDbLine
 10
243.4542530187666
 20
340.3907234360322
 30
0.0
 11
247.0675546395795
 21
340.7855861688628
 31
0.0
  0
LINE
  5
326
330
6F
100
AcDbEntity
  8
ANCHOR
  6
HIDDEN
100
AcDbLine
 10
246.7565275523973
 20
336.7277835429308
 30
0.0
 11
247.8223414261875
 21
339.8621161332004
 31
0.0
  0
LINE
  5
327
330
6F
100
AcDbEntity
  8
ANCHOR
  6
HIDDEN
100
AcDbLine
 10
247.8223414261859
 20
339.8621161332005
 30
0.0
 11
247.0675546395812
 21
340.7855861688639
 31
0.0
  0
LINE
  5
328
330
6F
100
AcDbEntity
  8
ANCHOR
  6
HIDDEN
100
AcDbLine
 10
243.3456194416709
 20
341.3848052968104
 30
0.0
 11
247.6050742719883
 21
341.8502798547549
 31
0.0
  0
LINE
  5
329
330
6F
100
AcDbEntity
  8
ANCHOR
  6
HIDDEN
100
AcDbLine
 10
247.0675546395805
 20
340.7855861688645
 30
0.0
 11
247.6050742719866
 21
341.8502798547558
 31
0.0
  0
LINE
  5
32A
330
6F
100
AcDbEntity
  8
ANCHOR
  6
HIDDEN
100
AcDbLine
 10
243.1826690760211
 20
342.8759280879756
 30
0.0
 11
247.442123906341
 21
343.3414026459203
 31
0.0
  0
LINE
  5
32B
330
6F
100
AcDbEntity
  8
ANCHOR
  6
HIDDEN
100
AcDbLine
 10
247.6050742719885
 20
341.8502798547546
 30
0.0
 11
247.4421239063395
 21
343.3414026459207
 31
0.0
  0
LINE
  5
32C
330
6F
100
AcDbEntity
  8
ANCHOR
  6
HIDDEN
100
AcDbLine
 10
247.2628785041254
 20
344.9816377161981
 30
0.0
 11
247.0075895979412
 21
347.3177300890299
 31
0.0
  0
LINE
  5
32D
330
6F
100
AcDbEntity
  8
ANCHOR
  6
HIDDEN
100
AcDbLine
 10
243.1283522874706
 20
343.3729690183654
 30
0.0
 11
246.7416539082872
 21
343.7678317511963
 31
0.0
  0
LINE
  5
32E
330
6F
100
AcDbEntity
  8
ANCHOR
  6
HIDDEN
100
AcDbLine
 10
243.0740354989202
 20
343.8700099487539
 30
0.0
 11
246.6873371197386
 21
344.2648726815853
 31
0.0
  0
LINE
  5
32F
330
6F
100
AcDbEntity
  8
ANCHOR
  6
HIDDEN
100
AcDbLine
 10
246.7416539082858
 20
343.7678317511965
 30
0.0
 11
247.4421239063381
 21
343.341402645921
 31
0.0
  0
LINE
  5
330
330
6F
100
AcDbEntity
  8
ANCHOR
  6
HIDDEN
100
AcDbLine
 10
246.7416539082867
 20
343.767831751196
 30
0.0
 11
246.6873371197381
 21
344.2648726815848
 31
0.0
  0
LINE
  5
331
330
6F
100
AcDbEntity
  8
ANCHOR
  6
HIDDEN
100
AcDbLine
 10
246.6873371197379
 20
344.2648726815848
 30
0.0
 11
247.2628785041248
 21
344.9816377161984
 31
0.0
  0
LINE
  5
332
330
6F
100
AcDbEntity
  8
ANCHOR
  6
HIDDEN
100
AcDbLine
 10
243.4288948991427
 20
346.926649211476
 30
0.0
 11
247.0075895979419
 21
347.3177300890299
 31
0.0
  0
LINE
  5
333
330
6F
100
AcDbEntity
  8
ANCHOR
  6
HIDDEN
100
AcDbLine
 10
246.3614363884375
 20
347.2471182639158
 30
0.0
 11
246.3071195998888
 21
347.7441591943048
 31
0.0
  0
LINE
  5
334
330
6F
100
AcDbEntity
  8
ANCHOR
  6
HIDDEN
100
AcDbLine
 10
243.3745781105925
 20
347.4236901418653
 30
0.0
 11
246.3071195998905
 21
347.7441591943059
 31
0.0
  0
LINE
  5
335
330
6F
100
AcDbEntity
  8
ANCHOR
  6
HIDDEN
100
AcDbLine
 10
246.3071195998912
 20
347.7441591943048
 30
0.0
 11
246.8826609842781
 21
348.4609242289184
 31
0.0
  0
LINE
  5
336
330
6F
100
AcDbEntity
  8
ANCHOR
  6
HIDDEN
100
AcDbLine
 10
246.6273720781127
 20
348.4470166017459
 30
0.0
 11
246.6273720780944
 21
350.7970166017508
 31
0.0
  0
LINE
  5
337
330
6F
100
AcDbEntity
  8
ANCHOR
  6
HIDDEN
100
AcDbLine
 10
243.027372078093
 20
350.7970166017269
 30
0.0
 11
246.6273720780934
 21
350.7970166017508
 31
0.0
  0
LINE
  5
338
330
6F
100
AcDbEntity
  8
ANCHOR
  6
HIDDEN
100
AcDbLine
 10
245.977372078096
 20
350.7970166017469
 30
0.0
 11
245.9773720780933
 21
351.2970166017469
 31
0.0
  0
LINE
  5
339
330
6F
100
AcDbEntity
  8
ANCHOR
  6
HIDDEN
100
AcDbLine
 10
243.0273720780882
 20
351.297016601728
 30
0.0
 11
245.9773720780926
 21
351.2970166017477
 31
0.0
  0
LINE
  5
33A
330
6F
100
AcDbEntity
  8
ANCHOR
  6
HIDDEN
100
AcDbLine
 10
245.9773720780936
 20
351.297016601745
 30
0.0
 11
246.627372078084
 21
351.9470166017442
 31
0.0
  0
LINE
  5
33B
330
6F
100
AcDbEntity
  8
ANCHOR
  6
HIDDEN
100
AcDbLine
 10
246.6273720780855
 20
351.9470166017459
 30
0.0
 11
246.6273720780672
 21
354.2970166017508
 31
0.0
  0
LINE
  5
33C
330
6F
100
AcDbEntity
  8
ANCHOR
  6
HIDDEN
100
AcDbLine
 10
243.0273720780668
 20
354.2970166017269
 30
0.0
 11
246.6273720780671
 21
354.2970166017508
 31
0.0
  0
LINE
  5
33D
330
6F
100
AcDbEntity
  8
ANCHOR
  6
HIDDEN
100
AcDbLine
 10
245.9773720780699
 20
354.2970166017464
 30
0.0
 11
245.9773720780672
 21
354.7970166017464
 31
0.0
  0
LINE
  5
33E
330
6F
100
AcDbEntity
  8
ANCHOR
  6
HIDDEN
100
AcDbLine
 10
243.0273720780612
 20
354.7970166017277
 30
0.0
 11
245.9773720780656
 21
354.7970166017474
 31
0.0
  0
LINE
  5
33F
330
6F
100
AcDbEntity
  8
ANCHOR
  6
HIDDEN
100
AcDbLine
 10
245.9773720780664
 20
354.7970166017468
 30
0.0
 11
246.6273720780569
 21
355.447016601746
 31
0.0
  0
LINE
  5
340
330
6F
100
AcDbEntity
  8
ANCHOR
  6
HIDDEN
100
AcDbLine
 10
246.6273720780676
 20
354.2970166017514
 30
0.0
 11
246.6273720780405
 21
357.7970166017518
 31
0.0
  0
LINE
  5
341
330
6F
100
AcDbEntity
  8
ANCHOR
  6
HIDDEN
100
AcDbLine
 10
243.0273720780384
 20
357.7970166017276
 30
0.0
 11
246.727372078181
 21
357.7970166017521
 31
0.0
  0
LINE
  5
342
330
6F
100
AcDbEntity
  8
ANCHOR
  6
HIDDEN
100
AcDbLine
 10
243.0273720780355
 20
358.2970166017273
 30
0.0
 11
245.4929970780345
 21
358.2970166017437
 31
0.0
  0
LINE
  5
343
330
6F
100
AcDbEntity
  8
ANCHOR
  6
HIDDEN
100
AcDbLine
 10
243.0273720780167
 20
361.2970166017277
 30
0.0
 11
245.586747078012
 21
361.2970166017448
 31
0.0
  0
LINE
  5
344
330
6F
100
AcDbEntity
  8
ANCHOR
  6
HIDDEN
100
AcDbLine
 10
243.027372078013
 20
361.7970166017268
 30
0.0
 11
245.6023720780082
 21
361.797016601744
 31
0.0
  0
LINE
  5
345
330
6F
100
AcDbEntity
  8
ANCHOR
  6
HIDDEN
100
AcDbLine
 10
243.0273720779926
 20
364.7970166017267
 30
0.0
 11
245.6961220779842
 21
364.7970166017444
 31
0.0
  0
LINE
  5
346
330
6F
100
AcDbEntity
  8
ANCHOR
  6
HIDDEN
100
AcDbLine
 10
243.0273720779903
 20
365.2970166017269
 30
0.0
 11
245.7117470779819
 21
365.2970166017448
 31
0.0
  0
LINE
  5
347
330
6F
100
AcDbEntity
  8
ANCHOR
  6
HIDDEN
100
AcDbLine
 10
243.0273720781427
 20
344.2970166017158
 30
0.0
 11
243.8344705386158
 21
336.911436923312
 31
0.0
  0
ARC
  5
348
330
6F
100
AcDbEntity
  8
ANCHOR
  6
HIDDEN
100
AcDbCircle
 10
244.3315114690056
 20
336.9657537118615
 30
0.0
 40
0.5
100
AcDbArc
 50
186.2365532722638
 51
276.2365532722005
  0
LINE
  5
349
330
6F
100
AcDbEntity
  8
ANCHOR
  6
HIDDEN
100
AcDbLine
 10
238.727372123356
 20
357.797016601717
 30
0.0
 11
237.1158880971461
 21
365.6330308455008
 31
0.0
  0
LINE
  5
34A
330
6F
100
AcDbEntity
  8
ANCHOR
  6
HIDDEN
100
AcDbLine
 10
238.2116887197266
 20
365.2689507319978
 30
0.0
 11
237.1158880971752
 21
365.6330308453611
 31
0.0
  0
LINE
  5
34B
330
6F
100
AcDbEntity
  8
ANCHOR
  6
HIDDEN
100
AcDbLine
 10
239.7482993129742
 20
357.7970166017188
 30
0.0
 11
238.2116887197267
 21
365.2689507319979
 31
0.0
  0
LINE
  5
34C
330
6F
100
AcDbEntity
  8
ANCHOR
  6
HIDDEN
100
AcDbLine
 10
246.7273720781787
 20
357.7970166017229
 30
0.0
 11
248.3388561043712
 21
365.6330308455106
 31
0.0
  0
LINE
  5
34D
330
6F
100
AcDbEntity
  8
ANCHOR
  6
HIDDEN
100
AcDbLine
 10
247.2430554817933
 20
365.2689507320044
 30
0.0
 11
248.338856104344
 21
365.6330308453704
 31
0.0
  0
LINE
  5
34E
330
6F
100
AcDbEntity
  8
ANCHOR
  6
HIDDEN
100
AcDbLine
 10
245.7064448885615
 20
357.7970166017221
 30
0.0
 11
247.2430554817922
 21
365.2689507320041
 31
0.0
  0
LINE
  5
34F
330
6F
100
AcDbEntity
  8
ANCHOR
  6
HIDDEN
100
AcDbLine
 10
242.7273721689338
 20
324.7970166017243
 30
0.0
 11
239.9773721344775
 21
335.0601564508394
 31
0.0
  0
LINE
  5
350
330
6F
100
AcDbEntity
  8
ANCHOR
  6
HIDDEN
100
AcDbLine
 10
242.7273721234753
 20
324.797016601724
 30
0.0
 11
245.4773721342489
 21
335.0601563628177
 31
0.0
  0
LINE
  5
351
330
6F
100
AcDbEntity
  8
ANCHOR
  6
HIDDEN
100
AcDbLine
 10
239.977372134479
 20
335.0601564508397
 30
0.0
 11
239.9773721339327
 21
336.5879970309088
 31
0.0
  0
LINE
  5
352
330
6F
100
AcDbEntity
  8
ANCHOR
  6
HIDDEN
100
AcDbLine
 10
245.477372134249
 20
335.0601563628175
 30
0.0
 11
245.4773721338875
 21
336.5879970381567
 31
0.0
  0
ARC
  5
353
330
6F
100
AcDbEntity
  8
ANCHOR
  6
Continuous
100
AcDbCircle
 10
242.727372123424
 20
370.1970166017152
 30
0.0
 40
14.0
100
AcDbArc
 50
74.63751496329646
 51
105.3624850364064
  0
LINE
  5
354
330
6F
100
AcDbEntity
  8
ANCHOR
  6
Continuous
100
AcDbLine
 10
237.4773721234012
 20
380.8970166017041
 30
0.0
 11
237.485713432094
 21
380.9593537821746
 31
0.0
  0
LINE
  5
355
330
6F
100
AcDbEntity
  8
ANCHOR
  6
Continuous
100
AcDbLine
 10
247.977372123405
 20
380.8970166017261
 30
0.0
 11
247.8257322491112
 21
382.0302682960663
 31
0.0
  0
ARC
  5
356
330
6F
100
AcDbEntity
  8
ANCHOR
  6
Continuous
100
AcDbCircle
 10
245.9329623227175
 20
381.8646723848117
 30
0.0
 40
1.9
100
AcDbArc
 50
5.000000000119887
 51
74.63751496329646
  0
LINE
  5
357
330
6F
100
AcDbEntity
  8
ANCHOR
  6
Continuous
100
AcDbLine
 10
249.2273721234341
 20
380.8970166017283
 30
0.0
 11
236.2273721234414
 21
380.8970166017009
 31
0.0
  0
LINE
  5
358
330
6F
100
AcDbEntity
  8
ANCHOR
  6
Continuous
100
AcDbLine
 10
236.2273721234336
 20
380.2970166017022
 30
0.0
 11
236.2273721234337
 21
380.3314054884532
 31
0.0
  0
LINE
  5
359
330
6F
100
AcDbEntity
  8
ANCHOR
  6
Continuous
100
AcDbLine
 10
249.2273721234325
 20
380.2970166017292
 30
0.0
 11
249.227372123433
 21
380.8970166017291
 31
0.0
  0
LINE
  5
35A
330
6F
100
AcDbEntity
  8
ANCHOR
  6
HIDDEN
100
AcDbLine
 10
245.4773721246137
 20
375.2970166015367
 30
0.0
 11
245.4773721234311
 21
380.2970166017209
 31
0.0
  0
LINE
  5
35B
330
6F
100
AcDbEntity
  8
ANCHOR
  6
HIDDEN
100
AcDbLine
 10
239.9773721252206
 20
375.297016601551
 30
0.0
 11
239.9773721234328
 21
380.2970166017097
 31
0.0
  0
LINE
  5
35C
330
6F
100
AcDbEntity
  8
ANCHOR
  6
Continuous
100
AcDbLine
 10
249.2273721234336
 20
380.297016601728
 30
0.0
 11
236.2273721234336
 21
380.2970166017006
 31
0.0
  0
LINE
  5
35D
330
6F
100
AcDbEntity
  8
ANCHOR
  6
Continuous
100
AcDbLine
 10
237.4773721234735
 20
380.8970166017977
 30
0.0
 11
237.6290119977819
 21
382.0302682961347
 31
0.0
  0
ARC
  5
35E
330
6F
100
AcDbEntity
  8
ANCHOR
  6
Continuous
100
AcDbCircle
 10
239.5217819241686
 20
381.8646723848553
 30
0.0
 40
1.9
100
AcDbArc
 50
105.3624850359274
 51
174.999999999104
  0
LINE
  5
35F
330
6F
100
AcDbEntity
  8
ANCHOR
  6
Continuous
100
AcDbLine
 10
236.2273721234348
 20
380.2970166018172
 30
0.0
 11
236.2273721234426
 21
380.8970166018171
 31
0.0
  0
LINE
  5
360
330
6F
100
AcDbEntity
  8
KUTAI
  6
Continuous
100
AcDbLine
 10
632.7412277187526
 20
93.42452924645186
 30
0.0
 11
582.7412277187526
 21
93.42452924645186
 31
0.0
  0
LINE
  5
361
330
6F
100
AcDbEntity
  8
KUTAI
  6
Continuous
100
AcDbLine
 10
635.7412277187527
 20
64.42452924645187
 30
0.0
 11
635.7412277187527
 21
90.42452924645187
 31
0.0
  0
LINE
  5
362
330
6F
100
AcDbEntity
  8
KUTAI
  6
Continuous
100
AcDbLine
 10
579.7412277187527
 20
90.42452924645187
 30
0.0
 11
579.7412277187527
 21
64.42452924645187
 31
0.0
  0
LINE
  5
363
330
6F
100
AcDbEntity
  8
KUTAI
  6
Continuous
100
AcDbLine
 10
582.7412277187526
 20
61.42452924645186
 30
0.0
 11
632.7412277187526
 21
61.42452924645186
 31
0.0
  0
LINE
  5
364
330
6F
100
AcDbEntity
  8
KUTAI
  6
Continuous
100
AcDbLine
 10
518.9620800525037
 20
93.42452924645186
 30
0.0
 11
562.7412277187528
 21
93.42452924645186
 31
0.0
  0
LINE
  5
365
330
6F
100
AcDbEntity
  8
KUTAI
  6
Continuous
100
AcDbLine
 10
565.7412277187527
 20
64.42452924645187
 30
0.0
 11
565.7412277187527
 21
90.42452924645187
 31
0.0
  0
LINE
  5
366
330
6F
100
AcDbEntity
  8
KUTAI
  6
Continuous
100
AcDbLine
 10
518.9620800525037
 20
61.42452924645186
 30
0.0
 11
562.7412277187528
 21
61.42452924645186
 31
0.0
  0
LINE
  5
367
330
6F
100
AcDbEntity
  8
KUTAI
  6
Continuous
100
AcDbLine
 10
652.7412277187527
 20
93.42452924645186
 30
0.0
 11
694.1524096246031
 21
93.42452924645186
 31
0.0
  0
LINE
  5
368
330
6F
100
AcDbEntity
  8
KUTAI
  6
Continuous
100
AcDbLine
 10
649.7412277187527
 20
90.42452924645187
 30
0.0
 11
649.7412277187527
 21
64.42452924645187
 31
0.0
  0
LINE
  5
369
330
6F
100
AcDbEntity
  8
KUTAI
  6
Continuous
100
AcDbLine
 10
652.7412277187527
 20
61.42452924645186
 30
0.0
 11
694.1524096246031
 21
61.42452924645186
 31
0.0
  0
LINE
  5
36A
330
6F
100
AcDbEntity
  8
KUTAI
  6
Continuous
100
AcDbLine
 10
518.9620800525037
 20
107.4245292464519
 30
0.0
 11
694.1524096246031
 21
107.4245292464519
 31
0.0
  0
LINE
  5
36B
330
6F
100
AcDbEntity
  8
KUTAI
  6
Continuous
100
AcDbLine
 10
518.9620800525037
 20
47.4245292464519
 30
0.0
 11
694.1524096246031
 21
47.4245292464519
 31
0.0
  0
ARC
  5
36C
330
6F
100
AcDbEntity
  8
KUTAI
  6
Continuous
100
AcDbCircle
 10
632.7412277187526
 20
90.42452924645187
 30
0.0
 40
3.000000191249999
100
AcDbArc
 50
0.0
 51
90.0
  0
ARC
  5
36D
330
6F
100
AcDbEntity
  8
KUTAI
  6
Continuous
100
AcDbCircle
 10
582.7412277187526
 20
90.42452924645187
 30
0.0
 40
3.000000191249999
100
AcDbArc
 50
90.0
 51
180.0
  0
ARC
  5
36E
330
6F
100
AcDbEntity
  8
KUTAI
  6
Continuous
100
AcDbCircle
 10
632.7412277187526
 20
64.42452924645187
 30
0.0
 40
3.000000191249999
100
AcDbArc
 50
270.0
 51
0.0
  0
ARC
  5
36F
330
6F
100
AcDbEntity
  8
KUTAI
  6
Continuous
100
AcDbCircle
 10
582.7412277187526
 20
64.42452924645187
 30
0.0
 40
3.000000191249999
100
AcDbArc
 50
180.0
 51
270.0
  0
ARC
  5
370
330
6F
100
AcDbEntity
  8
KUTAI
  6
Continuous
100
AcDbCircle
 10
562.7412277187528
 20
90.42452924645187
 30
0.0
 40
3.000000191249999
100
AcDbArc
 50
0.0
 51
90.0
  0
ARC
  5
371
330
6F
100
AcDbEntity
  8
KUTAI
  6
Continuous
100
AcDbCircle
 10
562.7412277187528
 20
64.42452924645187
 30
0.0
 40
3.000000191249999
100
AcDbArc
 50
270.0
 51
0.0
  0
ARC
  5
372
330
6F
100
AcDbEntity
  8
KUTAI
  6
Continuous
100
AcDbCircle
 10
652.7412277187527
 20
90.42452924645187
 30
0.0
 40
3.000000191249999
100
AcDbArc
 50
90.0
 51
180.0
  0
ARC
  5
373
330
6F
100
AcDbEntity
  8
KUTAI
  6
Continuous
100
AcDbCircle
 10
652.7412277187527
 20
64.42452924645187
 30
0.0
 40
3.000000191249999
100
AcDbArc
 50
180.0
 51
270.0
  0
LINE
  5
374
330
6F
100
AcDbEntity
  8
ANCHOR
  6
HIDDEN
100
AcDbLine
 10
611.2412277190035
 20
110.9245292462922
 30
0.0
 11
610.1812277190032
 21
109.8645292462922
 31
0.0
  0
LINE
  5
375
330
6F
100
AcDbEntity
  8
ANCHOR
  6
HIDDEN
100
AcDbLine
 10
605.7412277190032
 20
80.42452924629236
 30
0.0
 11
605.7412277190032
 21
77.92452924629206
 31
0.0
  0
LINE
  5
376
330
6F
100
AcDbEntity
  8
ANCHOR
  6
HIDDEN
100
AcDbLine
 10
609.7412277190032
 20
80.42452924629236
 30
0.0
 11
609.7412277190032
 21
77.92452924629206
 31
0.0
  0
LINE
  5
377
330
6F
100
AcDbEntity
  8
ANCHOR
  6
Continuous
100
AcDbLine
 10
611.9912277190032
 20
113.3245292462922
 30
0.0
 11
603.4912277190032
 21
113.3245292462922
 31
0.0
  0
LINE
  5
378
330
6F
100
AcDbEntity
  8
ANCHOR
  6
HIDDEN
100
AcDbLine
 10
609.8912277190033
 20
81.92452924629236
 30
0.0
 11
605.5912277190032
 21
81.92452924629236
 31
0.0
  0
LINE
  5
379
330
6F
100
AcDbEntity
  8
ANCHOR
  6
HIDDEN
100
AcDbLine
 10
609.7412277190032
 20
77.92452924629206
 30
0.0
 11
605.7412277190032
 21
77.92452924629206
 31
0.0
  0
LINE
  5
37A
330
6F
100
AcDbEntity
  8
ANCHOR
  6
HIDDEN
100
AcDbLine
 10
609.7412277190032
 20
80.42452924629236
 30
0.0
 11
605.7412277190032
 21
80.42452924629236
 31
0.0
  0
LINE
  5
37B
330
6F
100
AcDbEntity
  8
ANCHOR
  6
HIDDEN
100
AcDbLine
 10
609.7412277190032
 20
80.42452924629223
 30
0.0
 11
609.8912277190033
 21
81.92452924629229
 31
0.0
  0
LINE
  5
37C
330
6F
100
AcDbEntity
  8
ANCHOR
  6
HIDDEN
100
AcDbLine
 10
605.7412277190032
 20
80.42452924629225
 30
0.0
 11
605.5912277190032
 21
81.92452924629227
 31
0.0
  0
LINE
  5
37D
330
6F
100
AcDbEntity
  8
ANCHOR
  6
HIDDEN
100
AcDbLine
 10
604.2412277190031
 20
110.9245292462921
 30
0.0
 11
605.3012277190029
 21
109.8645292462922
 31
0.0
  0
LINE
  5
37E
330
6F
100
AcDbEntity
  8
ANCHOR
  6
HIDDEN
100
AcDbLine
 10
610.1812277190032
 20
109.8645292462922
 30
0.0
 11
605.3012277190033
 21
109.8645292462922
 31
0.0
  0
LINE
  5
37F
330
6F
100
AcDbEntity
  8
ANCHOR
  6
HIDDEN
100
AcDbLine
 10
610.3912277190033
 20
94.44552924634638
 30
0.0
 11
609.8912277190033
 21
94.15685411175131
 31
0.0
  0
LINE
  5
380
330
6F
100
AcDbEntity
  8
ANCHOR
  6
HIDDEN
100
AcDbLine
 10
604.541227719003
 20
94.44552924634619
 30
0.0
 11
605.5912277190032
 21
94.16418259429359
 31
0.0
  0
LINE
  5
381
330
6F
100
AcDbEntity
  8
ANCHOR
  6
HIDDEN
100
AcDbLine
 10
610.9412277190037
 20
96.25952924634608
 30
0.0
 11
609.8912277190037
 21
96.54087589839868
 31
0.0
  0
LINE
  5
382
330
6F
100
AcDbEntity
  8
ANCHOR
  6
HIDDEN
100
AcDbLine
 10
610.3912277190033
 20
94.44552924634635
 30
0.0
 11
609.8912277190033
 21
94.73420438094127
 31
0.0
  0
LINE
  5
383
330
6F
100
AcDbEntity
  8
ANCHOR
  6
HIDDEN
100
AcDbLine
 10
605.0912277190034
 20
92.63152924634631
 30
0.0
 11
605.5912277190035
 21
92.92020438094102
 31
0.0
  0
LINE
  5
384
330
6F
100
AcDbEntity
  8
ANCHOR
  6
HIDDEN
100
AcDbLine
 10
605.0912277190032
 20
92.63152924634608
 30
0.0
 11
605.5912277190034
 21
92.34285411175129
 31
0.0
  0
LINE
  5
385
330
6F
100
AcDbEntity
  8
ANCHOR
  6
HIDDEN
100
AcDbLine
 10
610.9412277190032
 20
96.25952924634619
 30
0.0
 11
604.5412277190031
 21
94.44552924634615
 31
0.0
  0
LINE
  5
386
330
6F
100
AcDbEntity
  8
ANCHOR
  6
HIDDEN
100
AcDbLine
 10
605.5912277190032
 20
94.16418259429359
 30
0.0
 11
610.9412277190031
 21
96.25952924634626
 31
0.0
  0
LINE
  5
387
330
6F
100
AcDbEntity
  8
ANCHOR
  6
HIDDEN
100
AcDbLine
 10
609.8912277190033
 20
96.54087589839861
 30
0.0
 11
604.5412277190032
 21
94.44552924634606
 31
0.0
  0
LINE
  5
388
330
6F
100
AcDbEntity
  8
ANCHOR
  6
HIDDEN
100
AcDbLine
 10
609.8912277190028
 20
94.734204380941
 30
0.0
 11
605.5912277190032
 21
92.92020438094102
 31
0.0
  0
LINE
  5
389
330
6F
100
AcDbEntity
  8
ANCHOR
  6
HIDDEN
100
AcDbLine
 10
605.0912277190032
 20
92.63152924634621
 30
0.0
 11
610.3912277190032
 21
94.4455292463461
 31
0.0
  0
LINE
  5
38A
330
6F
100
AcDbEntity
  8
ANCHOR
  6
HIDDEN
100
AcDbLine
 10
605.5912277190032
 20
92.34285411175159
 30
0.0
 11
609.891227719003
 21
94.1568541117514
 31
0.0
  0
LINE
  5
38B
330
6F
100
AcDbEntity
  8
ANCHOR
  6
HIDDEN
100
AcDbLine
 10
610.3912277190032
 20
90.81752924635996
 30
0.0
 11
609.891227719003
 21
90.52885411176491
 31
0.0
  0
LINE
  5
38C
330
6F
100
AcDbEntity
  8
ANCHOR
  6
HIDDEN
100
AcDbLine
 10
604.541227719003
 20
90.8175292463596
 30
0.0
 11
605.591227719003
 21
90.53618259430704
 31
0.0
  0
LINE
  5
38D
330
6F
100
AcDbEntity
  8
ANCHOR
  6
HIDDEN
100
AcDbLine
 10
610.9412277190036
 20
92.63152924636006
 30
0.0
 11
609.8912277190033
 21
92.91287589841266
 31
0.0
  0
LINE
  5
38E
330
6F
100
AcDbEntity
  8
ANCHOR
  6
HIDDEN
100
AcDbLine
 10
610.3912277190033
 20
90.8175292463596
 30
0.0
 11
609.8912277190033
 21
91.10620438095459
 31
0.0
  0
LINE
  5
38F
330
6F
100
AcDbEntity
  8
ANCHOR
  6
HIDDEN
100
AcDbLine
 10
605.0912277190032
 20
89.00352924635971
 30
0.0
 11
605.5912277190032
 21
89.29220438095446
 31
0.0
  0
LINE
  5
390
330
6F
100
AcDbEntity
  8
ANCHOR
  6
HIDDEN
100
AcDbLine
 10
605.0912277190032
 20
89.00352924635953
 30
0.0
 11
605.591227719003
 21
88.71485411176477
 31
0.0
  0
LINE
  5
391
330
6F
100
AcDbEntity
  8
ANCHOR
  6
HIDDEN
100
AcDbLine
 10
610.9412277190036
 20
92.63152924635985
 30
0.0
 11
604.5412277190036
 21
90.81752924635981
 31
0.0
  0
LINE
  5
392
330
6F
100
AcDbEntity
  8
ANCHOR
  6
HIDDEN
100
AcDbLine
 10
605.5912277190032
 20
90.53618259430677
 30
0.0
 11
610.9412277190031
 21
92.63152924635944
 31
0.0
  0
LINE
  5
393
330
6F
100
AcDbEntity
  8
ANCHOR
  6
HIDDEN
100
AcDbLine
 10
609.8912277190033
 20
92.91287589841239
 30
0.0
 11
604.5412277190032
 21
90.81752924635969
 31
0.0
  0
LINE
  5
394
330
6F
100
AcDbEntity
  8
ANCHOR
  6
HIDDEN
100
AcDbLine
 10
609.891227719003
 20
91.10620438095468
 30
0.0
 11
605.5912277190032
 21
89.29220438095468
 31
0.0
  0
LINE
  5
395
330
6F
100
AcDbEntity
  8
ANCHOR
  6
HIDDEN
100
AcDbLine
 10
605.0912277190032
 20
89.00352924635969
 30
0.0
 11
610.3912277190032
 21
90.81752924635969
 31
0.0
  0
LINE
  5
396
330
6F
100
AcDbEntity
  8
ANCHOR
  6
HIDDEN
100
AcDbLine
 10
605.5912277190034
 20
88.71485411176495
 30
0.0
 11
609.8912277190033
 21
90.52885411176488
 31
0.0
  0
LINE
  5
397
330
6F
100
AcDbEntity
  8
ANCHOR
  6
HIDDEN
100
AcDbLine
 10
609.8912277190033
 20
91.10620438095468
 30
0.0
 11
609.8912277190033
 21
92.22029298754559
 31
0.0
  0
LINE
  5
398
330
6F
100
AcDbEntity
  8
ANCHOR
  6
HIDDEN
100
AcDbLine
 10
609.8912277190033
 20
92.91287589841237
 30
0.0
 11
609.8912277190033
 21
94.15685411175116
 31
0.0
  0
LINE
  5
399
330
6F
100
AcDbEntity
  8
ANCHOR
  6
HIDDEN
100
AcDbLine
 10
609.8912277190033
 20
94.73420438094118
 30
0.0
 11
609.8912277190033
 21
95.84829298753218
 31
0.0
  0
LINE
  5
39A
330
6F
100
AcDbEntity
  8
ANCHOR
  6
HIDDEN
100
AcDbLine
 10
605.5912277190032
 20
94.16418259429358
 30
0.0
 11
605.5912277190032
 21
92.92020438094109
 31
0.0
  0
LINE
  5
39B
330
6F
100
AcDbEntity
  8
ANCHOR
  6
HIDDEN
100
AcDbLine
 10
605.5912277190032
 20
92.34285411175136
 30
0.0
 11
605.5912277190032
 21
91.22876550517379
 31
0.0
  0
LINE
  5
39C
330
6F
100
AcDbEntity
  8
ANCHOR
  6
HIDDEN
100
AcDbLine
 10
605.5912277190032
 20
90.53618259430715
 30
0.0
 11
605.5912277190032
 21
89.29220438095475
 31
0.0
  0
LINE
  5
39D
330
6F
100
AcDbEntity
  8
ANCHOR
  6
HIDDEN
100
AcDbLine
 10
610.3912277190032
 20
98.0735292463324
 30
0.0
 11
609.8912277190033
 21
97.78485411173761
 31
0.0
  0
LINE
  5
39E
330
6F
100
AcDbEntity
  8
ANCHOR
  6
HIDDEN
100
AcDbLine
 10
604.5412277190028
 20
98.07352924633235
 30
0.0
 11
605.5912277190027
 21
97.7921825942797
 31
0.0
  0
LINE
  5
39F
330
6F
100
AcDbEntity
  8
ANCHOR
  6
HIDDEN
100
AcDbLine
 10
610.9412277190031
 20
99.88752924633265
 30
0.0
 11
609.8912277190033
 21
100.1688758983852
 31
0.0
  0
LINE
  5
3A0
330
6F
100
AcDbEntity
  8
ANCHOR
  6
HIDDEN
100
AcDbLine
 10
610.3912277190032
 20
98.07352924633256
 30
0.0
 11
609.8912277190033
 21
98.36220438092757
 31
0.0
  0
LINE
  5
3A1
330
6F
100
AcDbEntity
  8
ANCHOR
  6
HIDDEN
100
AcDbLine
 10
605.0912277190032
 20
96.25952924633264
 30
0.0
 11
605.591227719003
 21
96.54820438092727
 31
0.0
  0
LINE
  5
3A2
330
6F
100
AcDbEntity
  8
ANCHOR
  6
HIDDEN
100
AcDbLine
 10
605.0912277190029
 20
96.25952924633272
 30
0.0
 11
605.5912277190027
 21
95.97085411173784
 31
0.0
  0
LINE
  5
3A3
330
6F
100
AcDbEntity
  8
ANCHOR
  6
HIDDEN
100
AcDbLine
 10
610.9412277190029
 20
99.88752924633256
 30
0.0
 11
604.5412277190031
 21
98.07352924633256
 31
0.0
  0
LINE
  5
3A4
330
6F
100
AcDbEntity
  8
ANCHOR
  6
HIDDEN
100
AcDbLine
 10
605.5912277190032
 20
97.79218259428022
 30
0.0
 11
610.9412277190031
 21
99.88752924633292
 31
0.0
  0
LINE
  5
3A5
330
6F
100
AcDbEntity
  8
ANCHOR
  6
HIDDEN
100
AcDbLine
 10
609.8912277190028
 20
100.1688758983852
 30
0.0
 11
604.5412277190028
 21
98.07352924633269
 31
0.0
  0
LINE
  5
3A6
330
6F
100
AcDbEntity
  8
ANCHOR
  6
HIDDEN
100
AcDbLine
 10
609.8912277190033
 20
98.36220438092761
 30
0.0
 11
605.5912277190034
 21
96.5482043809275
 31
0.0
  0
LINE
  5
3A7
330
6F
100
AcDbEntity
  8
ANCHOR
  6
HIDDEN
100
AcDbLine
 10
605.0912277190032
 20
96.25952924633269
 30
0.0
 11
610.391227719003
 21
98.07352924633246
 31
0.0
  0
LINE
  5
3A8
330
6F
100
AcDbEntity
  8
ANCHOR
  6
HIDDEN
100
AcDbLine
 10
605.591227719003
 20
95.97085411173772
 30
0.0
 11
609.8912277190028
 21
97.78485411173774
 31
0.0
  0
LINE
  5
3A9
330
6F
100
AcDbEntity
  8
ANCHOR
  6
HIDDEN
100
AcDbLine
 10
609.8912277190033
 20
96.54087589839868
 30
0.0
 11
609.8912277190033
 21
97.78485411173768
 31
0.0
  0
LINE
  5
3AA
330
6F
100
AcDbEntity
  8
ANCHOR
  6
HIDDEN
100
AcDbLine
 10
609.8912277190033
 20
98.36220438092766
 30
0.0
 11
609.8912277190033
 21
99.47629298751865
 31
0.0
  0
LINE
  5
3AB
330
6F
100
AcDbEntity
  8
ANCHOR
  6
HIDDEN
100
AcDbLine
 10
605.5912277190032
 20
97.79218259427995
 30
0.0
 11
605.5912277190034
 21
96.54820438092755
 31
0.0
  0
LINE
  5
3AC
330
6F
100
AcDbEntity
  8
ANCHOR
  6
HIDDEN
100
AcDbLine
 10
605.5912277190032
 20
95.97085411173788
 30
0.0
 11
605.5912277190032
 21
94.85676550516037
 31
0.0
  0
LINE
  5
3AD
330
6F
100
AcDbEntity
  8
ANCHOR
  6
HIDDEN
100
AcDbLine
 10
610.3912277190028
 20
101.7015292463192
 30
0.0
 11
609.891227719003
 21
101.4128541117244
 31
0.0
  0
LINE
  5
3AE
330
6F
100
AcDbEntity
  8
ANCHOR
  6
HIDDEN
100
AcDbLine
 10
604.5412277190035
 20
101.701529246319
 30
0.0
 11
605.5912277190035
 21
101.4201825942663
 31
0.0
  0
LINE
  5
3AF
330
6F
100
AcDbEntity
  8
ANCHOR
  6
HIDDEN
100
AcDbLine
 10
610.9412277190032
 20
103.5155292463189
 30
0.0
 11
609.8912277190033
 21
103.7968758983716
 31
0.0
  0
LINE
  5
3B0
330
6F
100
AcDbEntity
  8
ANCHOR
  6
HIDDEN
100
AcDbLine
 10
610.3912277190034
 20
101.7015292463191
 30
0.0
 11
609.8912277190033
 21
101.9902043809139
 31
0.0
  0
LINE
  5
3B1
330
6F
100
AcDbEntity
  8
ANCHOR
  6
HIDDEN
100
AcDbLine
 10
605.0912277190032
 20
99.88752924631882
 30
0.0
 11
605.5912277190032
 21
100.1762043809138
 31
0.0
  0
LINE
  5
3B2
330
6F
100
AcDbEntity
  8
ANCHOR
  6
HIDDEN
100
AcDbLine
 10
605.0912277190029
 20
99.8875292463189
 30
0.0
 11
605.5912277190032
 21
99.598854111724
 31
0.0
  0
LINE
  5
3B3
330
6F
100
AcDbEntity
  8
ANCHOR
  6
HIDDEN
100
AcDbLine
 10
610.9412277190032
 20
103.5155292463191
 30
0.0
 11
604.5412277190032
 21
101.7015292463191
 31
0.0
  0
LINE
  5
3B4
330
6F
100
AcDbEntity
  8
ANCHOR
  6
HIDDEN
100
AcDbLine
 10
605.5912277190032
 20
101.4201825942664
 30
0.0
 11
610.9412277190032
 21
103.5155292463192
 31
0.0
  0
LINE
  5
3B5
330
6F
100
AcDbEntity
  8
ANCHOR
  6
HIDDEN
100
AcDbLine
 10
609.8912277190034
 20
103.796875898372
 30
0.0
 11
604.5412277190036
 21
101.7015292463193
 31
0.0
  0
LINE
  5
3B6
330
6F
100
AcDbEntity
  8
ANCHOR
  6
HIDDEN
100
AcDbLine
 10
609.8912277190028
 20
101.9902043809138
 30
0.0
 11
605.5912277190032
 21
100.176204380914
 31
0.0
  0
LINE
  5
3B7
330
6F
100
AcDbEntity
  8
ANCHOR
  6
HIDDEN
100
AcDbLine
 10
605.0912277190029
 20
99.88752924631905
 30
0.0
 11
610.3912277190028
 21
101.701529246319
 31
0.0
  0
LINE
  5
3B8
330
6F
100
AcDbEntity
  8
ANCHOR
  6
HIDDEN
100
AcDbLine
 10
605.5912277190032
 20
99.59885411172457
 30
0.0
 11
609.8912277190033
 21
101.4128541117245
 31
0.0
  0
LINE
  5
3B9
330
6F
100
AcDbEntity
  8
ANCHOR
  6
HIDDEN
100
AcDbLine
 10
609.8912277190033
 20
100.1688758983852
 30
0.0
 11
609.8912277190033
 21
101.4128541117245
 31
0.0
  0
LINE
  5
3BA
330
6F
100
AcDbEntity
  8
ANCHOR
  6
HIDDEN
100
AcDbLine
 10
609.8912277190033
 20
101.990204380914
 30
0.0
 11
609.8912277190033
 21
103.1042929875052
 31
0.0
  0
LINE
  5
3BB
330
6F
100
AcDbEntity
  8
ANCHOR
  6
HIDDEN
100
AcDbLine
 10
605.5912277190032
 20
101.4201825942664
 30
0.0
 11
605.5912277190032
 21
100.1762043809142
 31
0.0
  0
LINE
  5
3BC
330
6F
100
AcDbEntity
  8
ANCHOR
  6
HIDDEN
100
AcDbLine
 10
605.5912277190032
 20
99.59885411172436
 30
0.0
 11
605.5912277190032
 21
98.48476550514687
 31
0.0
  0
LINE
  5
3BD
330
6F
100
AcDbEntity
  8
ANCHOR
  6
HIDDEN
100
AcDbLine
 10
610.391227719003
 20
105.3295292463057
 30
0.0
 11
609.8912277190033
 21
105.0408541117108
 31
0.0
  0
LINE
  5
3BE
330
6F
100
AcDbEntity
  8
ANCHOR
  6
HIDDEN
100
AcDbLine
 10
604.541227719003
 20
105.3295292463055
 30
0.0
 11
605.5912277190027
 21
105.0481825942529
 31
0.0
  0
LINE
  5
3BF
330
6F
100
AcDbEntity
  8
ANCHOR
  6
HIDDEN
100
AcDbLine
 10
610.9412277190032
 20
107.1435292463054
 30
0.0
 11
609.8912277190033
 21
107.4248758983579
 31
0.0
  0
LINE
  5
3C0
330
6F
100
AcDbEntity
  8
ANCHOR
  6
HIDDEN
100
AcDbLine
 10
610.3912277190033
 20
105.3295292463056
 30
0.0
 11
609.8912277190033
 21
105.6182043809006
 31
0.0
  0
LINE
  5
3C1
330
6F
100
AcDbEntity
  8
ANCHOR
  6
HIDDEN
100
AcDbLine
 10
605.0912277190029
 20
103.5155292463058
 30
0.0
 11
605.591227719003
 21
103.8042043809007
 31
0.0
  0
LINE
  5
3C2
330
6F
100
AcDbEntity
  8
ANCHOR
  6
HIDDEN
100
AcDbLine
 10
605.0912277190032
 20
103.5155292463059
 30
0.0
 11
605.5912277190028
 21
103.2268541117111
 31
0.0
  0
LINE
  5
3C3
330
6F
100
AcDbEntity
  8
ANCHOR
  6
HIDDEN
100
AcDbLine
 10
610.9412277190032
 20
107.1435292463057
 30
0.0
 11
604.5412277190032
 21
105.3295292463054
 31
0.0
  0
LINE
  5
3C4
330
6F
100
AcDbEntity
  8
ANCHOR
  6
HIDDEN
100
AcDbLine
 10
605.5912277190035
 20
105.048182594253
 30
0.0
 11
610.9412277190036
 21
107.1435292463058
 31
0.0
  0
LINE
  5
3C5
330
6F
100
AcDbEntity
  8
ANCHOR
  6
HIDDEN
100
AcDbLine
 10
609.8912277190028
 20
107.4248758983582
 30
0.0
 11
604.5412277190028
 21
105.3295292463055
 31
0.0
  0
LINE
  5
3C6
330
6F
100
AcDbEntity
  8
ANCHOR
  6
HIDDEN
100
AcDbLine
 10
609.8912277190033
 20
105.6182043809004
 30
0.0
 11
605.5912277190032
 21
103.8042043809006
 31
0.0
  0
LINE
  5
3C7
330
6F
100
AcDbEntity
  8
ANCHOR
  6
HIDDEN
100
AcDbLine
 10
605.0912277190028
 20
103.5155292463055
 30
0.0
 11
610.391227719003
 21
105.3295292463057
 31
0.0
  0
LINE
  5
3C8
330
6F
100
AcDbEntity
  8
ANCHOR
  6
HIDDEN
100
AcDbLine
 10
605.5912277190032
 20
103.2268541117109
 30
0.0
 11
609.8912277190033
 21
105.0408541117109
 31
0.0
  0
LINE
  5
3C9
330
6F
100
AcDbEntity
  8
ANCHOR
  6
HIDDEN
100
AcDbLine
 10
609.8912277190033
 20
103.796875898372
 30
0.0
 11
609.8912277190033
 21
105.0408541117108
 31
0.0
  0
LINE
  5
3CA
330
6F
100
AcDbEntity
  8
ANCHOR
  6
HIDDEN
100
AcDbLine
 10
609.8912277190033
 20
105.6182043809005
 30
0.0
 11
609.8912277190033
 21
106.7322929874917
 31
0.0
  0
LINE
  5
3CB
330
6F
100
AcDbEntity
  8
ANCHOR
  6
HIDDEN
100
AcDbLine
 10
605.5912277190032
 20
105.048182594253
 30
0.0
 11
605.5912277190032
 21
103.8042043809007
 31
0.0
  0
LINE
  5
3CC
330
6F
100
AcDbEntity
  8
ANCHOR
  6
HIDDEN
100
AcDbLine
 10
605.5912277190032
 20
103.2268541117109
 30
0.0
 11
605.5912277190032
 21
102.1127655051332
 31
0.0
  0
LINE
  5
3CD
330
6F
100
AcDbEntity
  8
ANCHOR
  6
HIDDEN
100
AcDbLine
 10
605.0912277190029
 20
107.143529246292
 30
0.0
 11
605.5912277190032
 21
107.432204380887
 31
0.0
  0
LINE
  5
3CE
330
6F
100
AcDbEntity
  8
ANCHOR
  6
HIDDEN
100
AcDbLine
 10
605.0912277190032
 20
107.143529246292
 30
0.0
 11
605.5912277190034
 21
106.8548541116973
 31
0.0
  0
LINE
  5
3CF
330
6F
100
AcDbEntity
  8
ANCHOR
  6
HIDDEN
100
AcDbLine
 10
607.7412277190031
 20
109.8645292462921
 30
0.0
 11
604.9512277190032
 21
109.0737386212922
 31
0.0
  0
LINE
  5
3D0
330
6F
100
AcDbEntity
  8
ANCHOR
  6
HIDDEN
100
AcDbLine
 10
609.8912277190033
 20
107.4248758983583
 30
0.0
 11
609.8912277190033
 21
108.6688541116973
 31
0.0
  0
LINE
  5
3D1
330
6F
100
AcDbEntity
  8
ANCHOR
  6
HIDDEN
100
AcDbLine
 10
605.5912277190032
 20
108.9022511381363
 30
0.0
 11
605.5912277190032
 21
107.432204380887
 31
0.0
  0
LINE
  5
3D2
330
6F
100
AcDbEntity
  8
ANCHOR
  6
HIDDEN
100
AcDbLine
 10
605.5912277190032
 20
106.8548541116974
 30
0.0
 11
605.5912277190032
 21
105.7407655051197
 31
0.0
  0
LINE
  5
3D3
330
6F
100
AcDbEntity
  8
ANCHOR
  6
HIDDEN
100
AcDbLine
 10
610.391227719003
 20
87.18952924637324
 30
0.0
 11
609.8912277190028
 21
86.90085411177824
 31
0.0
  0
LINE
  5
3D4
330
6F
100
AcDbEntity
  8
ANCHOR
  6
HIDDEN
100
AcDbLine
 10
604.5412277190035
 20
87.18952924637363
 30
0.0
 11
605.5912277190034
 21
86.90818259432095
 31
0.0
  0
LINE
  5
3D5
330
6F
100
AcDbEntity
  8
ANCHOR
  6
HIDDEN
100
AcDbLine
 10
610.9412277190032
 20
89.00352924637344
 30
0.0
 11
609.8912277190033
 21
89.28487589842598
 31
0.0
  0
LINE
  5
3D6
330
6F
100
AcDbEntity
  8
ANCHOR
  6
HIDDEN
100
AcDbLine
 10
610.3912277190033
 20
87.18952924637347
 30
0.0
 11
609.8912277190028
 21
87.47820438096827
 31
0.0
  0
LINE
  5
3D7
330
6F
100
AcDbEntity
  8
ANCHOR
  6
HIDDEN
100
AcDbLine
 10
605.0912277190032
 20
85.37552924637308
 30
0.0
 11
605.5912277190032
 21
85.66420438096795
 31
0.0
  0
LINE
  5
3D8
330
6F
100
AcDbEntity
  8
ANCHOR
  6
HIDDEN
100
AcDbLine
 10
605.0912277190029
 20
85.37552924637342
 30
0.0
 11
605.5912277190032
 21
85.08685411177856
 31
0.0
  0
LINE
  5
3D9
330
6F
100
AcDbEntity
  8
ANCHOR
  6
HIDDEN
100
AcDbLine
 10
610.9412277190036
 20
89.00352924637351
 30
0.0
 11
604.5412277190032
 21
87.1895292463736
 31
0.0
  0
LINE
  5
3DA
330
6F
100
AcDbEntity
  8
ANCHOR
  6
HIDDEN
100
AcDbLine
 10
605.5912277190032
 20
86.90818259432054
 30
0.0
 11
610.9412277190032
 21
89.00352924637319
 31
0.0
  0
LINE
  5
3DB
330
6F
100
AcDbEntity
  8
ANCHOR
  6
HIDDEN
100
AcDbLine
 10
609.8912277190033
 20
89.28487589842591
 30
0.0
 11
604.5412277190032
 21
87.18952924637337
 31
0.0
  0
LINE
  5
3DC
330
6F
100
AcDbEntity
  8
ANCHOR
  6
HIDDEN
100
AcDbLine
 10
609.8912277190028
 20
87.47820438096821
 30
0.0
 11
605.5912277190028
 21
85.66420438096827
 31
0.0
  0
LINE
  5
3DD
330
6F
100
AcDbEntity
  8
ANCHOR
  6
HIDDEN
100
AcDbLine
 10
605.0912277190032
 20
85.37552924637322
 30
0.0
 11
610.3912277190032
 21
87.18952924637324
 31
0.0
  0
LINE
  5
3DE
330
6F
100
AcDbEntity
  8
ANCHOR
  6
HIDDEN
100
AcDbLine
 10
605.5912277190026
 20
85.08685411177827
 30
0.0
 11
609.8912277190028
 21
86.90085411177816
 31
0.0
  0
LINE
  5
3DF
330
6F
100
AcDbEntity
  8
ANCHOR
  6
HIDDEN
100
AcDbLine
 10
609.8912277190033
 20
87.4782043809682
 30
0.0
 11
609.8912277190033
 21
88.59229298755938
 31
0.0
  0
LINE
  5
3E0
330
6F
100
AcDbEntity
  8
ANCHOR
  6
HIDDEN
100
AcDbLine
 10
609.8912277190033
 20
89.2848758984258
 30
0.0
 11
609.8912277190033
 21
90.52885411176509
 31
0.0
  0
LINE
  5
3E1
330
6F
100
AcDbEntity
  8
ANCHOR
  6
HIDDEN
100
AcDbLine
 10
605.5912277190032
 20
88.71485411176486
 30
0.0
 11
605.5912277190032
 21
87.60076550518757
 31
0.0
  0
LINE
  5
3E2
330
6F
100
AcDbEntity
  8
ANCHOR
  6
HIDDEN
100
AcDbLine
 10
605.5912277190032
 20
86.90818259432077
 30
0.0
 11
605.5912277190032
 21
85.66420438096827
 31
0.0
  0
LINE
  5
3E3
330
6F
100
AcDbEntity
  8
ANCHOR
  6
HIDDEN
100
AcDbLine
 10
610.2912277190035
 20
83.52730283129266
 30
0.0
 11
609.8912277190033
 21
83.29636272361659
 31
0.0
  0
LINE
  5
3E4
330
6F
100
AcDbEntity
  8
ANCHOR
  6
HIDDEN
100
AcDbLine
 10
604.5412277190028
 20
83.56152924638674
 30
0.0
 11
605.5912277190027
 21
83.28018259433406
 31
0.0
  0
LINE
  5
3E5
330
6F
100
AcDbEntity
  8
ANCHOR
  6
HIDDEN
100
AcDbLine
 10
610.9412277190028
 20
85.37552924638699
 30
0.0
 11
609.8912277190028
 21
85.6568758984396
 31
0.0
  0
LINE
  5
3E6
330
6F
100
AcDbEntity
  8
ANCHOR
  6
HIDDEN
100
AcDbLine
 10
610.2912277190035
 20
83.52730283129265
 30
0.0
 11
609.891227719003
 21
83.75824293896897
 31
0.0
  0
LINE
  5
3E7
330
6F
100
AcDbEntity
  8
ANCHOR
  6
HIDDEN
100
AcDbLine
 10
610.9412277190031
 20
85.37552924638736
 30
0.0
 11
604.5412277190031
 21
83.56152924638738
 31
0.0
  0
LINE
  5
3E8
330
6F
100
AcDbEntity
  8
ANCHOR
  6
HIDDEN
100
AcDbLine
 10
605.591227719003
 20
83.2801825943344
 30
0.0
 11
610.9412277190029
 21
85.37552924638706
 31
0.0
  0
LINE
  5
3E9
330
6F
100
AcDbEntity
  8
ANCHOR
  6
HIDDEN
100
AcDbLine
 10
609.891227719003
 20
85.65687589843967
 30
0.0
 11
604.541227719003
 21
83.56152924638706
 31
0.0
  0
LINE
  5
3EA
330
6F
100
AcDbEntity
  8
ANCHOR
  6
HIDDEN
100
AcDbLine
 10
605.6083721509207
 20
81.92452924629215
 30
0.0
 11
610.2912277190035
 21
83.52730283129254
 31
0.0
  0
LINE
  5
3EB
330
6F
100
AcDbEntity
  8
ANCHOR
  6
HIDDEN
100
AcDbLine
 10
609.8912277190033
 20
83.75824293896897
 30
0.0
 11
609.8912277190033
 21
84.96429298757279
 31
0.0
  0
LINE
  5
3EC
330
6F
100
AcDbEntity
  8
ANCHOR
  6
HIDDEN
100
AcDbLine
 10
609.8912277190033
 20
85.65687589843959
 30
0.0
 11
609.8912277190033
 21
86.90085411177836
 31
0.0
  0
LINE
  5
3ED
330
6F
100
AcDbEntity
  8
ANCHOR
  6
HIDDEN
100
AcDbLine
 10
605.5912277190032
 20
85.08685411177856
 30
0.0
 11
605.5912277190032
 21
83.97276550520098
 31
0.0
  0
LINE
  5
3EE
330
6F
100
AcDbEntity
  8
ANCHOR
  6
HIDDEN
100
AcDbLine
 10
605.5912277190032
 20
83.28018259433406
 30
0.0
 11
605.5912277190032
 21
81.92452924629227
 31
0.0
  0
LINE
  5
3EF
330
6F
100
AcDbEntity
  8
ANCHOR
  6
HIDDEN
100
AcDbLine
 10
609.8912277190033
 20
81.92452924629236
 30
0.0
 11
609.8912277190033
 21
83.29636272361668
 31
0.0
  0
LINE
  5
3F0
330
6F
100
AcDbEntity
  8
ANCHOR
  6
HIDDEN
100
AcDbLine
 10
609.8912277190028
 20
83.75824293896883
 30
0.0
 11
605.6083721509202
 21
81.92452924629211
 31
0.0
  0
LINE
  5
3F1
330
6F
100
AcDbEntity
  8
ANCHOR
  6
HIDDEN
100
AcDbLine
 10
605.6083721509204
 20
81.92452924629224
 30
0.0
 11
609.8912277190033
 21
83.29636272361664
 31
0.0
  0
LINE
  5
3F2
330
6F
100
AcDbEntity
  8
ANCHOR
  6
HIDDEN
100
AcDbLine
 10
610.3912277190033
 20
108.9575292462923
 30
0.0
 11
609.8912277190034
 21
108.6688541116974
 31
0.0
  0
LINE
  5
3F3
330
6F
100
AcDbEntity
  8
ANCHOR
  6
HIDDEN
100
AcDbLine
 10
610.391227719003
 20
108.9575292462924
 30
0.0
 11
610.0140585850756
 21
109.1752879472955
 31
0.0
  0
LINE
  5
3F4
330
6F
100
AcDbEntity
  8
ANCHOR
  6
HIDDEN
100
AcDbLine
 10
605.591227719003
 20
106.8548541116972
 30
0.0
 11
609.8912277190028
 21
108.6688541116973
 31
0.0
  0
LINE
  5
3F5
330
6F
100
AcDbEntity
  8
ANCHOR
  6
HIDDEN
100
AcDbLine
 10
610.3912277190034
 20
108.9575292462924
 30
0.0
 11
605.0912277190032
 21
107.1435292462923
 31
0.0
  0
LINE
  5
3F6
330
6F
100
AcDbEntity
  8
ANCHOR
  6
HIDDEN
100
AcDbLine
 10
610.1812277190028
 20
109.8645292462921
 30
0.0
 11
610.0140585850752
 21
109.1752879472951
 31
0.0
  0
LINE
  5
3F7
330
6F
100
AcDbEntity
  8
ANCHOR
  6
HIDDEN
100
AcDbLine
 10
610.0140585850755
 20
109.1752879472951
 30
0.0
 11
605.5912277190032
 21
107.4322043808869
 31
0.0
  0
LINE
  5
3F8
330
6F
100
AcDbEntity
  8
ANCHOR
  6
HIDDEN
100
AcDbLine
 10
605.3012277190032
 20
109.8645292462922
 30
0.0
 11
605.4460249435956
 21
109.2675277255903
 31
0.0
  0
LINE
  5
3F9
330
6F
100
AcDbEntity
  8
ANCHOR
  6
HIDDEN
100
AcDbLine
 10
604.9512277190032
 20
109.0737386212924
 30
0.0
 11
605.5912277190032
 21
108.9022511381365
 31
0.0
  0
LINE
  5
3FA
330
6F
100
AcDbEntity
  8
ANCHOR
  6
HIDDEN
100
AcDbLine
 10
605.4460249435955
 20
109.2675277255901
 30
0.0
 11
604.9512277190032
 21
109.0737386212921
 31
0.0
  0
LINE
  5
3FB
330
6F
100
AcDbEntity
  8
ANCHOR
  6
HIDDEN
100
AcDbLine
 10
605.5912277190034
 20
108.9022511381365
 30
0.0
 11
607.7412277190034
 21
109.8645292462923
 31
0.0
  0
LINE
  5
3FC
330
6F
100
AcDbEntity
  8
ANCHOR
  6
HIDDEN
100
AcDbLine
 10
611.2412277190031
 20
110.924529246292
 30
0.0
 11
610.1812277190032
 21
109.864529246292
 31
0.0
  0
LINE
  5
3FD
330
6F
100
AcDbEntity
  8
ANCHOR
  6
HIDDEN
100
AcDbLine
 10
604.2412277190028
 20
110.9245292462921
 30
0.0
 11
605.3012277190028
 21
109.8645292462921
 31
0.0
  0
LINE
  5
3FE
330
6F
100
AcDbEntity
  8
ANCHOR
  6
Continuous
100
AcDbLine
 10
614.5912277183184
 20
112.5245292462919
 30
0.0
 11
600.8912277196882
 21
112.5245292462921
 31
0.0
  0
LINE
  5
3FF
330
6F
100
AcDbEntity
  8
ANCHOR
  6
Continuous
100
AcDbLine
 10
614.5912277183182
 20
112.5245292462921
 30
0.0
 11
614.5912277183182
 21
110.9245292464522
 31
0.0
  0
LINE
  5
400
330
6F
100
AcDbEntity
  8
ANCHOR
  6
Continuous
100
AcDbLine
 10
614.5912277183184
 20
110.9245292464519
 30
0.0
 11
600.8912277196882
 21
110.924529246452
 31
0.0
  0
LINE
  5
401
330
6F
100
AcDbEntity
  8
ANCHOR
  6
Continuous
100
AcDbLine
 10
600.8912277196882
 20
110.9245292464522
 30
0.0
 11
600.8912277196882
 21
112.5245292462923
 31
0.0
  0
LINE
  5
402
330
6F
100
AcDbEntity
  8
ANCHOR
  6
Continuous
100
AcDbLine
 10
603.4912277190032
 20
113.3245292462923
 30
0.0
 11
602.7412277190031
 21
112.5245292462923
 31
0.0
  0
LINE
  5
403
330
6F
100
AcDbEntity
  8
ANCHOR
  6
Continuous
100
AcDbLine
 10
611.9912277190035
 20
113.3245292462919
 30
0.0
 11
612.7412277190036
 21
112.5245292462919
 31
0.0
  0
LINE
  5
41D
330
6F
100
AcDbEntity
  8
WASHER
  6
HIDDEN
100
AcDbLine
 10
245.9273721234329
 20
378.2970166017144
 30
0.0
 11
245.9273721234329
 21
380.2970166017211
 31
0.0
  0
LINE
  5
41E
330
6F
100
AcDbEntity
  8
WASHER
  6
HIDDEN
100
AcDbLine
 10
239.5273721234329
 20
378.2970166017144
 30
0.0
 11
239.5273721234329
 21
380.2970166017074
 31
0.0
  0
LINE
  5
41F
330
6F
100
AcDbEntity
  8
WASHER
  6
Continuous
100
AcDbLine
 10
227.7273721234328
 20
380.2970166017144
 30
0.0
 11
257.7273721234328
 21
380.2970166017144
 31
0.0
  0
LINE
  5
420
330
6F
100
AcDbEntity
  8
WASHER
  6
Continuous
100
AcDbLine
 10
257.7273721234328
 20
378.2970166017144
 30
0.0
 11
257.7273721234328
 21
380.2970166017144
 31
0.0
  0
LINE
  5
421
330
6F
100
AcDbEntity
  8
WASHER
  6
Continuous
100
AcDbLine
 10
227.7273721234328
 20
378.2970166017144
 30
0.0
 11
227.7273721234328
 21
380.2970166017144
 31
0.0
  0
LINE
  5
422
330
6F
100
AcDbEntity
  8
ANCHOR
  6
Continuous
100
AcDbLine
 10
236.9538694314928
 20
380.2970166017144
 30
0.0
 11
248.5008748152853
 21
380.2970166017144
 31
0.0
  0
LINE
  5
423
330
6F
100
AcDbEntity
  8
WASHER
  6
Continuous
100
AcDbLine
 10
227.7273721234328
 20
378.2970166017144
 30
0.0
 11
257.7273721234328
 21
378.2970166017144
 31
0.0
  0
TEXT
  5
424
330
6F
100
AcDbEntity
  8
COMMENT
  6
Continuous
100
AcDbText
 10
295.4141218635073
 20
338.6938271999359
 30
0.0
 40
5.300000190734863
  1
※　　　　　部に凸凹デザイン有り。
  7
KNJYOKO
100
AcDbText
  0
LINE
  5
425
330
6F
100
AcDbEntity
  8
LOUVER
  6
DASHED
100
AcDbLine
 10
302.8107285327987
 20
341.1195332977067
 30
0.0
 11
327.0946108710238
 21
341.1195332977067
 31
0.0
  0
TEXT
  5
428
330
6F
100
AcDbEntity
  8
COMMENT
  6
Continuous
100
AcDbText
 10
293.1648276936266
 20
68.96727450897791
 30
0.0
 40
5.300000190734863
  1
※　　　　　部に凸凹デザイン有り。
  7
KNJYOKO
100
AcDbText
  0
LINE
  5
429
330
6F
100
AcDbEntity
  8
LOUVER
  6
DASHED
100
AcDbLine
 10
300.5614343629182
 20
71.39298060674864
 30
0.0
 11
324.8453167011432
 21
71.39298060674864
 31
0.0
  0
TEXT
  5
42A
330
6F
100
AcDbEntity
  8
COMMENT
  6
Continuous
100
AcDbText
 10
673.8304417497495
 20
70.87332175264352
 30
0.0
 40
5.300000190734863
  1
※　　　　　部に凸凹デザイン有り。
  7
KNJYOKO
100
AcDbText
  0
LINE
  5
42B
330
6F
100
AcDbEntity
  8
LOUVER
  6
DASHED
100
AcDbLine
 10
681.227048419041
 20
73.29902785041423
 30
0.0
 11
705.5109307572661
 21
73.29902785041423
 31
0.0
  0
LINE
  5
42C
330
6F
100
AcDbEntity
  8
UKEZAI
  6
Continuous
100
AcDbLine
 10
264.427372123433
 20
379.7970166017143
 30
0.0
 11
264.427372123433
 21
386.7970166017144
 31
0.0
  0
LINE
  5
42D
330
6F
100
AcDbEntity
  8
UKEZAI
  6
Continuous
100
AcDbLine
 10
265.9273721234869
 20
378.7970166014272
 30
0.0
 11
265.7398721234331
 21
379.7970166017145
 31
0.0
  0
LINE
  5
42E
330
6F
100
AcDbEntity
  8
UKEZAI
  6
Continuous
100
AcDbLine
 10
265.9273721234843
 20
376.7970166017146
 30
0.0
 11
265.9273721234865
 21
378.7970166014276
 31
0.0
  0
LINE
  5
42F
330
6F
100
AcDbEntity
  8
UKEZAI
  6
Continuous
100
AcDbLine
 10
262.927372123433
 20
378.2970166017144
 30
0.0
 11
262.927372123433
 21
391.0470166017144
 31
0.0
  0
LINE
  5
430
330
6F
100
AcDbEntity
  8
UKEZAI
  6
Continuous
100
AcDbLine
 10
264.4273721234323
 20
386.7970166016685
 30
0.0
 11
265.7273721235321
 21
386.7970166016694
 31
0.0
  0
LINE
  5
431
330
6F
100
AcDbEntity
  8
UKEZAI
  6
Continuous
100
AcDbLine
 10
264.427372123433
 20
379.7970166017143
 30
0.0
 11
265.739872123433
 21
379.7970166017143
 31
0.0
  0
LINE
  5
432
330
6F
100
AcDbEntity
  8
UKEZAI
  6
Continuous
100
AcDbLine
 10
242.7273721234334
 20
376.7970166017142
 30
0.0
 11
265.9273721234849
 21
376.7970166017141
 31
0.0
  0
ARC
  5
433
330
6F
100
AcDbEntity
  8
UKEZAI
  6
Continuous
100
AcDbCircle
 10
242.7273721234328
 20
378.2970166017146
 30
0.0
 40
0.3
100
AcDbArc
 50
270.0
 51
0.0
  0
ARC
  5
434
330
6F
100
AcDbEntity
  8
UKEZAI
  6
Continuous
100
AcDbCircle
 10
263.6773721234329
 20
391.0470166017146
 30
0.0
 40
0.75
100
AcDbArc
 50
19.88796430577387
 51
180.0
  0
ARC
  5
435
330
6F
100
AcDbEntity
  8
UKEZAI
  6
Continuous
100
AcDbCircle
 10
265.7273721235322
 20
386.9970166016703
 30
0.0
 40
0.2
100
AcDbArc
 50
270.0
 51
19.88796430577178
  0
LINE
  5
436
330
6F
100
AcDbEntity
  8
UKEZAI
  6
Continuous
100
AcDbLine
 10
265.9154440449804
 20
387.0650530063569
 30
0.0
 11
264.3826418288634
 21
391.3021531192923
 31
0.0
  0
POINT
  5
437
330
6F
100
AcDbEntity
  8
UKEZAI
  6
Continuous
100
AcDbPoint
 10
265.9273721235325
 20
386.7970166016705
 30
0.0
  0
ARC
  5
438
330
6F
100
AcDbEntity
  8
UKEZAI
  6
Continuous
100
AcDbCircle
 10
244.727372123433
 20
378.2970166017146
 30
0.0
 40
0.3
100
AcDbArc
 50
0.0
 51
180.0
  0
LINE
  5
439
330
6F
100
AcDbEntity
  8
UKEZAI
  6
Continuous
100
AcDbLine
 10
243.0273721234329
 20
378.2970166017144
 30
0.0
 11
244.4273721234328
 21
378.2970166017144
 31
0.0
  0
LINE
  5
43A
330
6F
100
AcDbEntity
  8
UKEZAI
  6
Continuous
100
AcDbLine
 10
245.0273721234329
 20
378.2970166017144
 30
0.0
 11
262.927372123433
 21
378.2970166017144
 31
0.0
  0
LINE
  5
43B
330
6F
100
AcDbEntity
  8
UKEZAI
  6
Continuous
100
AcDbLine
 10
221.0273721234329
 20
379.7970166017143
 30
0.0
 11
221.0273721234329
 21
386.7970166017144
 31
0.0
  0
LINE
  5
43C
330
6F
100
AcDbEntity
  8
UKEZAI
  6
Continuous
100
AcDbLine
 10
219.5273721233796
 20
378.7970166014281
 30
0.0
 11
219.7148721234333
 21
379.7970166017149
 31
0.0
  0
LINE
  5
43D
330
6F
100
AcDbEntity
  8
UKEZAI
  6
Continuous
100
AcDbLine
 10
219.5273721233811
 20
376.7970166017142
 30
0.0
 11
219.5273721233789
 21
378.7970166014272
 31
0.0
  0
LINE
  5
43E
330
6F
100
AcDbEntity
  8
UKEZAI
  6
Continuous
100
AcDbLine
 10
222.5273721234329
 20
378.2970166017144
 30
0.0
 11
222.5273721234329
 21
391.0470166017144
 31
0.0
  0
LINE
  5
43F
330
6F
100
AcDbEntity
  8
UKEZAI
  6
Continuous
100
AcDbLine
 10
221.0273721234332
 20
386.7970166016691
 30
0.0
 11
219.7273721233334
 21
386.7970166016701
 31
0.0
  0
LINE
  5
440
330
6F
100
AcDbEntity
  8
UKEZAI
  6
Continuous
100
AcDbLine
 10
221.0273721234329
 20
379.7970166017143
 30
0.0
 11
219.7148721234329
 21
379.7970166017143
 31
0.0
  0
LINE
  5
441
330
6F
100
AcDbEntity
  8
UKEZAI
  6
Continuous
100
AcDbLine
 10
242.7273721234328
 20
376.7970166017144
 30
0.0
 11
219.5273721233811
 21
376.7970166017144
 31
0.0
  0
ARC
  5
442
330
6F
100
AcDbEntity
  8
UKEZAI
  6
Continuous
100
AcDbCircle
 10
242.727372123433
 20
378.2970166017146
 30
0.0
 40
0.3
100
AcDbArc
 50
180.0
 51
270.0
  0
ARC
  5
443
330
6F
100
AcDbEntity
  8
UKEZAI
  6
Continuous
100
AcDbCircle
 10
221.777372123433
 20
391.0470166017146
 30
0.0
 40
0.75
100
AcDbArc
 50
0.0
 51
160.112035694226
  0
ARC
  5
444
330
6F
100
AcDbEntity
  8
UKEZAI
  6
Continuous
100
AcDbCircle
 10
219.7273721233335
 20
386.9970166016703
 30
0.0
 40
0.2
100
AcDbArc
 50
160.1120356942282
 51
270.0
  0
LINE
  5
445
330
6F
100
AcDbEntity
  8
UKEZAI
  6
Continuous
100
AcDbLine
 10
219.5393002018849
 20
387.0650530063562
 30
0.0
 11
221.072102418002
 21
391.3021531192915
 31
0.0
  0
POINT
  5
446
330
6F
100
AcDbEntity
  8
UKEZAI
  6
Continuous
100
AcDbPoint
 10
219.5273721233334
 20
386.7970166016705
 30
0.0
  0
ARC
  5
447
330
6F
100
AcDbEntity
  8
UKEZAI
  6
Continuous
100
AcDbCircle
 10
240.727372123433
 20
378.2970166017146
 30
0.0
 40
0.3
100
AcDbArc
 50
0.0
 51
180.0
  0
LINE
  5
448
330
6F
100
AcDbEntity
  8
UKEZAI
  6
Continuous
100
AcDbLine
 10
242.427372123433
 20
378.2970166017144
 30
0.0
 11
241.0273721234332
 21
378.2970166017144
 31
0.0
  0
LINE
  5
449
330
6F
100
AcDbEntity
  8
UKEZAI
  6
Continuous
100
AcDbLine
 10
240.427372123433
 20
378.2970166017144
 30
0.0
 11
222.5273721234329
 21
378.2970166017144
 31
0.0
  0
LINE
  5
44A
330
6F
100
AcDbEntity
  8
LOUVER
  6
Continuous
100
AcDbLine
 10
265.9273721241422
 20
377.7970166017099
 30
0.0
 11
265.9273721241433
 21
382.7970166014018
 31
0.0
  0
LINE
  5
44B
330
6F
100
AcDbEntity
  8
LOUVER
  6
Continuous
100
AcDbLine
 10
266.2273721240878
 20
391.7970166017155
 30
0.0
 11
262.7273721240875
 21
391.7970166017168
 31
0.0
  0
LINE
  5
44C
330
6F
100
AcDbEntity
  8
LOUVER
  6
Continuous
100
AcDbLine
 10
262.4273721240876
 20
392.0970166017162
 30
0.0
 11
262.4273721240876
 21
392.4970166017158
 31
0.0
  0
LINE
  5
44D
330
6F
100
AcDbEntity
  8
LOUVER
  6
Continuous
100
AcDbLine
 10
266.0273721228334
 20
424.2970166017143
 30
0.0
 11
246.0844541904059
 21
424.2970166017143
 31
0.0
  0
LINE
  5
44E
330
6F
100
AcDbEntity
  8
LOUVER
  6
Continuous
100
AcDbLine
 10
265.2273721240878
 20
422.7970166017143
 30
0.0
 11
242.7273721240878
 21
422.7970166017143
 31
0.0
  0
LINE
  5
44F
330
6F
100
AcDbEntity
  8
LOUVER
  6
Continuous
100
AcDbLine
 10
220.2273721236754
 20
386.5970166016982
 30
0.0
 11
219.2273721240871
 21
386.5970166016982
 31
0.0
  0
LINE
  5
450
330
6F
100
AcDbEntity
  8
LOUVER
  6
Continuous
100
AcDbLine
 10
219.5273721240326
 20
377.7970166017307
 30
0.0
 11
219.5273721240314
 21
382.7970166014027
 31
0.0
  0
LINE
  5
451
330
6F
100
AcDbEntity
  8
LOUVER
  6
Continuous
100
AcDbLine
 10
219.2273721240869
 20
391.7970166017148
 30
0.0
 11
222.7273721240872
 21
391.7970166017162
 31
0.0
  0
LINE
  5
452
330
6F
100
AcDbEntity
  8
LOUVER
  6
Continuous
100
AcDbLine
 10
223.0273721240871
 20
392.0970166017163
 30
0.0
 11
223.0273721240871
 21
392.4970166017159
 31
0.0
  0
LINE
  5
453
330
6F
100
AcDbEntity
  8
LOUVER
  6
Continuous
100
AcDbLine
 10
219.4273721240872
 20
424.2970166017143
 30
0.0
 11
239.3702900577682
 21
424.2970166017143
 31
0.0
  0
LINE
  5
454
330
6F
100
AcDbEntity
  8
LOUVER
  6
Continuous
100
AcDbLine
 10
220.2273721240871
 20
422.7970166017143
 30
0.0
 11
242.7273721240869
 21
422.7970166017143
 31
0.0
  0
ARC
  5
455
330
6F
100
AcDbEntity
  8
LOUVER
  6
Continuous
100
AcDbCircle
 10
220.2273721236754
 20
386.3970166016986
 30
0.0
 40
0.2
100
AcDbArc
 50
345.8703295108734
 51
90.0
  0
LINE
  5
456
330
6F
100
AcDbEntity
  8
LOUVER
  6
Continuous
100
AcDbLine
 10
219.5273721240314
 20
382.7970166014022
 30
0.0
 11
220.4213212696288
 21
386.3481931566749
 31
0.0
  0
LINE
  5
457
330
6F
100
AcDbEntity
  8
LOUVER
  6
Continuous
100
AcDbLine
 10
265.227372124683
 20
386.5970166017206
 30
0.0
 11
266.2273721240878
 21
386.5970166017216
 31
0.0
  0
ARC
  5
458
330
6F
100
AcDbEntity
  8
LOUVER
  6
Continuous
100
AcDbCircle
 10
265.2273721246836
 20
386.3970166017205
 30
0.0
 40
0.2
100
AcDbArc
 50
90.0000000000571
 51
194.1296704891835
  0
LINE
  5
459
330
6F
100
AcDbEntity
  8
LOUVER
  6
Continuous
100
AcDbLine
 10
265.9273721243305
 20
382.7970166014254
 30
0.0
 11
265.0334229787296
 21
386.3481931566972
 31
0.0
  0
LINE
  5
45A
330
6F
100
AcDbEntity
  8
LOUVER
  6
Continuous
100
AcDbLine
 10
219.4273721240872
 20
424.2970166017143
 30
0.0
 11
219.4273721240873
 21
525.0970166016812
 31
0.0
  0
LINE
  5
45B
330
6F
100
AcDbEntity
  8
LOUVER
  6
Continuous
100
AcDbLine
 10
266.0273721232536
 20
525.0970166017141
 30
0.0
 11
266.0273721228334
 21
424.2970166017144
 31
0.0
  0
LINE
  5
45C
330
6F
100
AcDbEntity
  8
LOUVER
  6
Continuous
100
AcDbLine
 10
266.0273721232545
 20
525.097016601714
 30
0.0
 11
252.7273721239537
 21
525.097016601714
 31
0.0
  0
LINE
  5
45D
330
6F
100
AcDbEntity
  8
LOUVER
  6
Continuous
100
AcDbLine
 10
219.4273721240876
 20
525.0970166016814
 30
0.0
 11
232.7273721242742
 21
525.0970166017002
 31
0.0
  0
LINE
  5
45E
330
6F
100
AcDbEntity
  8
LOUVER
  6
Continuous
100
AcDbLine
 10
239.2630030263408
 20
524.6422533266643
 30
0.0
 11
232.7273721242746
 21
525.0970166016997
 31
0.0
  0
LINE
  5
45F
330
6F
100
AcDbEntity
  8
LOUVER
  6
Continuous
100
AcDbLine
 10
246.191741221833
 20
524.6422533266654
 30
0.0
 11
252.7273721239536
 21
525.0970166017139
 31
0.0
  0
LINE
  5
460
330
6F
100
AcDbEntity
  8
LOUVER
  6
Continuous
100
AcDbLine
 10
219.2273721240871
 20
392.7970166017151
 30
0.0
 11
219.2273721240871
 21
421.7970166017143
 31
0.0
  0
LINE
  5
461
330
6F
100
AcDbEntity
  8
LOUVER
  6
Continuous
100
AcDbLine
 10
219.2273721240871
 20
386.5970166016971
 30
0.0
 11
219.2273721240871
 21
391.7970166017152
 31
0.0
  0
LINE
  5
462
330
6F
100
AcDbEntity
  8
LOUVER
  6
Continuous
100
AcDbLine
 10
219.2273721240865
 20
392.7970166017148
 30
0.0
 11
222.727372124087
 21
392.7970166017161
 31
0.0
  0
LINE
  5
463
330
6F
100
AcDbEntity
  8
LOUVER
  6
Continuous
100
AcDbLine
 10
266.2273721240878
 20
392.7970166017151
 30
0.0
 11
266.2273721240878
 21
421.7970166017143
 31
0.0
  0
LINE
  5
464
330
6F
100
AcDbEntity
  8
LOUVER
  6
Continuous
100
AcDbLine
 10
266.2273721240878
 20
386.5970166017218
 30
0.0
 11
266.2273721240878
 21
391.7970166017152
 31
0.0
  0
LINE
  5
465
330
6F
100
AcDbEntity
  8
LOUVER
  6
Continuous
100
AcDbLine
 10
266.2273721240881
 20
392.7970166017155
 30
0.0
 11
262.7273721240876
 21
392.7970166017169
 31
0.0
  0
ARC
  5
466
330
6F
100
AcDbEntity
  8
LOUVER
  6
Continuous
100
AcDbCircle
 10
222.7273721240872
 20
392.0970166017166
 30
0.0
 40
0.3
100
AcDbArc
 50
270.0
 51
0.0
  0
ARC
  5
467
330
6F
100
AcDbEntity
  8
LOUVER
  6
Continuous
100
AcDbCircle
 10
222.7273721240872
 20
392.4970166017163
 30
0.0
 40
0.3
100
AcDbArc
 50
0.0
 51
90.0
  0
ARC
  5
468
330
6F
100
AcDbEntity
  8
LOUVER
  6
Continuous
100
AcDbCircle
 10
262.7273721240879
 20
392.0970166017166
 30
0.0
 40
0.3
100
AcDbArc
 50
180.0
 51
270.0
  0
ARC
  5
469
330
6F
100
AcDbEntity
  8
LOUVER
  6
Continuous
100
AcDbCircle
 10
262.7273721240879
 20
392.4970166017163
 30
0.0
 40
0.3
100
AcDbArc
 50
90.0
 51
180.0
  0
ARC
  5
46A
330
6F
100
AcDbEntity
  8
LOUVER
  6
Continuous
100
AcDbCircle
 10
220.227372124087
 20
421.7970166017146
 30
0.0
 40
1.0
100
AcDbArc
 50
90.0
 51
180.0
  0
ARC
  5
46B
330
6F
100
AcDbEntity
  8
LOUVER
  6
Continuous
100
AcDbCircle
 10
265.2273721240879
 20
421.7970166017146
 30
0.0
 40
1.0
100
AcDbArc
 50
0.0
 51
90.0
  0
LINE
  5
46C
330
6F
100
AcDbEntity
  8
LOUVER
  6
DASHED
100
AcDbLine
 10
267.7273721239927
 20
377.7970166017289
 30
0.0
 11
267.7273721239928
 21
526.7970166017138
 31
0.0
  0
LINE
  5
46D
330
6F
100
AcDbEntity
  8
LOUVER
  6
DASHED
100
AcDbLine
 10
217.727372124087
 20
526.7970166017143
 30
0.0
 11
217.7273721240869
 21
377.7970166017262
 31
0.0
  0
LINE
  5
46E
330
6F
100
AcDbEntity
  8
LOUVER
  6
DASHED
100
AcDbLine
 10
267.7273721240871
 20
526.7970166017138
 30
0.0
 11
217.7273721240869
 21
526.7970166017138
 31
0.0
  0
LINE
  5
46F
330
6F
100
AcDbEntity
  8
LOUVER
  6
Continuous
100
AcDbLine
 10
267.7273721239913
 20
377.79701660171
 30
0.0
 11
265.9273721241421
 21
377.79701660171
 31
0.0
  0
LINE
  5
470
330
6F
100
AcDbEntity
  8
LOUVER
  6
Continuous
100
AcDbLine
 10
217.7273721238867
 20
377.7970166017262
 30
0.0
 11
219.5273721233996
 21
377.7970166017302
 31
0.0
  0
POINT
  5
471
330
6F
100
AcDbEntity
  8
LOUVER
  6
Continuous
100
AcDbPoint
 10
242.7273721240872
 20
523.2970166017146
 30
0.0
  0
POINT
  5
472
330
6F
100
AcDbEntity
  8
LOUVER
  6
Continuous
100
AcDbPoint
 10
242.727372124087
 20
426.0970166017147
 30
0.0
  0
POINT
  5
473
330
6F
100
AcDbEntity
  8
LOUVER
  6
Continuous
100
AcDbPoint
 10
242.727372124087
 20
426.0970166017147
 30
0.0
  0
ARC
  5
474
330
6F
100
AcDbEntity
  8
LOUVER
  6
Continuous
100
AcDbCircle
 10
244.5273721242643
 20
427.7590936153816
 30
0.0
 40
0.6500000000000014
100
AcDbArc
 50
42.71864450827047
 51
222.7186445082705
  0
ARC
  5
475
330
6F
100
AcDbEntity
  8
LOUVER
  6
Continuous
100
AcDbCircle
 10
240.9273721244504
 20
427.7590936159675
 30
0.0
 40
0.6500000000000048
100
AcDbArc
 50
317.2813554730932
 51
137.2813554730932
  0
ARC
  5
476
330
6F
100
AcDbEntity
  8
LOUVER
  6
Continuous
100
AcDbCircle
 10
242.727372124087
 20
426.0970166017147
 30
0.0
 40
3.1
100
AcDbArc
 50
137.2813554730942
 51
201.1684488458317
  0
ARC
  5
477
330
6F
100
AcDbEntity
  8
LOUVER
  6
Continuous
100
AcDbCircle
 10
242.727372124087
 20
426.0970166017147
 30
0.0
 40
3.1
100
AcDbArc
 50
338.8315511541684
 51
42.71864450826979
  0
POINT
  5
478
330
6F
100
AcDbEntity
  8
LOUVER
  6
Continuous
100
AcDbPoint
 10
242.7273721240872
 20
523.2970166017146
 30
0.0
  0
ARC
  5
479
330
6F
100
AcDbEntity
  8
LOUVER
  6
Continuous
100
AcDbCircle
 10
244.5273721242693
 20
521.6349395880522
 30
0.0
 40
0.6500000000000014
100
AcDbArc
 50
137.2813554918912
 51
317.2813554918912
  0
ARC
  5
47A
330
6F
100
AcDbEntity
  8
LOUVER
  6
Continuous
100
AcDbCircle
 10
240.9273721244554
 20
521.6349395874565
 30
0.0
 40
0.6500000000000048
100
AcDbArc
 50
222.7186445270684
 51
42.71864452706843
  0
ARC
  5
47B
330
6F
100
AcDbEntity
  8
LOUVER
  6
Continuous
100
AcDbCircle
 10
242.7273721240872
 20
523.2970166017146
 30
0.0
 40
3.1
100
AcDbArc
 50
166.4011272405371
 51
222.7186445270675
  0
ARC
  5
47C
330
6F
100
AcDbEntity
  8
LOUVER
  6
Continuous
100
AcDbCircle
 10
242.7273721240872
 20
523.2970166017146
 30
0.0
 40
3.1
100
AcDbArc
 50
317.2813554918917
 51
13.59887275948024
  0
ARC
  5
47D
330
6F
100
AcDbEntity
  8
LOUVER
  6
Continuous
100
AcDbCircle
 10
239.370290057768
 20
424.7970166017146
 30
0.0
 40
0.5
100
AcDbArc
 50
270.0
 51
21.16844884583113
  0
ARC
  5
47E
330
6F
100
AcDbEntity
  8
LOUVER
  6
Continuous
100
AcDbCircle
 10
246.0844541904059
 20
424.7970166017146
 30
0.0
 40
0.5
100
AcDbArc
 50
158.8315511541689
 51
270.0
  0
POINT
  5
47F
330
6F
100
AcDbEntity
  8
LOUVER
  6
Continuous
100
AcDbPoint
 10
245.541621579981
 20
524.5970166017148
 30
0.0
  0
POINT
  5
480
330
6F
100
AcDbEntity
  8
LOUVER
  6
Continuous
100
AcDbPoint
 10
239.9131226681934
 20
524.5970166017148
 30
0.0
  0
ARC
  5
481
330
6F
100
AcDbEntity
  8
LOUVER
  6
Continuous
100
AcDbCircle
 10
239.2282958683622
 20
524.1434593680152
 30
0.0
 40
0.5
100
AcDbArc
 50
346.4011272405494
 51
86.01965183337103
  0
ARC
  5
482
330
6F
100
AcDbEntity
  8
LOUVER
  6
Continuous
100
AcDbCircle
 10
246.2264483798117
 20
524.1434593680167
 30
0.0
 40
0.5
100
AcDbArc
 50
93.98034816671124
 51
193.598872759477
  0
ARC
  5
483
330
6F
100
AcDbEntity
  8
LOUVER
  6
Continuous
100
AcDbCircle
 10
242.727372124087
 20
426.0970166017147
 30
0.0
 40
1.799999999999637
100
AcDbArc
 50
137.2813554731022
 51
42.71864450825652
  0
ARC
  5
484
330
6F
100
AcDbEntity
  8
LOUVER
  6
Continuous
100
AcDbCircle
 10
242.7273721240872
 20
523.2970166017146
 30
0.0
 40
1.800000000000066
100
AcDbArc
 50
317.2813554918979
 51
222.7186445270675
  0
LINE
  5
4DE
330
6F
100
AcDbEntity
  8
UKEZAI
  6
Continuous
100
AcDbLine
 10
264.427372123433
 20
111.2840248337747
 30
0.0
 11
264.427372123433
 21
118.2840248337747
 31
0.0
  0
LINE
  5
4DF
330
6F
100
AcDbEntity
  8
UKEZAI
  6
Continuous
100
AcDbLine
 10
265.9273721234869
 20
110.2840248334877
 30
0.0
 11
265.739872123433
 21
111.284024833775
 31
0.0
  0
LINE
  5
4E0
330
6F
100
AcDbEntity
  8
UKEZAI
  6
Continuous
100
AcDbLine
 10
265.9273721234843
 20
108.284024833775
 30
0.0
 11
265.9273721234865
 21
110.2840248334881
 31
0.0
  0
LINE
  5
4E1
330
6F
100
AcDbEntity
  8
UKEZAI
  6
Continuous
100
AcDbLine
 10
262.927372123433
 20
109.7840248337747
 30
0.0
 11
262.927372123433
 21
122.5340248337747
 31
0.0
  0
LINE
  5
4E2
330
6F
100
AcDbEntity
  8
UKEZAI
  6
Continuous
100
AcDbLine
 10
264.4273721234323
 20
118.2840248337289
 30
0.0
 11
265.7273721235321
 21
118.28402483373
 31
0.0
  0
LINE
  5
4E3
330
6F
100
AcDbEntity
  8
UKEZAI
  6
Continuous
100
AcDbLine
 10
264.427372123433
 20
111.2840248337747
 30
0.0
 11
265.739872123433
 21
111.2840248337747
 31
0.0
  0
LINE
  5
4E4
330
6F
100
AcDbEntity
  8
UKEZAI
  6
Continuous
100
AcDbLine
 10
242.7273721234334
 20
108.2840248337745
 30
0.0
 11
265.9273721234848
 21
108.2840248337745
 31
0.0
  0
ARC
  5
4E5
330
6F
100
AcDbEntity
  8
UKEZAI
  6
Continuous
100
AcDbCircle
 10
242.7273721234328
 20
109.7840248337751
 30
0.0
 40
0.3
100
AcDbArc
 50
270.0
 51
0.0
  0
ARC
  5
4E6
330
6F
100
AcDbEntity
  8
UKEZAI
  6
Continuous
100
AcDbCircle
 10
263.6773721234329
 20
122.5340248337751
 30
0.0
 40
0.75
100
AcDbArc
 50
19.88796430577387
 51
180.0
  0
ARC
  5
4E7
330
6F
100
AcDbEntity
  8
UKEZAI
  6
Continuous
100
AcDbCircle
 10
265.7273721235322
 20
118.4840248337308
 30
0.0
 40
0.2
100
AcDbArc
 50
270.0
 51
19.88796430577178
  0
LINE
  5
4E8
330
6F
100
AcDbEntity
  8
UKEZAI
  6
Continuous
100
AcDbLine
 10
265.9154440449804
 20
118.5520612384174
 30
0.0
 11
264.3826418288634
 21
122.7891613513526
 31
0.0
  0
POINT
  5
4E9
330
6F
100
AcDbEntity
  8
UKEZAI
  6
Continuous
100
AcDbPoint
 10
265.9273721235325
 20
118.284024833731
 30
0.0
  0
ARC
  5
4EA
330
6F
100
AcDbEntity
  8
UKEZAI
  6
Continuous
100
AcDbCircle
 10
244.727372123433
 20
109.7840248337751
 30
0.0
 40
0.3
100
AcDbArc
 50
0.0
 51
180.0
  0
LINE
  5
4EB
330
6F
100
AcDbEntity
  8
UKEZAI
  6
Continuous
100
AcDbLine
 10
243.0273721234329
 20
109.7840248337748
 30
0.0
 11
244.4273721234328
 21
109.7840248337748
 31
0.0
  0
LINE
  5
4EC
330
6F
100
AcDbEntity
  8
UKEZAI
  6
Continuous
100
AcDbLine
 10
245.0273721234329
 20
109.7840248337748
 30
0.0
 11
262.927372123433
 21
109.7840248337747
 31
0.0
  0
LINE
  5
4ED
330
6F
100
AcDbEntity
  8
UKEZAI
  6
Continuous
100
AcDbLine
 10
221.0273721234329
 20
111.2840248337748
 30
0.0
 11
221.0273721234329
 21
118.2840248337748
 31
0.0
  0
LINE
  5
4EE
330
6F
100
AcDbEntity
  8
UKEZAI
  6
Continuous
100
AcDbLine
 10
219.5273721233796
 20
110.2840248334886
 30
0.0
 11
219.7148721234333
 21
111.2840248337754
 31
0.0
  0
LINE
  5
4EF
330
6F
100
AcDbEntity
  8
UKEZAI
  6
Continuous
100
AcDbLine
 10
219.5273721233811
 20
108.2840248337745
 30
0.0
 11
219.5273721233789
 21
110.2840248334877
 31
0.0
  0
LINE
  5
4F0
330
6F
100
AcDbEntity
  8
UKEZAI
  6
Continuous
100
AcDbLine
 10
222.5273721234329
 20
109.7840248337748
 30
0.0
 11
222.5273721234329
 21
122.5340248337748
 31
0.0
  0
LINE
  5
4F1
330
6F
100
AcDbEntity
  8
UKEZAI
  6
Continuous
100
AcDbLine
 10
221.0273721234332
 20
118.2840248337296
 30
0.0
 11
219.7273721233334
 21
118.2840248337307
 31
0.0
  0
LINE
  5
4F2
330
6F
100
AcDbEntity
  8
UKEZAI
  6
Continuous
100
AcDbLine
 10
221.0273721234329
 20
111.2840248337748
 30
0.0
 11
219.7148721234329
 21
111.2840248337748
 31
0.0
  0
LINE
  5
4F3
330
6F
100
AcDbEntity
  8
UKEZAI
  6
Continuous
100
AcDbLine
 10
242.7273721234328
 20
108.2840248337749
 30
0.0
 11
219.5273721233811
 21
108.2840248337749
 31
0.0
  0
ARC
  5
4F4
330
6F
100
AcDbEntity
  8
UKEZAI
  6
Continuous
100
AcDbCircle
 10
242.727372123433
 20
109.7840248337751
 30
0.0
 40
0.3
100
AcDbArc
 50
180.0
 51
270.0
  0
ARC
  5
4F5
330
6F
100
AcDbEntity
  8
UKEZAI
  6
Continuous
100
AcDbCircle
 10
221.777372123433
 20
122.5340248337751
 30
0.0
 40
0.75
100
AcDbArc
 50
0.0
 51
160.112035694226
  0
ARC
  5
4F6
330
6F
100
AcDbEntity
  8
UKEZAI
  6
Continuous
100
AcDbCircle
 10
219.7273721233335
 20
118.4840248337308
 30
0.0
 40
0.2
100
AcDbArc
 50
160.1120356942282
 51
270.0
  0
LINE
  5
4F7
330
6F
100
AcDbEntity
  8
UKEZAI
  6
Continuous
100
AcDbLine
 10
219.5393002018849
 20
118.5520612384168
 30
0.0
 11
221.072102418002
 21
122.789161351352
 31
0.0
  0
POINT
  5
4F8
330
6F
100
AcDbEntity
  8
UKEZAI
  6
Continuous
100
AcDbPoint
 10
219.5273721233334
 20
118.284024833731
 30
0.0
  0
ARC
  5
4F9
330
6F
100
AcDbEntity
  8
UKEZAI
  6
Continuous
100
AcDbCircle
 10
240.727372123433
 20
109.7840248337751
 30
0.0
 40
0.3
100
AcDbArc
 50
0.0
 51
180.0
  0
LINE
  5
4FA
330
6F
100
AcDbEntity
  8
UKEZAI
  6
Continuous
100
AcDbLine
 10
242.427372123433
 20
109.7840248337748
 30
0.0
 11
241.0273721234332
 21
109.7840248337748
 31
0.0
  0
LINE
  5
4FB
330
6F
100
AcDbEntity
  8
UKEZAI
  6
Continuous
100
AcDbLine
 10
240.427372123433
 20
109.7840248337748
 30
0.0
 11
222.5273721234329
 21
109.7840248337748
 31
0.0
  0
LINE
  5
4FC
330
6F
100
AcDbEntity
  8
LOUVER
  6
Continuous
100
AcDbLine
 10
265.9273721241423
 20
109.2840248337703
 30
0.0
 11
265.9273721241434
 21
114.2840248334622
 31
0.0
  0
LINE
  5
4FD
330
6F
100
AcDbEntity
  8
LOUVER
  6
Continuous
100
AcDbLine
 10
266.2273721240878
 20
123.284024833776
 30
0.0
 11
262.7273721240875
 21
123.2840248337773
 31
0.0
  0
LINE
  5
4FE
330
6F
100
AcDbEntity
  8
LOUVER
  6
Continuous
100
AcDbLine
 10
262.4273721240876
 20
123.5840248337765
 30
0.0
 11
262.4273721240876
 21
123.9840248337763
 31
0.0
  0
LINE
  5
4FF
330
6F
100
AcDbEntity
  8
LOUVER
  6
Continuous
100
AcDbLine
 10
266.0273721228334
 20
155.7840248337747
 30
0.0
 11
246.0844541904059
 21
155.7840248337747
 31
0.0
  0
LINE
  5
500
330
6F
100
AcDbEntity
  8
LOUVER
  6
Continuous
100
AcDbLine
 10
265.2273721240878
 20
154.2840248337746
 30
0.0
 11
242.7273721240878
 21
154.2840248337746
 31
0.0
  0
LINE
  5
501
330
6F
100
AcDbEntity
  8
LOUVER
  6
Continuous
100
AcDbLine
 10
220.2273721236754
 20
118.0840248337586
 30
0.0
 11
219.2273721240871
 21
118.0840248337586
 31
0.0
  0
LINE
  5
502
330
6F
100
AcDbEntity
  8
LOUVER
  6
Continuous
100
AcDbLine
 10
219.5273721240326
 20
109.284024833791
 30
0.0
 11
219.5273721240314
 21
114.2840248334631
 31
0.0
  0
LINE
  5
503
330
6F
100
AcDbEntity
  8
LOUVER
  6
Continuous
100
AcDbLine
 10
219.2273721240869
 20
123.2840248337752
 30
0.0
 11
222.7273721240871
 21
123.2840248337766
 31
0.0
  0
LINE
  5
504
330
6F
100
AcDbEntity
  8
LOUVER
  6
Continuous
100
AcDbLine
 10
223.0273721240871
 20
123.5840248337768
 30
0.0
 11
223.0273721240871
 21
123.9840248337764
 31
0.0
  0
LINE
  5
505
330
6F
100
AcDbEntity
  8
LOUVER
  6
Continuous
100
AcDbLine
 10
219.4273721240872
 20
155.7840248337748
 30
0.0
 11
239.3702900577682
 21
155.7840248337747
 31
0.0
  0
LINE
  5
506
330
6F
100
AcDbEntity
  8
LOUVER
  6
Continuous
100
AcDbLine
 10
220.2273721240871
 20
154.2840248337748
 30
0.0
 11
242.7273721240869
 21
154.2840248337746
 31
0.0
  0
ARC
  5
507
330
6F
100
AcDbEntity
  8
LOUVER
  6
Continuous
100
AcDbCircle
 10
220.2273721236754
 20
117.8840248337591
 30
0.0
 40
0.2
100
AcDbArc
 50
345.8703295108734
 51
90.0
  0
LINE
  5
508
330
6F
100
AcDbEntity
  8
LOUVER
  6
Continuous
100
AcDbLine
 10
219.5273721240314
 20
114.2840248334628
 30
0.0
 11
220.4213212696288
 21
117.8352013887353
 31
0.0
  0
LINE
  5
509
330
6F
100
AcDbEntity
  8
LOUVER
  6
Continuous
100
AcDbLine
 10
265.2273721246831
 20
118.0840248337811
 30
0.0
 11
266.2273721240878
 21
118.084024833782
 31
0.0
  0
ARC
  5
50A
330
6F
100
AcDbEntity
  8
LOUVER
  6
Continuous
100
AcDbCircle
 10
265.2273721246836
 20
117.8840248337809
 30
0.0
 40
0.2
100
AcDbArc
 50
90.0000000000571
 51
194.1296704891835
  0
LINE
  5
50B
330
6F
100
AcDbEntity
  8
LOUVER
  6
Continuous
100
AcDbLine
 10
265.9273721243304
 20
114.284024833486
 30
0.0
 11
265.0334229787296
 21
117.8352013887576
 31
0.0
  0
LINE
  5
50C
330
6F
100
AcDbEntity
  8
LOUVER
  6
Continuous
100
AcDbLine
 10
219.4273721240872
 20
155.7840248337748
 30
0.0
 11
219.4273721240873
 21
256.5840248337418
 31
0.0
  0
LINE
  5
50D
330
6F
100
AcDbEntity
  8
LOUVER
  6
Continuous
100
AcDbLine
 10
266.0273721232536
 20
256.5840248337746
 30
0.0
 11
266.0273721228334
 21
155.7840248337749
 31
0.0
  0
LINE
  5
50E
330
6F
100
AcDbEntity
  8
LOUVER
  6
Continuous
100
AcDbLine
 10
266.0273721232545
 20
256.5840248337745
 30
0.0
 11
252.7273721239537
 21
256.5840248337745
 31
0.0
  0
LINE
  5
50F
330
6F
100
AcDbEntity
  8
LOUVER
  6
Continuous
100
AcDbLine
 10
219.4273721240876
 20
256.5840248337419
 30
0.0
 11
232.7273721242742
 21
256.5840248337607
 31
0.0
  0
LINE
  5
510
330
6F
100
AcDbEntity
  8
LOUVER
  6
Continuous
100
AcDbLine
 10
239.2630030263408
 20
256.1292615587247
 30
0.0
 11
232.7273721242746
 21
256.58402483376
 31
0.0
  0
LINE
  5
511
330
6F
100
AcDbEntity
  8
LOUVER
  6
Continuous
100
AcDbLine
 10
246.191741221833
 20
256.129261558726
 30
0.0
 11
252.7273721239536
 21
256.5840248337744
 31
0.0
  0
LINE
  5
512
330
6F
100
AcDbEntity
  8
LOUVER
  6
Continuous
100
AcDbLine
 10
219.2273721240871
 20
124.2840248337757
 30
0.0
 11
219.2273721240871
 21
153.2840248337748
 31
0.0
  0
LINE
  5
513
330
6F
100
AcDbEntity
  8
LOUVER
  6
Continuous
100
AcDbLine
 10
219.2273721240871
 20
118.0840248337577
 30
0.0
 11
219.2273721240871
 21
123.2840248337757
 31
0.0
  0
LINE
  5
514
330
6F
100
AcDbEntity
  8
LOUVER
  6
Continuous
100
AcDbLine
 10
219.2273721240865
 20
124.2840248337752
 30
0.0
 11
222.727372124087
 21
124.2840248337766
 31
0.0
  0
LINE
  5
515
330
6F
100
AcDbEntity
  8
LOUVER
  6
Continuous
100
AcDbLine
 10
266.2273721240878
 20
124.2840248337756
 30
0.0
 11
266.2273721240878
 21
153.2840248337747
 31
0.0
  0
LINE
  5
516
330
6F
100
AcDbEntity
  8
LOUVER
  6
Continuous
100
AcDbLine
 10
266.2273721240878
 20
118.0840248337822
 30
0.0
 11
266.2273721240878
 21
123.2840248337756
 31
0.0
  0
LINE
  5
517
330
6F
100
AcDbEntity
  8
LOUVER
  6
Continuous
100
AcDbLine
 10
266.2273721240882
 20
124.284024833776
 30
0.0
 11
262.7273721240876
 21
124.2840248337773
 31
0.0
  0
ARC
  5
518
330
6F
100
AcDbEntity
  8
LOUVER
  6
Continuous
100
AcDbCircle
 10
222.7273721240872
 20
123.5840248337771
 30
0.0
 40
0.3
100
AcDbArc
 50
270.0
 51
0.0
  0
ARC
  5
519
330
6F
100
AcDbEntity
  8
LOUVER
  6
Continuous
100
AcDbCircle
 10
222.7273721240872
 20
123.9840248337767
 30
0.0
 40
0.3
100
AcDbArc
 50
0.0
 51
90.0
  0
ARC
  5
51A
330
6F
100
AcDbEntity
  8
LOUVER
  6
Continuous
100
AcDbCircle
 10
262.7273721240879
 20
123.5840248337771
 30
0.0
 40
0.3
100
AcDbArc
 50
180.0
 51
270.0
  0
ARC
  5
51B
330
6F
100
AcDbEntity
  8
LOUVER
  6
Continuous
100
AcDbCircle
 10
262.7273721240879
 20
123.9840248337767
 30
0.0
 40
0.3
100
AcDbArc
 50
90.0
 51
180.0
  0
ARC
  5
51C
330
6F
100
AcDbEntity
  8
LOUVER
  6
Continuous
100
AcDbCircle
 10
220.227372124087
 20
153.2840248337751
 30
0.0
 40
1.0
100
AcDbArc
 50
90.0
 51
180.0
  0
ARC
  5
51D
330
6F
100
AcDbEntity
  8
LOUVER
  6
Continuous
100
AcDbCircle
 10
265.2273721240879
 20
153.2840248337751
 30
0.0
 40
1.0
100
AcDbArc
 50
0.0
 51
90.0
  0
LINE
  5
51E
330
6F
100
AcDbEntity
  8
LOUVER
  6
DASHED
100
AcDbLine
 10
267.7273721239927
 20
109.2840248337893
 30
0.0
 11
267.7273721239928
 21
258.2840248337743
 31
0.0
  0
LINE
  5
51F
330
6F
100
AcDbEntity
  8
LOUVER
  6
DASHED
100
AcDbLine
 10
217.727372124087
 20
258.2840248337748
 30
0.0
 11
217.7273721240869
 21
109.2840248337866
 31
0.0
  0
LINE
  5
520
330
6F
100
AcDbEntity
  8
LOUVER
  6
DASHED
100
AcDbLine
 10
267.7273721240871
 20
258.2840248337743
 30
0.0
 11
217.7273721240869
 21
258.2840248337744
 31
0.0
  0
LINE
  5
521
330
6F
100
AcDbEntity
  8
LOUVER
  6
Continuous
100
AcDbLine
 10
267.7273721239914
 20
109.2840248337705
 30
0.0
 11
265.9273721241422
 21
109.2840248337705
 31
0.0
  0
LINE
  5
522
330
6F
100
AcDbEntity
  8
LOUVER
  6
Continuous
100
AcDbLine
 10
217.7273721238867
 20
109.2840248337867
 30
0.0
 11
219.5273721233997
 21
109.2840248337906
 31
0.0
  0
POINT
  5
523
330
6F
100
AcDbEntity
  8
LOUVER
  6
Continuous
100
AcDbPoint
 10
242.7273721240872
 20
254.7840248337751
 30
0.0
  0
POINT
  5
524
330
6F
100
AcDbEntity
  8
LOUVER
  6
Continuous
100
AcDbPoint
 10
242.727372124087
 20
157.5840248337753
 30
0.0
  0
POINT
  5
525
330
6F
100
AcDbEntity
  8
LOUVER
  6
Continuous
100
AcDbPoint
 10
242.727372124087
 20
157.5840248337753
 30
0.0
  0
ARC
  5
526
330
6F
100
AcDbEntity
  8
LOUVER
  6
Continuous
100
AcDbCircle
 10
244.5273721242643
 20
159.2461018474422
 30
0.0
 40
0.6500000000000014
100
AcDbArc
 50
42.71864450827047
 51
222.7186445082705
  0
ARC
  5
527
330
6F
100
AcDbEntity
  8
LOUVER
  6
Continuous
100
AcDbCircle
 10
240.9273721244504
 20
159.2461018480279
 30
0.0
 40
0.6500000000000048
100
AcDbArc
 50
317.2813554730932
 51
137.2813554730932
  0
ARC
  5
528
330
6F
100
AcDbEntity
  8
LOUVER
  6
Continuous
100
AcDbCircle
 10
242.727372124087
 20
157.5840248337753
 30
0.0
 40
3.1
100
AcDbArc
 50
137.2813554730942
 51
201.1684488458317
  0
ARC
  5
529
330
6F
100
AcDbEntity
  8
LOUVER
  6
Continuous
100
AcDbCircle
 10
242.727372124087
 20
157.5840248337753
 30
0.0
 40
3.1
100
AcDbArc
 50
338.8315511541684
 51
42.71864450826979
  0
POINT
  5
52A
330
6F
100
AcDbEntity
  8
LOUVER
  6
Continuous
100
AcDbPoint
 10
242.7273721240872
 20
254.7840248337751
 30
0.0
  0
ARC
  5
52B
330
6F
100
AcDbEntity
  8
LOUVER
  6
Continuous
100
AcDbCircle
 10
244.5273721242693
 20
253.1219478201127
 30
0.0
 40
0.6500000000000014
100
AcDbArc
 50
137.2813554918912
 51
317.2813554918912
  0
ARC
  5
52C
330
6F
100
AcDbEntity
  8
LOUVER
  6
Continuous
100
AcDbCircle
 10
240.9273721244554
 20
253.121947819517
 30
0.0
 40
0.6500000000000048
100
AcDbArc
 50
222.7186445270684
 51
42.71864452706843
  0
ARC
  5
52D
330
6F
100
AcDbEntity
  8
LOUVER
  6
Continuous
100
AcDbCircle
 10
242.7273721240872
 20
254.7840248337751
 30
0.0
 40
3.1
100
AcDbArc
 50
166.4011272405371
 51
222.7186445270675
  0
ARC
  5
52E
330
6F
100
AcDbEntity
  8
LOUVER
  6
Continuous
100
AcDbCircle
 10
242.7273721240872
 20
254.7840248337751
 30
0.0
 40
3.1
100
AcDbArc
 50
317.2813554918917
 51
13.59887275948024
  0
ARC
  5
52F
330
6F
100
AcDbEntity
  8
LOUVER
  6
Continuous
100
AcDbCircle
 10
239.370290057768
 20
156.2840248337751
 30
0.0
 40
0.5
100
AcDbArc
 50
270.0
 51
21.16844884583113
  0
ARC
  5
530
330
6F
100
AcDbEntity
  8
LOUVER
  6
Continuous
100
AcDbCircle
 10
246.0844541904059
 20
156.2840248337751
 30
0.0
 40
0.5
100
AcDbArc
 50
158.8315511541689
 51
270.0
  0
POINT
  5
531
330
6F
100
AcDbEntity
  8
LOUVER
  6
Continuous
100
AcDbPoint
 10
245.541621579981
 20
256.0840248337754
 30
0.0
  0
POINT
  5
532
330
6F
100
AcDbEntity
  8
LOUVER
  6
Continuous
100
AcDbPoint
 10
239.9131226681934
 20
256.0840248337754
 30
0.0
  0
ARC
  5
533
330
6F
100
AcDbEntity
  8
LOUVER
  6
Continuous
100
AcDbCircle
 10
239.2282958683622
 20
255.6304676000758
 30
0.0
 40
0.5
100
AcDbArc
 50
346.4011272405494
 51
86.01965183337103
  0
ARC
  5
534
330
6F
100
AcDbEntity
  8
LOUVER
  6
Continuous
100
AcDbCircle
 10
246.2264483798117
 20
255.6304676000772
 30
0.0
 40
0.5
100
AcDbArc
 50
93.98034816671124
 51
193.598872759477
  0
ARC
  5
535
330
6F
100
AcDbEntity
  8
LOUVER
  6
Continuous
100
AcDbCircle
 10
242.727372124087
 20
157.5840248337753
 30
0.0
 40
1.799999999999637
100
AcDbArc
 50
137.2813554731022
 51
42.71864450825652
  0
ARC
  5
536
330
6F
100
AcDbEntity
  8
LOUVER
  6
Continuous
100
AcDbCircle
 10
242.7273721240872
 20
254.7840248337751
 30
0.0
 40
1.800000000000066
100
AcDbArc
 50
317.2813554918979
 51
222.7186445270675
  0
LINE
  5
537
330
6F
100
AcDbEntity
  8
UKEZAI
  6
Continuous
100
AcDbLine
 10
629.4412277190032
 20
110.4245292464518
 30
0.0
 11
629.4412277190032
 21
117.4245292464518
 31
0.0
  0
LINE
  5
538
330
6F
100
AcDbEntity
  8
UKEZAI
  6
Continuous
100
AcDbLine
 10
630.941227719057
 20
109.4245292461647
 30
0.0
 11
630.7537277190032
 21
110.424529246452
 31
0.0
  0
LINE
  5
539
330
6F
100
AcDbEntity
  8
UKEZAI
  6
Continuous
100
AcDbLine
 10
630.9412277190546
 20
107.424529246452
 30
0.0
 11
630.9412277190569
 21
109.4245292461651
 31
0.0
  0
LINE
  5
53A
330
6F
100
AcDbEntity
  8
UKEZAI
  6
Continuous
100
AcDbLine
 10
627.9412277190032
 20
108.9245292464518
 30
0.0
 11
627.9412277190032
 21
121.6745292464518
 31
0.0
  0
LINE
  5
53B
330
6F
100
AcDbEntity
  8
UKEZAI
  6
Continuous
100
AcDbLine
 10
629.4412277190027
 20
117.424529246406
 30
0.0
 11
630.7412277191024
 21
117.424529246407
 31
0.0
  0
LINE
  5
53C
330
6F
100
AcDbEntity
  8
UKEZAI
  6
Continuous
100
AcDbLine
 10
629.4412277190032
 20
110.4245292464518
 30
0.0
 11
630.7537277190032
 21
110.4245292464518
 31
0.0
  0
LINE
  5
53D
330
6F
100
AcDbEntity
  8
UKEZAI
  6
Continuous
100
AcDbLine
 10
607.7412277190037
 20
107.4245292464516
 30
0.0
 11
630.9412277190553
 21
107.4245292464516
 31
0.0
  0
ARC
  5
53E
330
6F
100
AcDbEntity
  8
UKEZAI
  6
Continuous
100
AcDbCircle
 10
607.7412277190031
 20
108.9245292464521
 30
0.0
 40
0.3
100
AcDbArc
 50
270.0
 51
0.0
  0
ARC
  5
53F
330
6F
100
AcDbEntity
  8
UKEZAI
  6
Continuous
100
AcDbCircle
 10
628.6912277190032
 20
121.6745292464521
 30
0.0
 40
0.75
100
AcDbArc
 50
19.88796430577387
 51
180.0
  0
ARC
  5
540
330
6F
100
AcDbEntity
  8
UKEZAI
  6
Continuous
100
AcDbCircle
 10
630.7412277191024
 20
117.6245292464078
 30
0.0
 40
0.2
100
AcDbArc
 50
270.0
 51
19.88796430577178
  0
LINE
  5
541
330
6F
100
AcDbEntity
  8
UKEZAI
  6
Continuous
100
AcDbLine
 10
630.9292996405507
 20
117.6925656510944
 30
0.0
 11
629.3964974244337
 21
121.9296657640296
 31
0.0
  0
POINT
  5
542
330
6F
100
AcDbEntity
  8
UKEZAI
  6
Continuous
100
AcDbPoint
 10
630.9412277191028
 20
117.424529246408
 30
0.0
  0
ARC
  5
543
330
6F
100
AcDbEntity
  8
UKEZAI
  6
Continuous
100
AcDbCircle
 10
609.7412277190033
 20
108.9245292464521
 30
0.0
 40
0.3
100
AcDbArc
 50
0.0
 51
180.0
  0
LINE
  5
544
330
6F
100
AcDbEntity
  8
UKEZAI
  6
Continuous
100
AcDbLine
 10
608.0412277190032
 20
108.9245292464518
 30
0.0
 11
609.4412277190031
 21
108.9245292464518
 31
0.0
  0
LINE
  5
545
330
6F
100
AcDbEntity
  8
UKEZAI
  6
Continuous
100
AcDbLine
 10
610.0412277190032
 20
108.9245292464518
 30
0.0
 11
627.9412277190032
 21
108.9245292464518
 31
0.0
  0
LINE
  5
546
330
6F
100
AcDbEntity
  8
UKEZAI
  6
Continuous
100
AcDbLine
 10
586.0412277190032
 20
110.4245292464518
 30
0.0
 11
586.0412277190032
 21
117.4245292464518
 31
0.0
  0
LINE
  5
547
330
6F
100
AcDbEntity
  8
UKEZAI
  6
Continuous
100
AcDbLine
 10
584.5412277189496
 20
109.4245292461656
 30
0.0
 11
584.7287277190035
 21
110.4245292464524
 31
0.0
  0
LINE
  5
548
330
6F
100
AcDbEntity
  8
UKEZAI
  6
Continuous
100
AcDbLine
 10
584.5412277189512
 20
107.4245292464517
 30
0.0
 11
584.5412277189492
 21
109.4245292461647
 31
0.0
  0
LINE
  5
549
330
6F
100
AcDbEntity
  8
UKEZAI
  6
Continuous
100
AcDbLine
 10
587.5412277190032
 20
108.9245292464518
 30
0.0
 11
587.5412277190032
 21
121.6745292464518
 31
0.0
  0
LINE
  5
54A
330
6F
100
AcDbEntity
  8
UKEZAI
  6
Continuous
100
AcDbLine
 10
586.0412277190035
 20
117.4245292464066
 30
0.0
 11
584.7412277189037
 21
117.4245292464077
 31
0.0
  0
LINE
  5
54B
330
6F
100
AcDbEntity
  8
UKEZAI
  6
Continuous
100
AcDbLine
 10
586.0412277190032
 20
110.4245292464518
 30
0.0
 11
584.7287277190032
 21
110.4245292464518
 31
0.0
  0
LINE
  5
54C
330
6F
100
AcDbEntity
  8
UKEZAI
  6
Continuous
100
AcDbLine
 10
607.7412277190031
 20
107.4245292464519
 30
0.0
 11
584.5412277189515
 21
107.4245292464519
 31
0.0
  0
ARC
  5
54D
330
6F
100
AcDbEntity
  8
UKEZAI
  6
Continuous
100
AcDbCircle
 10
607.7412277190034
 20
108.9245292464521
 30
0.0
 40
0.3
100
AcDbArc
 50
180.0
 51
270.0
  0
ARC
  5
54E
330
6F
100
AcDbEntity
  8
UKEZAI
  6
Continuous
100
AcDbCircle
 10
586.7912277190034
 20
121.6745292464521
 30
0.0
 40
0.75
100
AcDbArc
 50
0.0
 51
160.112035694226
  0
ARC
  5
54F
330
6F
100
AcDbEntity
  8
UKEZAI
  6
Continuous
100
AcDbCircle
 10
584.7412277189037
 20
117.6245292464078
 30
0.0
 40
0.2
100
AcDbArc
 50
160.1120356942282
 51
270.0
  0
LINE
  5
550
330
6F
100
AcDbEntity
  8
UKEZAI
  6
Continuous
100
AcDbLine
 10
584.5531557974552
 20
117.6925656510938
 30
0.0
 11
586.0859580135723
 21
121.929665764029
 31
0.0
  0
POINT
  5
551
330
6F
100
AcDbEntity
  8
UKEZAI
  6
Continuous
100
AcDbPoint
 10
584.5412277189037
 20
117.424529246408
 30
0.0
  0
ARC
  5
552
330
6F
100
AcDbEntity
  8
UKEZAI
  6
Continuous
100
AcDbCircle
 10
605.7412277190033
 20
108.9245292464521
 30
0.0
 40
0.3
100
AcDbArc
 50
0.0
 51
180.0
  0
LINE
  5
553
330
6F
100
AcDbEntity
  8
UKEZAI
  6
Continuous
100
AcDbLine
 10
607.4412277190032
 20
108.9245292464518
 30
0.0
 11
606.0412277190034
 21
108.9245292464518
 31
0.0
  0
LINE
  5
554
330
6F
100
AcDbEntity
  8
UKEZAI
  6
Continuous
100
AcDbLine
 10
605.4412277190031
 20
108.9245292464518
 30
0.0
 11
587.5412277190032
 21
108.9245292464518
 31
0.0
  0
LINE
  5
555
330
6F
100
AcDbEntity
  8
LOUVER
  6
Continuous
100
AcDbLine
 10
630.9412277197125
 20
108.4245292464473
 30
0.0
 11
630.9412277197138
 21
113.4245292461392
 31
0.0
  0
LINE
  5
556
330
6F
100
AcDbEntity
  8
LOUVER
  6
Continuous
100
AcDbLine
 10
631.2412277196581
 20
122.424529246453
 30
0.0
 11
627.7412277196579
 21
122.4245292464544
 31
0.0
  0
LINE
  5
557
330
6F
100
AcDbEntity
  8
LOUVER
  6
Continuous
100
AcDbLine
 10
627.4412277196582
 20
122.7245292464537
 30
0.0
 11
627.4412277196582
 21
123.1245292464533
 31
0.0
  0
LINE
  5
558
330
6F
100
AcDbEntity
  8
LOUVER
  6
Continuous
100
AcDbLine
 10
631.0412277184037
 20
154.9245292464518
 30
0.0
 11
611.0983097859763
 21
154.9245292464518
 31
0.0
  0
LINE
  5
559
330
6F
100
AcDbEntity
  8
LOUVER
  6
Continuous
100
AcDbLine
 10
630.2412277196582
 20
153.4245292464518
 30
0.0
 11
607.7412277196582
 21
153.4245292464518
 31
0.0
  0
LINE
  5
55A
330
6F
100
AcDbEntity
  8
LOUVER
  6
Continuous
100
AcDbLine
 10
585.2412277192457
 20
117.2245292464356
 30
0.0
 11
584.2412277196573
 21
117.2245292464356
 31
0.0
  0
LINE
  5
55B
330
6F
100
AcDbEntity
  8
LOUVER
  6
Continuous
100
AcDbLine
 10
584.5412277196029
 20
108.4245292464681
 30
0.0
 11
584.5412277196016
 21
113.4245292461402
 31
0.0
  0
LINE
  5
55C
330
6F
100
AcDbEntity
  8
LOUVER
  6
Continuous
100
AcDbLine
 10
584.2412277196573
 20
122.4245292464523
 30
0.0
 11
587.7412277196575
 21
122.4245292464536
 31
0.0
  0
LINE
  5
55D
330
6F
100
AcDbEntity
  8
LOUVER
  6
Continuous
100
AcDbLine
 10
588.0412277196573
 20
122.7245292464538
 30
0.0
 11
588.0412277196573
 21
123.1245292464534
 31
0.0
  0
LINE
  5
55E
330
6F
100
AcDbEntity
  8
LOUVER
  6
Continuous
100
AcDbLine
 10
584.4412277196576
 20
154.9245292464518
 30
0.0
 11
604.3841456533385
 21
154.9245292464518
 31
0.0
  0
LINE
  5
55F
330
6F
100
AcDbEntity
  8
LOUVER
  6
Continuous
100
AcDbLine
 10
585.2412277196576
 20
153.4245292464518
 30
0.0
 11
607.7412277196573
 21
153.4245292464518
 31
0.0
  0
ARC
  5
560
330
6F
100
AcDbEntity
  8
LOUVER
  6
Continuous
100
AcDbCircle
 10
585.2412277192457
 20
117.0245292464361
 30
0.0
 40
0.2
100
AcDbArc
 50
345.8703295108734
 51
90.0
  0
LINE
  5
561
330
6F
100
AcDbEntity
  8
LOUVER
  6
Continuous
100
AcDbLine
 10
584.5412277196016
 20
113.4245292461399
 30
0.0
 11
585.4351768651989
 21
116.9757058014123
 31
0.0
  0
LINE
  5
562
330
6F
100
AcDbEntity
  8
LOUVER
  6
Continuous
100
AcDbLine
 10
630.2412277202535
 20
117.2245292464581
 30
0.0
 11
631.2412277196582
 21
117.224529246459
 31
0.0
  0
ARC
  5
563
330
6F
100
AcDbEntity
  8
LOUVER
  6
Continuous
100
AcDbCircle
 10
630.2412277202539
 20
117.0245292464579
 30
0.0
 40
0.2
100
AcDbArc
 50
90.0000000000571
 51
194.1296704891835
  0
LINE
  5
564
330
6F
100
AcDbEntity
  8
LOUVER
  6
Continuous
100
AcDbLine
 10
630.9412277199007
 20
113.424529246163
 30
0.0
 11
630.0472785742998
 21
116.9757058014346
 31
0.0
  0
LINE
  5
565
330
6F
100
AcDbEntity
  8
LOUVER
  6
Continuous
100
AcDbLine
 10
584.4412277196576
 20
154.9245292464518
 30
0.0
 11
584.4412277196576
 21
255.7245292464188
 31
0.0
  0
LINE
  5
566
330
6F
100
AcDbEntity
  8
LOUVER
  6
Continuous
100
AcDbLine
 10
631.0412277188237
 20
255.7245292464517
 30
0.0
 11
631.0412277184037
 21
154.9245292464519
 31
0.0
  0
LINE
  5
567
330
6F
100
AcDbEntity
  8
LOUVER
  6
Continuous
100
AcDbLine
 10
631.0412277188248
 20
255.7245292464515
 30
0.0
 11
617.7412277195242
 21
255.7245292464515
 31
0.0
  0
LINE
  5
568
330
6F
100
AcDbEntity
  8
LOUVER
  6
Continuous
100
AcDbLine
 10
584.4412277196579
 20
255.7245292464188
 30
0.0
 11
597.7412277198445
 21
255.7245292464377
 31
0.0
  0
LINE
  5
569
330
6F
100
AcDbEntity
  8
LOUVER
  6
Continuous
100
AcDbLine
 10
604.2768586219112
 20
255.2697659714018
 30
0.0
 11
597.7412277198449
 21
255.7245292464371
 31
0.0
  0
LINE
  5
56A
330
6F
100
AcDbEntity
  8
LOUVER
  6
Continuous
100
AcDbLine
 10
611.2055968174034
 20
255.269765971403
 30
0.0
 11
617.7412277195239
 21
255.7245292464514
 31
0.0
  0
LINE
  5
56B
330
6F
100
AcDbEntity
  8
LOUVER
  6
Continuous
100
AcDbLine
 10
584.2412277196573
 20
123.4245292464527
 30
0.0
 11
584.2412277196575
 21
152.4245292464518
 31
0.0
  0
LINE
  5
56C
330
6F
100
AcDbEntity
  8
LOUVER
  6
Continuous
100
AcDbLine
 10
584.2412277196573
 20
117.2245292464347
 30
0.0
 11
584.2412277196573
 21
122.4245292464527
 31
0.0
  0
LINE
  5
56D
330
6F
100
AcDbEntity
  8
LOUVER
  6
Continuous
100
AcDbLine
 10
584.2412277196569
 20
123.4245292464523
 30
0.0
 11
587.7412277196573
 21
123.4245292464536
 31
0.0
  0
LINE
  5
56E
330
6F
100
AcDbEntity
  8
LOUVER
  6
Continuous
100
AcDbLine
 10
631.2412277196581
 20
123.4245292464527
 30
0.0
 11
631.2412277196582
 21
152.4245292464518
 31
0.0
  0
LINE
  5
56F
330
6F
100
AcDbEntity
  8
LOUVER
  6
Continuous
100
AcDbLine
 10
631.2412277196581
 20
117.2245292464592
 30
0.0
 11
631.2412277196581
 21
122.4245292464527
 31
0.0
  0
LINE
  5
570
330
6F
100
AcDbEntity
  8
LOUVER
  6
Continuous
100
AcDbLine
 10
631.2412277196586
 20
123.424529246453
 30
0.0
 11
627.7412277196581
 21
123.4245292464544
 31
0.0
  0
ARC
  5
571
330
6F
100
AcDbEntity
  8
LOUVER
  6
Continuous
100
AcDbCircle
 10
587.7412277196575
 20
122.7245292464541
 30
0.0
 40
0.3
100
AcDbArc
 50
270.0
 51
0.0
  0
ARC
  5
572
330
6F
100
AcDbEntity
  8
LOUVER
  6
Continuous
100
AcDbCircle
 10
587.7412277196575
 20
123.1245292464537
 30
0.0
 40
0.3
100
AcDbArc
 50
0.0
 51
90.0
  0
ARC
  5
573
330
6F
100
AcDbEntity
  8
LOUVER
  6
Continuous
100
AcDbCircle
 10
627.7412277196582
 20
122.7245292464541
 30
0.0
 40
0.3
100
AcDbArc
 50
180.0
 51
270.0
  0
ARC
  5
574
330
6F
100
AcDbEntity
  8
LOUVER
  6
Continuous
100
AcDbCircle
 10
627.7412277196582
 20
123.1245292464537
 30
0.0
 40
0.3
100
AcDbArc
 50
90.0
 51
180.0
  0
ARC
  5
575
330
6F
100
AcDbEntity
  8
LOUVER
  6
Continuous
100
AcDbCircle
 10
585.2412277196573
 20
152.4245292464521
 30
0.0
 40
1.0
100
AcDbArc
 50
90.0
 51
180.0
  0
ARC
  5
576
330
6F
100
AcDbEntity
  8
LOUVER
  6
Continuous
100
AcDbCircle
 10
630.2412277196582
 20
152.4245292464521
 30
0.0
 40
1.0
100
AcDbArc
 50
0.0
 51
90.0
  0
LINE
  5
577
330
6F
100
AcDbEntity
  8
LOUVER
  6
DASHED
100
AcDbLine
 10
632.741227719563
 20
108.4245292464663
 30
0.0
 11
632.7412277195632
 21
257.4245292464513
 31
0.0
  0
LINE
  5
578
330
6F
100
AcDbEntity
  8
LOUVER
  6
DASHED
100
AcDbLine
 10
582.7412277196573
 20
257.4245292464518
 30
0.0
 11
582.7412277196573
 21
108.4245292464635
 31
0.0
  0
LINE
  5
579
330
6F
100
AcDbEntity
  8
LOUVER
  6
DASHED
100
AcDbLine
 10
632.7412277196575
 20
257.4245292464514
 30
0.0
 11
582.7412277196573
 21
257.4245292464514
 31
0.0
  0
LINE
  5
57A
330
6F
100
AcDbEntity
  8
LOUVER
  6
Continuous
100
AcDbLine
 10
632.7412277195617
 20
108.4245292464475
 30
0.0
 11
630.9412277197125
 21
108.4245292464475
 31
0.0
  0
LINE
  5
57B
330
6F
100
AcDbEntity
  8
LOUVER
  6
Continuous
100
AcDbLine
 10
582.741227719457
 20
108.4245292464637
 30
0.0
 11
584.5412277189699
 21
108.4245292464677
 31
0.0
  0
POINT
  5
57C
330
6F
100
AcDbEntity
  8
LOUVER
  6
Continuous
100
AcDbPoint
 10
607.7412277196575
 20
253.9245292464521
 30
0.0
  0
POINT
  5
57D
330
6F
100
AcDbEntity
  8
LOUVER
  6
Continuous
100
AcDbPoint
 10
607.7412277196573
 20
156.7245292464523
 30
0.0
  0
POINT
  5
57E
330
6F
100
AcDbEntity
  8
LOUVER
  6
Continuous
100
AcDbPoint
 10
607.7412277196573
 20
156.7245292464523
 30
0.0
  0
ARC
  5
57F
330
6F
100
AcDbEntity
  8
LOUVER
  6
Continuous
100
AcDbCircle
 10
609.5412277198346
 20
158.3866062601192
 30
0.0
 40
0.6500000000000014
100
AcDbArc
 50
42.71864450827047
 51
222.7186445082705
  0
ARC
  5
580
330
6F
100
AcDbEntity
  8
LOUVER
  6
Continuous
100
AcDbCircle
 10
605.9412277200207
 20
158.3866062607049
 30
0.0
 40
0.6500000000000048
100
AcDbArc
 50
317.2813554730932
 51
137.2813554730932
  0
ARC
  5
581
330
6F
100
AcDbEntity
  8
LOUVER
  6
Continuous
100
AcDbCircle
 10
607.7412277196573
 20
156.7245292464523
 30
0.0
 40
3.1
100
AcDbArc
 50
137.2813554730942
 51
201.1684488458317
  0
ARC
  5
582
330
6F
100
AcDbEntity
  8
LOUVER
  6
Continuous
100
AcDbCircle
 10
607.7412277196573
 20
156.7245292464523
 30
0.0
 40
3.1
100
AcDbArc
 50
338.8315511541684
 51
42.71864450826979
  0
POINT
  5
583
330
6F
100
AcDbEntity
  8
LOUVER
  6
Continuous
100
AcDbPoint
 10
607.7412277196575
 20
253.9245292464521
 30
0.0
  0
ARC
  5
584
330
6F
100
AcDbEntity
  8
LOUVER
  6
Continuous
100
AcDbCircle
 10
609.5412277198396
 20
252.2624522327897
 30
0.0
 40
0.6500000000000014
100
AcDbArc
 50
137.2813554918912
 51
317.2813554918912
  0
ARC
  5
585
330
6F
100
AcDbEntity
  8
LOUVER
  6
Continuous
100
AcDbCircle
 10
605.9412277200258
 20
252.262452232194
 30
0.0
 40
0.6500000000000048
100
AcDbArc
 50
222.7186445270684
 51
42.71864452706843
  0
ARC
  5
586
330
6F
100
AcDbEntity
  8
LOUVER
  6
Continuous
100
AcDbCircle
 10
607.7412277196575
 20
253.9245292464521
 30
0.0
 40
3.1
100
AcDbArc
 50
166.4011272405371
 51
222.7186445270675
  0
ARC
  5
587
330
6F
100
AcDbEntity
  8
LOUVER
  6
Continuous
100
AcDbCircle
 10
607.7412277196575
 20
253.9245292464521
 30
0.0
 40
3.1
100
AcDbArc
 50
317.2813554918917
 51
13.59887275948024
  0
ARC
  5
588
330
6F
100
AcDbEntity
  8
LOUVER
  6
Continuous
100
AcDbCircle
 10
604.3841456533384
 20
155.4245292464521
 30
0.0
 40
0.5
100
AcDbArc
 50
270.0
 51
21.16844884583113
  0
ARC
  5
589
330
6F
100
AcDbEntity
  8
LOUVER
  6
Continuous
100
AcDbCircle
 10
611.0983097859763
 20
155.4245292464521
 30
0.0
 40
0.5
100
AcDbArc
 50
158.8315511541689
 51
270.0
  0
POINT
  5
58A
330
6F
100
AcDbEntity
  8
LOUVER
  6
Continuous
100
AcDbPoint
 10
610.5554771755512
 20
255.2245292464523
 30
0.0
  0
POINT
  5
58B
330
6F
100
AcDbEntity
  8
LOUVER
  6
Continuous
100
AcDbPoint
 10
604.9269782637638
 20
255.2245292464523
 30
0.0
  0
ARC
  5
58C
330
6F
100
AcDbEntity
  8
LOUVER
  6
Continuous
100
AcDbCircle
 10
604.2421514639325
 20
254.7709720127528
 30
0.0
 40
0.5
100
AcDbArc
 50
346.4011272405494
 51
86.01965183337103
  0
ARC
  5
58D
330
6F
100
AcDbEntity
  8
LOUVER
  6
Continuous
100
AcDbCircle
 10
611.2403039753822
 20
254.7709720127542
 30
0.0
 40
0.5
100
AcDbArc
 50
93.98034816671124
 51
193.598872759477
  0
ARC
  5
58E
330
6F
100
AcDbEntity
  8
LOUVER
  6
Continuous
100
AcDbCircle
 10
607.7412277196573
 20
156.7245292464523
 30
0.0
 40
1.799999999999637
100
AcDbArc
 50
137.2813554731022
 51
42.71864450825652
  0
ARC
  5
58F
330
6F
100
AcDbEntity
  8
LOUVER
  6
Continuous
100
AcDbCircle
 10
607.7412277196575
 20
253.9245292464521
 30
0.0
 40
1.800000000000066
100
AcDbArc
 50
317.2813554918979
 51
222.7186445270675
  0
DIMENSION
  5
590
330
6F
100
AcDbEntity
  8
DXF0
  6
Continuous
 62
     3
100
AcDbDimension
280
     0
  2
*D1
 10
192.061826083633
 20
258.2840248337744
 30
0.0
 11
191.561826083633
 21
183.2840248337746
 31
0.0
 71
     5
 42
-1.0
 73
     0
 74
     0
 75
     0
  3
Standard
100
AcDbAlignedDimension
 13
132.4720475945935
 23
108.2840248337749
 33
0.0
 14
217.7273721240869
 24
258.2840248337744
 34
0.0
 50
90.0
100
AcDbRotatedDimension
  0
DIMENSION
  5
591
330
6F
100
AcDbEntity
  8
DXF0
  6
Continuous
 62
     3
100
AcDbDimension
280
     0
  2
*D2
 10
204.44578413911
 20
108.2840248337749
 30
0.0
 11
203.94578413911
 21
113.2840248337694
 31
0.0
 71
     5
 42
-1.0
 73
     0
 74
     0
 75
     0
  3
Standard
100
AcDbAlignedDimension
 13
213.3387701986437
 23
118.2840248337857
 33
0.0
 14
132.4720475945935
 24
108.2840248337749
 34
0.0
 50
90.0
100
AcDbRotatedDimension
  0
DIMENSION
  5
592
330
6F
100
AcDbEntity
  8
DXF0
  6
Continuous
 62
     3
100
AcDbDimension
280
     0
  2
*D3
 10
212.5948511759181
 20
108.2840248337749
 30
0.0
 11
212.0948511759181
 21
111.4040088214535
 31
0.0
 71
     5
 42
-1.0
 73
     0
 74
     0
 75
     0
  3
Standard
100
AcDbAlignedDimension
 13
217.7273721238867
 23
109.2840248337867
 33
0.0
 14
132.4720475945935
 24
108.2840248337749
 34
0.0
 50
90.0
100
AcDbRotatedDimension
  0
DIMENSION
  5
593
330
6F
100
AcDbEntity
  8
DXF0
  6
Continuous
 62
     3
100
AcDbDimension
280
     0
  2
*D4
 10
556.2278594647026
 20
107.4245292464519
 30
0.0
 11
555.7278594647026
 21
182.4245292464516
 31
0.0
 71
     5
 42
-1.0
 73
     0
 74
     0
 75
     0
  3
Standard
100
AcDbAlignedDimension
 13
582.7412277196573
 23
257.4245292464514
 33
0.0
 14
518.9620800525037
 24
107.4245292464519
 34
0.0
 50
90.0
100
AcDbRotatedDimension
  0
DIMENSION
  5
594
330
6F
100
AcDbEntity
  8
DXF0
  6
Continuous
 62
     3
100
AcDbDimension
280
     0
  2
*D5
 10
569.1489678468752
 20
107.4245292464519
 30
0.0
 11
568.6489678468753
 21
112.4245292464572
 31
0.0
 71
     5
 42
-1.0
 73
     0
 74
     0
 75
     0
  3
Standard
100
AcDbAlignedDimension
 13
578.3526257942123
 23
117.4245292464626
 33
0.0
 14
518.9620800525037
 24
107.4245292464519
 34
0.0
 50
90.0
100
AcDbRotatedDimension
  0
DIMENSION
  5
595
330
6F
100
AcDbEntity
  8
DXF0
  6
Continuous
 62
     3
100
AcDbDimension
280
     0
  2
*D6
 10
576.8941086565816
 20
107.4245292464519
 30
0.0
 11
576.3941086565816
 21
109.8416460592007
 31
0.0
 71
     5
 42
-1.0
 73
     0
 74
     0
 75
     0
  3
Standard
100
AcDbAlignedDimension
 13
582.741227719457
 23
108.4245292464637
 33
0.0
 14
518.9620800525037
 24
107.4245292464519
 34
0.0
 50
90.0
100
AcDbRotatedDimension
  0
DIMENSION
  5
596
330
6F
100
AcDbEntity
  8
DXF0
  6
Continuous
 62
     3
100
AcDbDimension
280
     0
  2
*D7
 10
217.7273721240869
 20
55.79678759746882
 30
0.0
 11
230.2273721237598
 21
56.29678759746882
 31
0.0
 71
     5
 42
-1.0
 73
     0
 74
     0
 75
     0
  3
Standard
100
AcDbAlignedDimension
 13
242.7273721234328
 23
61.71396927457987
 33
0.0
 14
217.7273721240869
 24
109.2840248337866
 34
0.0
100
AcDbRotatedDimension
  0
DIMENSION
  5
597
330
6F
100
AcDbEntity
  8
DXF0
  6
Continuous
 62
     3
100
AcDbDimension
280
     0
  2
*D8
 10
242.7273721234328
 20
55.79678759746882
 30
0.0
 11
255.2273721237128
 21
56.29678759746882
 31
0.0
 71
     5
 42
-1.0
 73
     0
 74
     0
 75
     0
  3
Standard
100
AcDbAlignedDimension
 13
267.7273721239927
 23
109.2840248337893
 33
0.0
 14
242.7273721234328
 24
61.71396927457987
 34
0.0
100
AcDbRotatedDimension
  0
DIMENSION
  5
598
330
6F
100
AcDbEntity
  8
DXF0
  6
Continuous
 62
     3
100
AcDbDimension
280
     0
  2
*D9
 10
582.7412277196573
 20
67.18180835674647
 30
0.0
 11
595.2412277193302
 21
67.68180835674647
 31
0.0
 71
     5
 42
-1.0
 73
     0
 74
     0
 75
     0
  3
Standard
100
AcDbAlignedDimension
 13
607.7412277190031
 23
120.8948959060991
 33
0.0
 14
582.7412277196573
 24
108.4245292464635
 34
0.0
100
AcDbRotatedDimension
  0
DIMENSION
  5
599
330
6F
100
AcDbEntity
  8
DXF0
  6
Continuous
 62
     3
100
AcDbDimension
280
     0
  2
*D10
 10
607.7412277190031
 20
67.18180835674647
 30
0.0
 11
620.2412277192832
 21
67.68180835674647
 31
0.0
 71
     5
 42
-1.0
 73
     0
 74
     0
 75
     0
  3
Standard
100
AcDbAlignedDimension
 13
632.741227719563
 23
108.4245292464663
 33
0.0
 14
607.7412277190031
 24
120.8948959060991
 34
0.0
100
AcDbRotatedDimension
  0
DIMENSION
  5
59A
330
6F
100
AcDbEntity
  8
DXF0
  6
Continuous
 62
     3
100
AcDbDimension
280
     0
  2
*D11
 10
217.727372124087
 20
269.1680454783311
 30
0.0
 11
242.7273721240399
 21
269.6680454783311
 31
0.0
 71
     5
 42
-1.0
 73
     0
 74
     0
 75
     0
  3
Standard
100
AcDbAlignedDimension
 13
267.7273721239928
 23
258.2840248337743
 33
0.0
 14
217.727372124087
 24
258.2840248337748
 34
0.0
100
AcDbRotatedDimension
  0
DIMENSION
  5
59B
330
6F
100
AcDbEntity
  8
DXF0
  6
Continuous
 62
     3
100
AcDbDimension
280
     0
  2
*D12
 10
582.7412277196573
 20
269.1680454783311
 30
0.0
 11
607.7412277196103
 21
269.6680454783311
 31
0.0
 71
     5
 42
-1.0
 73
     0
 74
     0
 75
     0
  3
Standard
100
AcDbAlignedDimension
 13
632.7412277195632
 23
257.4245292464513
 33
0.0
 14
582.7412277196573
 24
257.4245292464518
 34
0.0
100
AcDbRotatedDimension
  0
DIMENSION
  5
59C
330
6F
100
AcDbEntity
  8
DXF0
  6
Continuous
 62
     3
100
AcDbDimension
280
     0
  2
*D13
 10
188.4331011178252
 20
376.7970166017144
 30
0.0
 11
187.9331011178252
 21
451.7970166017141
 31
0.0
 71
     5
 42
-1.0
 73
     0
 74
     0
 75
     0
  3
Standard
100
AcDbAlignedDimension
 13
217.7273721240869
 23
526.7970166017138
 33
0.0
 14
132.957215493353
 24
376.7970166017144
 34
0.0
 50
90.0
100
AcDbRotatedDimension
  0
DIMENSION
  5
59D
330
6F
100
AcDbEntity
  8
DXF0
  6
Continuous
 62
     3
100
AcDbDimension
280
     0
  2
*D14
 10
199.602050947332
 20
376.7970166017144
 30
0.0
 11
199.102050947332
 21
381.7970166017199
 31
0.0
 71
     5
 42
-1.0
 73
     0
 74
     0
 75
     0
  3
Standard
100
AcDbAlignedDimension
 13
213.3387701986398
 23
386.7970166017254
 33
0.0
 14
132.957215493353
 24
376.7970166017144
 34
0.0
 50
90.0
100
AcDbRotatedDimension
  0
DIMENSION
  5
59E
330
6F
100
AcDbEntity
  8
DXF0
  6
Continuous
 62
     3
100
AcDbDimension
280
     0
  2
*D15
 10
210.1475889760042
 20
376.7970166017144
 30
0.0
 11
209.6475889760042
 21
379.6804673338046
 31
0.0
 71
     5
 42
-1.0
 73
     0
 74
     0
 75
     0
  3
Standard
100
AcDbAlignedDimension
 13
217.7273721238867
 23
377.7970166017262
 33
0.0
 14
132.957215493353
 24
376.7970166017144
 34
0.0
 50
90.0
100
AcDbRotatedDimension
  0
DIMENSION
  5
59F
330
6F
100
AcDbEntity
  8
DXF0
  6
Continuous
 62
     3
100
AcDbDimension
280
     0
  2
*D16
 10
217.727372124087
 20
533.9816242819265
 30
0.0
 11
242.7273721240398
 21
534.4816242819265
 31
0.0
 71
     5
 42
-1.0
 73
     0
 74
     0
 75
     0
  3
Standard
100
AcDbAlignedDimension
 13
267.7273721239928
 23
526.7970166017138
 33
0.0
 14
217.727372124087
 24
526.7970166017143
 34
0.0
100
AcDbRotatedDimension
  0
DIMENSION
  5
5A0
330
6F
100
AcDbEntity
  8
DXF0
  6
Continuous
 62
     3
100
AcDbDimension
280
     0
  2
*D17
 10
217.7273721240869
 20
317.7722844917574
 30
0.0
 11
230.2273721237598
 21
318.2722844917574
 31
0.0
 71
     5
 42
-1.0
 73
     0
 74
     0
 75
     0
  3
Standard
100
AcDbAlignedDimension
 13
242.7273721234328
 23
390.2312783162358
 33
0.0
 14
217.7273721240869
 24
377.7970166017262
 34
0.0
100
AcDbRotatedDimension
  0
DIMENSION
  5
5A1
330
6F
100
AcDbEntity
  8
DXF0
  6
Continuous
 62
     3
100
AcDbDimension
280
     0
  2
*D18
 10
242.7273721234328
 20
317.7722844917574
 30
0.0
 11
255.2273721237128
 21
318.2722844917574
 31
0.0
 71
     5
 42
-1.0
 73
     0
 74
     0
 75
     0
  3
Standard
100
AcDbAlignedDimension
 13
267.7273721239927
 23
377.7970166017289
 33
0.0
 14
242.7273721234328
 24
390.2312783162358
 34
0.0
100
AcDbRotatedDimension
  0
LINE
  5
5A8
330
6F
100
AcDbEntity
  8
COMMENT
  6
Continuous
100
AcDbLine
 10
242.7273721234328
 20
384.1970166017153
 30
0.0
 11
278.5878708238574
 21
410.4275607420552
 31
0.0
  0
LINE
  5
5A9
330
6F
100
AcDbEntity
  8
COMMENT
  6
Continuous
100
AcDbLine
 10
243.9873942923439
 20
385.8620523858541
 30
0.0
 11
242.7273721234328
 21
384.1970166017152
 31
0.0
  0
LINE
  5
5AA
330
6F
100
AcDbEntity
  8
COMMENT
  6
Continuous
100
AcDbLine
 10
242.7273721234328
 20
384.1970166017153
 30
0.0
 11
244.6958507113208
 21
384.8935021203276
 31
0.0
  0
LINE
  5
5AB
330
6F
100
AcDbEntity
  8
COMMENT
  6
Continuous
100
AcDbLine
 10
278.5878708238574
 20
410.4275607420552
 30
0.0
 11
331.8778694648715
 21
410.4275607420552
 31
0.0
  0
TEXT
  5
5AC
330
6F
100
AcDbEntity
  8
COMMENT
  6
Continuous
100
AcDbText
 10
281.0778708238574
 20
410.9275607420552
 30
0.0
 40
4.0
  1
アンカープラグ%%c8×40
  7
KNJYOKO
100
AcDbText
  0
TEXT
  5
5AD
330
6F
100
AcDbEntity
  8
COMMENT
  6
Continuous
100
AcDbText
 10
281.0778708238574
 20
405.9275607420552
 30
0.0
 40
4.0
  1
AP-840-D30-50
100
AcDbText
  0
LINE
  5
5BF
330
6F
100
AcDbEntity
  8
COMMENT
  6
Continuous
100
AcDbLine
 10
607.7412277190031
 20
113.3245292462922
 30
0.0
 11
643.5199196779465
 21
140.9928396905435
 31
0.0
  0
LINE
  5
5C0
330
6F
100
AcDbEntity
  8
COMMENT
  6
Continuous
100
AcDbLine
 10
608.9563012648136
 20
115.0226447626461
 30
0.0
 11
607.7412277190031
 21
113.3245292462921
 31
0.0
  0
LINE
  5
5C1
330
6F
100
AcDbEntity
  8
COMMENT
  6
Continuous
100
AcDbLine
 10
607.7412277190031
 20
113.3245292462922
 30
0.0
 11
609.690389420245
 21
114.0733741508098
 31
0.0
  0
LINE
  5
5C2
330
6F
100
AcDbEntity
  8
COMMENT
  6
Continuous
100
AcDbLine
 10
643.5199196779464
 20
140.9928396905435
 30
0.0
 11
703.1099181520676
 21
140.9928396905435
 31
0.0
  0
TEXT
  5
5C3
330
6F
100
AcDbEntity
  8
COMMENT
  6
Continuous
100
AcDbText
 10
646.0099196779464
 20
141.4928396905435
 30
0.0
 40
4.0
  1
ECPアンカー6×33
  7
KNJYOKO
100
AcDbText
  0
TEXT
  5
5C4
330
6F
100
AcDbEntity
  8
COMMENT
  6
Continuous
100
AcDbText
 10
646.0099196779464
 20
136.4928396905435
 30
0.0
 40
4.0
  1
AK-ECP633-D30-50
100
AcDbText
  0
LINE
  5
5C5
330
6F
100
AcDbEntity
  8
COMMENT
  6
Continuous
100
AcDbLine
 10
617.061200382436
 20
110.9245292464518
 30
0.0
 11
646.3281147231405
 21
126.3338244971366
 31
0.0
  0
LINE
  5
5C6
330
6F
100
AcDbEntity
  8
COMMENT
  6
Continuous
100
AcDbLine
 10
618.5513676335002
 20
112.3871985845
 30
0.0
 11
617.0612003824362
 21
110.9245292464519
 31
0.0
  0
LINE
  5
5C7
330
6F
100
AcDbEntity
  8
COMMENT
  6
Continuous
100
AcDbLine
 10
617.0612003824361
 20
110.9245292464519
 30
0.0
 11
619.1104240621191
 21
111.3253812630831
 31
0.0
  0
LINE
  5
5C8
330
6F
100
AcDbEntity
  8
COMMENT
  6
Continuous
100
AcDbLine
 10
646.3281147231406
 20
126.3338244971367
 30
0.0
 11
684.3181137694662
 21
126.3338244971367
 31
0.0
  0
TEXT
  5
5C9
330
6F
100
AcDbEntity
  8
COMMENT
  6
Continuous
100
AcDbText
 10
648.8181147231406
 20
126.8338244971367
 30
0.0
 40
4.0
  1
平座金　
  7
KNJYOKO
100
AcDbText
  0
TEXT
  5
5CA
330
6F
100
AcDbEntity
  8
COMMENT
  6
Continuous
100
AcDbText
 10
648.8181147231406
 20
121.8338244971367
 30
0.0
 40
4.0
  1
D30mm t2mm
100
AcDbText
  0
LINE
  5
5CB
330
6F
100
AcDbEntity
  8
COMMENT
  6
Continuous
100
AcDbLine
 10
580.2412277190022
 20
117.9227274942003
 30
0.0
 11
547.0944833930705
 21
133.9880936254888
 31
0.0
  0
LINE
  5
5CC
330
6F
100
AcDbEntity
  8
COMMENT
  6
Continuous
100
AcDbLine
 10
578.1797884194259
 20
118.2550948252855
 30
0.0
 11
580.2412277190022
 21
117.9227274942002
 31
0.0
  0
LINE
  5
5CD
330
6F
100
AcDbEntity
  8
COMMENT
  6
Continuous
100
AcDbLine
 10
580.2412277190022
 20
117.9227274942003
 30
0.0
 11
578.7031641132285
 21
119.3349457398
 31
0.0
  0
LINE
  5
5CE
330
6F
100
AcDbEntity
  8
COMMENT
  6
Continuous
100
AcDbLine
 10
547.0944833930705
 20
133.9880936254888
 30
0.0
 11
489.3044848712657
 21
133.9880936254888
 31
0.0
  0
TEXT
  5
5CF
330
6F
100
AcDbEntity
  8
COMMENT
  6
Continuous
100
AcDbText
 10
489.3044848712657
 20
134.4880936254888
 30
0.0
 40
4.0
  1
脱落防止ねじ(両端2ヶ所)
  7
KNJYOKO
100
AcDbText
  0
TEXT
  5
5D0
330
6F
100
AcDbEntity
  8
COMMENT
  6
Continuous
100
AcDbText
 10
489.3044848712657
 20
129.4880936254888
 30
0.0
 40
4.0
  1
トラス頭ドリルねじ4×13
  7
KNJYOKO
100
AcDbText
  0
TEXT
  5
5D1
330
6F
100
AcDbEntity
  8
COMMENT
  6
Continuous
100
AcDbText
 10
489.3044848712657
 20
124.4880936254888
 30
0.0
 40
4.0
  1
TBT-413-100
100
AcDbText
  0
LINE
  5
5D2
330
6F
100
AcDbEntity
  8
COMMENT
  6
Continuous
100
AcDbLine
 10
598.175048048338
 20
107.4245292464515
 30
0.0
 11
582.0624441692465
 21
98.47406048391505
 31
0.0
  0
LINE
  5
5D3
330
6F
100
AcDbEntity
  8
COMMENT
  6
Continuous
100
AcDbLine
 10
582.0624441692465
 20
98.47406048391508
 30
0.0
 11
566.5724445268743
 21
98.47406048391508
 31
0.0
  0
TEXT
  5
5D4
330
6F
100
AcDbEntity
  8
COMMENT
  6
Continuous
100
AcDbText
 10
566.5724445268743
 20
98.97406048391509
 30
0.0
 40
4.0
  1
受け材
  7
KNJYOKO
100
AcDbText
  0
LINE
  5
5D5
330
6F
100
AcDbEntity
  8
COMMENT
  6
Continuous
100
AcDbLine
 10
242.7273721234328
 20
114.1840248336152
 30
0.0
 11
278.506064082376
 21
141.8523352778665
 31
0.0
  0
LINE
  5
5D6
330
6F
100
AcDbEntity
  8
COMMENT
  6
Continuous
100
AcDbLine
 10
243.9424456692432
 20
115.882140349969
 30
0.0
 11
242.7273721234327
 21
114.1840248336151
 31
0.0
  0
LINE
  5
5D7
330
6F
100
AcDbEntity
  8
COMMENT
  6
Continuous
100
AcDbLine
 10
242.7273721234328
 20
114.1840248336151
 30
0.0
 11
244.6765338246747
 21
114.9328697381327
 31
0.0
  0
LINE
  5
5D8
330
6F
100
AcDbEntity
  8
COMMENT
  6
Continuous
100
AcDbLine
 10
278.5060640823759
 20
141.8523352778665
 30
0.0
 11
345.2960623657622
 21
141.8523352778665
 31
0.0
  0
TEXT
  5
5D9
330
6F
100
AcDbEntity
  8
COMMENT
  6
Continuous
100
AcDbText
 10
280.9960640823759
 20
142.3523352778665
 30
0.0
 40
4.0
  1
シンワッシャー頭ドリルねじ4×40
  7
KNJYOKO
100
AcDbText
  0
TEXT
  5
5DA
330
6F
100
AcDbEntity
  8
COMMENT
  6
Continuous
100
AcDbText
 10
280.9960640823759
 20
137.3523352778665
 30
0.0
 40
4.0
  1
TBS-440-D30-50
100
AcDbText
  0
LINE
  5
5DB
330
6F
100
AcDbEntity
  8
COMMENT
  6
Continuous
100
AcDbLine
 10
252.0473447868658
 20
111.7840248337748
 30
0.0
 11
281.3142591275702
 21
127.1933200844596
 31
0.0
  0
LINE
  5
5DC
330
6F
100
AcDbEntity
  8
COMMENT
  6
Continuous
100
AcDbLine
 10
253.53751203793
 20
113.2466941718231
 30
0.0
 11
252.0473447868658
 21
111.7840248337749
 31
0.0
  0
LINE
  5
5DD
330
6F
100
AcDbEntity
  8
COMMENT
  6
Continuous
100
AcDbLine
 10
252.0473447868659
 20
111.7840248337749
 30
0.0
 11
254.0965684665487
 21
112.1848768504061
 31
0.0
  0
LINE
  5
5DE
330
6F
100
AcDbEntity
  8
COMMENT
  6
Continuous
100
AcDbLine
 10
281.3142591275703
 20
127.1933200844597
 30
0.0
 11
319.304258173896
 21
127.1933200844597
 31
0.0
  0
TEXT
  5
5DF
330
6F
100
AcDbEntity
  8
COMMENT
  6
Continuous
100
AcDbText
 10
283.8042591275701
 20
127.6933200844597
 30
0.0
 40
4.0
  1
平座金　
  7
KNJYOKO
100
AcDbText
  0
TEXT
  5
5E0
330
6F
100
AcDbEntity
  8
COMMENT
  6
Continuous
100
AcDbText
 10
283.8042591275701
 20
122.6933200844597
 30
0.0
 40
4.0
  1
D30mm t2mm
100
AcDbText
  0
LINE
  5
5E1
330
6F
100
AcDbEntity
  8
COMMENT
  6
Continuous
100
AcDbLine
 10
223.1611924527676
 20
108.2840248337745
 30
0.0
 11
209.7929092491387
 21
86.10288579333126
 31
0.0
  0
LINE
  5
5E2
330
6F
100
AcDbEntity
  8
COMMENT
  6
Continuous
100
AcDbLine
 10
222.642704261856
 20
106.2613607429045
 30
0.0
 11
223.1611924527676
 21
108.2840248337745
 31
0.0
  0
LINE
  5
5E3
330
6F
100
AcDbEntity
  8
COMMENT
  6
Continuous
100
AcDbLine
 10
223.1611924527676
 20
108.2840248337745
 30
0.0
 11
221.6149330567057
 21
106.8807850436102
 31
0.0
  0
LINE
  5
5E4
330
6F
100
AcDbEntity
  8
COMMENT
  6
Continuous
100
AcDbLine
 10
209.7929092491388
 20
86.10288579333129
 30
0.0
 11
194.3029096067665
 21
86.10288579333129
 31
0.0
  0
TEXT
  5
5E5
330
6F
100
AcDbEntity
  8
COMMENT
  6
Continuous
100
AcDbText
 10
194.3029096067665
 20
86.6028857933313
 30
0.0
 40
4.0
  1
受け材
  7
KNJYOKO
100
AcDbText
  0
LINE
  5
5E6
330
6F
100
AcDbEntity
  8
COMMENT
  6
Continuous
100
AcDbLine
 10
227.7273721234328
 20
61.86591555961336
 30
0.0
 11
202.2584974083888
 21
46.94992644350814
 31
0.0
  0
LINE
  5
5E7
330
6F
100
AcDbEntity
  8
COMMENT
  6
Continuous
100
AcDbLine
 10
226.3047804902857
 20
60.33744145976409
 30
0.0
 11
227.7273721234328
 21
61.86591555961338
 31
0.0
  0
LINE
  5
5E8
330
6F
100
AcDbEntity
  8
COMMENT
  6
Continuous
100
AcDbLine
 10
227.7273721234328
 20
61.86591555961337
 30
0.0
 11
225.6983419786372
 21
61.37292803429343
 31
0.0
  0
LINE
  5
5E9
330
6F
100
AcDbEntity
  8
COMMENT
  6
Continuous
100
AcDbLine
 10
202.2584974083888
 20
46.94992644350812
 30
0.0
 11
167.0574965343463
 21
46.94992644350812
 31
0.0
  0
TEXT
  5
5EA
330
6F
100
AcDbEntity
  8
COMMENT
  6
Continuous
100
AcDbText
 10
167.0574965343463
 20
47.44992644350812
 30
0.0
 40
3.099999904632568
  1
St t=1.6mm以上
  7
KNJYOKO
100
AcDbText
  0
LINE
  5
5F2
330
6F
100
AcDbEntity
  8
COMMENT
  6
Continuous
100
AcDbLine
 10
215.2273721226061
 20
118.7822230815234
 30
0.0
 11
182.0806277966745
 21
134.8475892128119
 31
0.0
  0
LINE
  5
5F3
330
6F
100
AcDbEntity
  8
COMMENT
  6
Continuous
100
AcDbLine
 10
213.1659328230299
 20
119.1145904126086
 30
0.0
 11
215.2273721226061
 21
118.7822230815233
 31
0.0
  0
LINE
  5
5F4
330
6F
100
AcDbEntity
  8
COMMENT
  6
Continuous
100
AcDbLine
 10
215.2273721226061
 20
118.7822230815233
 30
0.0
 11
213.6893085168324
 21
120.194441327123
 31
0.0
  0
LINE
  5
5F5
330
6F
100
AcDbEntity
  8
COMMENT
  6
Continuous
100
AcDbLine
 10
182.0806277966744
 20
134.8475892128119
 30
0.0
 11
124.2906292748696
 21
134.8475892128119
 31
0.0
  0
TEXT
  5
5F6
330
6F
100
AcDbEntity
  8
COMMENT
  6
Continuous
100
AcDbText
 10
124.2906292748696
 20
135.3475892128119
 30
0.0
 40
4.0
  1
脱落防止ねじ(両端2ヶ所)
  7
KNJYOKO
100
AcDbText
  0
TEXT
  5
5F7
330
6F
100
AcDbEntity
  8
COMMENT
  6
Continuous
100
AcDbText
 10
124.2906292748696
 20
130.3475892128119
 30
0.0
 40
4.0
  1
トラス頭ドリルねじ4×13
  7
KNJYOKO
100
AcDbText
  0
TEXT
  5
5F8
330
6F
100
AcDbEntity
  8
COMMENT
  6
Continuous
100
AcDbText
 10
124.2906292748696
 20
125.3475892128119
 30
0.0
 40
4.0
  1
TBT-413-100
100
AcDbText
  0
LINE
  5
5F9
330
6F
100
AcDbEntity
  8
COMMENT
  6
Continuous
100
AcDbLine
 10
215.2273721217753
 20
387.2952148494632
 30
0.0
 11
182.0806277958437
 21
403.3605809807518
 31
0.0
  0
LINE
  5
5FA
330
6F
100
AcDbEntity
  8
COMMENT
  6
Continuous
100
AcDbLine
 10
213.1659328221989
 20
387.6275821805484
 30
0.0
 11
215.2273721217752
 21
387.2952148494631
 31
0.0
  0
LINE
  5
5FB
330
6F
100
AcDbEntity
  8
COMMENT
  6
Continuous
100
AcDbLine
 10
215.2273721217753
 20
387.2952148494632
 30
0.0
 11
213.6893085160016
 21
388.7074330950629
 31
0.0
  0
LINE
  5
5FC
330
6F
100
AcDbEntity
  8
COMMENT
  6
Continuous
100
AcDbLine
 10
182.0806277958437
 20
403.3605809807518
 30
0.0
 11
124.2906292740388
 21
403.3605809807518
 31
0.0
  0
TEXT
  5
5FD
330
6F
100
AcDbEntity
  8
COMMENT
  6
Continuous
100
AcDbText
 10
124.2906292740388
 20
403.8605809807518
 30
0.0
 40
4.0
  1
脱落防止ねじ(両端2ヶ所)
  7
KNJYOKO
100
AcDbText
  0
TEXT
  5
5FE
330
6F
100
AcDbEntity
  8
COMMENT
  6
Continuous
100
AcDbText
 10
124.2906292740388
 20
398.8605809807518
 30
0.0
 40
4.0
  1
トラス頭ドリルねじ4×13
  7
KNJYOKO
100
AcDbText
  0
TEXT
  5
5FF
330
6F
100
AcDbEntity
  8
COMMENT
  6
Continuous
100
AcDbText
 10
124.2906292740388
 20
393.8605809807518
 30
0.0
 40
4.0
  1
TBT-413-100
100
AcDbText
  0
LINE
  5
606
330
6F
100
AcDbEntity
  8
COMMENT
  6
Continuous
100
AcDbLine
 10
632.7412277195628
 20
185.245124185333
 30
0.0
 11
645.2490600617375
 21
192.301029905524
 31
0.0
  0
LINE
  5
607
330
6F
100
AcDbEntity
  8
COMMENT
  6
Continuous
100
AcDbLine
 10
634.188373177452
 20
186.7503716906693
 30
0.0
 11
632.741227719563
 21
185.2451241853331
 31
0.0
  0
LINE
  5
608
330
6F
100
AcDbEntity
  8
COMMENT
  6
Continuous
100
AcDbLine
 10
632.741227719563
 20
185.245124185333
 30
0.0
 11
634.7779716469484
 21
185.7052048335557
 31
0.0
  0
LINE
  5
609
330
6F
100
AcDbEntity
  8
COMMENT
  6
Continuous
100
AcDbLine
 10
645.2490600617375
 20
192.3010299055239
 30
0.0
 11
679.6390592034306
 21
192.3010299055239
 31
0.0
  0
TEXT
  5
60A
330
6F
100
AcDbEntity
  8
COMMENT
  6
Continuous
100
AcDbText
 10
647.7390600617375
 20
192.8010299055239
 30
0.0
 40
4.0
  1
アルミルーバー
  7
KNJYOKO
100
AcDbText
  0
TEXT
  5
60B
330
6F
100
AcDbEntity
  8
COMMENT
  6
Continuous
100
AcDbText
 10
647.7390600617375
 20
187.8010299055239
 30
0.0
 40
4.0
  1
CLKSW-5015
100
AcDbText
  0
LINE
  5
60C
330
6F
100
AcDbEntity
  8
COMMENT
  6
Continuous
100
AcDbLine
 10
267.7273721239927
 20
186.1046197726955
 30
0.0
 11
280.2352044661673
 21
193.1605254928866
 31
0.0
  0
LINE
  5
60D
330
6F
100
AcDbEntity
  8
COMMENT
  6
Continuous
100
AcDbLine
 10
269.1745175818819
 20
187.609867278032
 30
0.0
 11
267.7273721239927
 21
186.1046197726956
 31
0.0
  0
LINE
  5
60E
330
6F
100
AcDbEntity
  8
COMMENT
  6
Continuous
100
AcDbLine
 10
267.7273721239928
 20
186.1046197726956
 30
0.0
 11
269.7641160513782
 21
186.5647004209184
 31
0.0
  0
LINE
  5
60F
330
6F
100
AcDbEntity
  8
COMMENT
  6
Continuous
100
AcDbLine
 10
280.2352044661673
 20
193.1605254928866
 30
0.0
 11
314.6252036078604
 21
193.1605254928866
 31
0.0
  0
TEXT
  5
610
330
6F
100
AcDbEntity
  8
COMMENT
  6
Continuous
100
AcDbText
 10
282.7252044661673
 20
193.6605254928866
 30
0.0
 40
4.0
  1
アルミルーバー
  7
KNJYOKO
100
AcDbText
  0
TEXT
  5
611
330
6F
100
AcDbEntity
  8
COMMENT
  6
Continuous
100
AcDbText
 10
282.7252044661673
 20
188.6605254928866
 30
0.0
 40
4.0
  1
CLKSW-5015
100
AcDbText
  0
LINE
  5
612
330
6F
100
AcDbEntity
  8
COMMENT
  6
Continuous
100
AcDbLine
 10
267.7273721239928
 20
456.9262717293108
 30
0.0
 11
280.2352044661673
 21
463.9821774495016
 31
0.0
  0
LINE
  5
613
330
6F
100
AcDbEntity
  8
COMMENT
  6
Continuous
100
AcDbLine
 10
269.1745175818821
 20
458.4315192346472
 30
0.0
 11
267.727372123993
 21
456.9262717293109
 31
0.0
  0
LINE
  5
614
330
6F
100
AcDbEntity
  8
COMMENT
  6
Continuous
100
AcDbLine
 10
267.7273721239928
 20
456.9262717293108
 30
0.0
 11
269.7641160513782
 21
457.3863523775335
 31
0.0
  0
LINE
  5
615
330
6F
100
AcDbEntity
  8
COMMENT
  6
Continuous
100
AcDbLine
 10
280.2352044661674
 20
463.9821774495017
 30
0.0
 11
314.6252036078605
 21
463.9821774495017
 31
0.0
  0
TEXT
  5
616
330
6F
100
AcDbEntity
  8
COMMENT
  6
Continuous
100
AcDbText
 10
282.7252044661674
 20
464.4821774495018
 30
0.0
 40
4.0
  1
アルミルーバー
  7
KNJYOKO
100
AcDbText
  0
TEXT
  5
617
330
6F
100
AcDbEntity
  8
COMMENT
  6
Continuous
100
AcDbText
 10
282.7252044661674
 20
459.4821774495017
 30
0.0
 40
4.0
  1
CLKSW-5015
100
AcDbText
  0
LINE
  5
618
330
6F
100
AcDbEntity
  8
COMMENT
  6
Continuous
100
AcDbLine
 10
233.1611924527678
 20
376.7970166017144
 30
0.0
 11
216.9595183337613
 21
360.9009761518627
 31
0.0
  0
LINE
  5
619
330
6F
100
AcDbEntity
  8
COMMENT
  6
Continuous
100
AcDbLine
 10
232.1537827047387
 20
374.9680481415746
 30
0.0
 11
233.1611924527679
 21
376.7970166017144
 31
0.0
  0
LINE
  5
61A
330
6F
100
AcDbEntity
  8
COMMENT
  6
Continuous
100
AcDbLine
 10
233.1611924527679
 20
376.7970166017144
 30
0.0
 11
231.3133722968282
 21
375.8246171468022
 31
0.0
  0
LINE
  5
61B
330
6F
100
AcDbEntity
  8
COMMENT
  6
Continuous
100
AcDbLine
 10
216.9595183337613
 20
360.9009761518627
 30
0.0
 11
201.4695186913892
 21
360.9009761518627
 31
0.0
  0
TEXT
  5
61C
330
6F
100
AcDbEntity
  8
COMMENT
  6
Continuous
100
AcDbText
 10
201.4695186913892
 20
361.4009761518627
 30
0.0
 40
4.0
  1
受け材
  7
KNJYOKO
100
AcDbText
  0
LINE
  5
61D
330
6F
100
AcDbEntity
  8
COMMENT
  6
Continuous
100
AcDbLine
 10
252.0473447868658
 20
380.2970166017146
 30
0.0
 11
278.3819580462563
 21
395.7063118523994
 31
0.0
  0
LINE
  5
61E
330
6F
100
AcDbEntity
  8
COMMENT
  6
Continuous
100
AcDbLine
 10
253.4705293237201
 20
381.8249386555739
 30
0.0
 11
252.0473447868658
 21
380.2970166017146
 31
0.0
  0
LINE
  5
61F
330
6F
100
AcDbEntity
  8
COMMENT
  6
Continuous
100
AcDbLine
 10
252.0473447868658
 20
380.2970166017146
 30
0.0
 11
254.0765660461206
 21
380.7892168755851
 31
0.0
  0
LINE
  5
620
330
6F
100
AcDbEntity
  8
COMMENT
  6
Continuous
100
AcDbLine
 10
278.3819580462563
 20
395.7063118523994
 30
0.0
 11
316.371957092582
 21
395.7063118523994
 31
0.0
  0
TEXT
  5
621
330
6F
100
AcDbEntity
  8
COMMENT
  6
Continuous
100
AcDbText
 10
280.8719580462563
 20
396.2063118523994
 30
0.0
 40
4.0
  1
平座金　
  7
KNJYOKO
100
AcDbText
  0
TEXT
  5
622
330
6F
100
AcDbEntity
  8
COMMENT
  6
Continuous
100
AcDbText
 10
280.8719580462563
 20
391.2063118523994
 30
0.0
 40
4.0
  1
D30mm t2mm
100
AcDbText
  0
TEXT
  5
638
330
6F
100
AcDbEntity
  8
COMMENT
  6
Continuous
100
AcDbText
 10
581.6648215319967
 20
419.0938393387601
 30
0.0
 40
6.0
  1
ALC取付不可
  7
KNJYOKO
100
AcDbText
  0
LINE
  5
639
330
6F
100
AcDbEntity
  8
COMMENT
  6
Continuous
100
AcDbLine
 10
577.8979192297756
 20
413.4901959530452
 30
0.0
 11
627.6057618756752
 21
413.4901959530452
 31
0.0
  0
LINE
  5
63A
330
6F
100
AcDbEntity
  8
COMMENT
  6
Continuous
100
AcDbLine
 10
627.6057618756752
 20
413.4901959530452
 30
0.0
 11
627.6057618756752
 21
429.8497782964148
 31
0.0
  0
LINE
  5
63B
330
6F
100
AcDbEntity
  8
COMMENT
  6
Continuous
100
AcDbLine
 10
627.6057618756752
 20
429.8497782964148
 30
0.0
 11
577.8979192297756
 21
429.8497782964148
 31
0.0
  0
LINE
  5
63C
330
6F
100
AcDbEntity
  8
COMMENT
  6
Continuous
100
AcDbLine
 10
577.8979192297756
 20
429.8497782964148
 30
0.0
 11
577.8979192297756
 21
413.4901959530452
 31
0.0
  0
ENDSEC
  0
SECTION
  2
OBJECTS
  0
DICTIONARY
  5
C
330
0
100
AcDbDictionary
281
     1
  3
ACAD_CIP_PREVIOUS_PRODUCT_INFO
350
626
  3
ACAD_COLOR
350
62
  3
ACAD_DETAILVIEWSTYLE
350
69
  3
ACAD_GROUP
350
D
  3
ACAD_LAYOUT
350
61
  3
ACAD_MATERIAL
350
10
  3
ACAD_MLEADERSTYLE
350
65
  3
ACAD_MLINESTYLE
350
5E
  3
ACAD_PLOTSETTINGS
350
60
  3
ACAD_PLOTSTYLENAME
350
E
  3
ACAD_SCALELIST
350
42
  3
ACAD_SECTIONVIEWSTYLE
350
67
  3
ACAD_TABLESTYLE
350
63
  3
ACAD_VISUALSTYLE
350
29
  3
ACDB_RECOMPOSE_DATA
350
660
  3
AcDbVariableDictionary
350
654
  0
DICTIONARY
  5
63E
330
54
100
AcDbDictionary
280
     1
281
     1
  3
ADSK_XREC_LAYER_RECONCILED
360
63F
  0
DICTIONARY
  5
640
330
76
100
AcDbDictionary
280
     1
281
     1
  3
ADSK_XREC_LAYER_RECONCILED
360
641
  0
DICTIONARY
  5
642
330
77
100
AcDbDictionary
280
     1
281
     1
  3
ADSK_XREC_LAYER_RECONCILED
360
643
  0
DICTIONARY
  5
644
330
78
100
AcDbDictionary
280
     1
281
     1
  3
ADSK_XREC_LAYER_RECONCILED
360
645
  0
DICTIONARY
  5
646
330
79
100
AcDbDictionary
280
     1
281
     1
  3
ADSK_XREC_LAYER_RECONCILED
360
647
  0
DICTIONARY
  5
648
330
7A
100
AcDbDictionary
280
     1
281
     1
  3
ADSK_XREC_LAYER_RECONCILED
360
649
  0
DICTIONARY
  5
64A
330
7B
100
AcDbDictionary
280
     1
281
     1
  3
ADSK_XREC_LAYER_RECONCILED
360
64B
  0
DICTIONARY
  5
64C
330
7C
100
AcDbDictionary
280
     1
281
     1
  3
ADSK_XREC_LAYER_RECONCILED
360
64D
  0
DICTIONARY
  5
64E
330
7D
100
AcDbDictionary
280
     1
281
     1
  3
ADSK_XREC_LAYER_RECONCILED
360
64F
  0
DICTIONARY
  5
650
330
7E
100
AcDbDictionary
280
     1
281
     1
  3
ADSK_XREC_LAYER_RECONCILED
360
651
  0
DICTIONARY
  5
652
330
7F
100
AcDbDictionary
280
     1
281
     1
  3
ADSK_XREC_LAYER_RECONCILED
360
653
  0
XRECORD
  5
626
102
{ACAD_REACTORS
330
C
102
}
330
C
100
AcDbXrecord
280
     1
300
ACD
300
2022
300

  0
DICTIONARY
  5
62
102
{ACAD_REACTORS
330
C
102
}
330
C
100
AcDbDictionary
281
     1
  0
DICTIONARY
  5
69
102
{ACAD_REACTORS
330
C
102
}
330
C
100
AcDbDictionary
281
     1
  3
Imperial24
350
6A
  3
Metric50
350
624
  0
DICTIONARY
  5
D
102
{ACAD_REACTORS
330
C
102
}
330
C
100
AcDbDictionary
281
     1
  0
DICTIONARY
  5
61
102
{ACAD_REACTORS
330
C
102
}
330
C
100
AcDbDictionary
281
     1
  3
Model
350
72
  3
レイアウト1
350
6E
  0
DICTIONARY
  5
10
102
{ACAD_REACTORS
330
C
102
}
330
C
100
AcDbDictionary
281
     1
  3
ByBlock
350
19
  3
ByLayer
350
11
  3
Global
350
21
  0
DICTIONARY
  5
65
102
{ACAD_REACTORS
330
C
102
}
330
C
100
AcDbDictionary
281
     1
  3
Standard
350
66
  0
DICTIONARY
  5
5E
102
{ACAD_REACTORS
330
C
102
}
330
C
100
AcDbDictionary
281
     1
  3
Standard
350
5F
  0
DICTIONARY
  5
60
102
{ACAD_REACTORS
330
C
102
}
330
C
100
AcDbDictionary
281
     1
  0
ACDBDICTIONARYWDFLT
  5
E
102
{ACAD_REACTORS
330
C
102
}
330
C
100
AcDbDictionary
281
     1
  3
Normal
350
F
100
AcDbDictionaryWithDefault
340
F
  0
DICTIONARY
  5
42
102
{ACAD_REACTORS
330
C
102
}
330
C
100
AcDbDictionary
281
     1
  3
A0
350
43
  3
A1
350
44
  3
A2
350
45
  3
A3
350
46
  3
A4
350
47
  3
A5
350
48
  3
A6
350
49
  3
A7
350
4A
  3
A8
350
4B
  3
A9
350
4C
  3
B0
350
4D
  3
B1
350
4E
  3
B2
350
4F
  3
B3
350
50
  3
B4
350
51
  3
B5
350
52
  3
B6
350
53
  0
DICTIONARY
  5
67
102
{ACAD_REACTORS
330
C
102
}
330
C
100
AcDbDictionary
281
     1
  3
Imperial24
350
68
  3
Metric50
350
623
  0
DICTIONARY
  5
63
102
{ACAD_REACTORS
330
C
102
}
330
C
100
AcDbDictionary
281
     1
  3
Standard
350
64
  0
DICTIONARY
  5
29
102
{ACAD_REACTORS
330
C
102
}
330
C
100
AcDbDictionary
281
     1
  3
2dWireframe
350
2F
  3
Basic
350
2E
  3
Brighten
350
35
  3
ColorChange
350
39
  3
Conceptual
350
32
  3
Dim
350
34
  3
EdgeColorOff
350
41
  3
Facepattern
350
38
  3
Flat
350
2A
  3
FlatWithEdges
350
2B
  3
Gouraud
350
2C
  3
GouraudWithEdges
350
2D
  3
Hidden
350
31
  3
JitterOff
350
3F
  3
Linepattern
350
37
  3
OverhangOff
350
40
  3
Realistic
350
33
  3
Shaded
350
3E
  3
Shaded with edges
350
3D
  3
Shades of Gray
350
3A
  3
Sketchy
350
3B
  3
Thicken
350
36
  3
Wireframe
350
30
  3
X-Ray
350
3C
  0
XRECORD
  5
660
102
{ACAD_REACTORS
330
C
102
}
330
C
100
AcDbXrecord
280
     1
 90
        1
330
64
  0
DICTIONARY
  5
654
102
{ACAD_REACTORS
330
C
102
}
330
C
100
AcDbDictionary
281
     1
  3
CANNOSCALE
350
65A
  3
CMLEADERSTYLE
350
656
  3
CTABLESTYLE
350
655
  3
CVIEWDETAILSTYLE
350
657
  3
CVIEWSECTIONSTYLE
350
658
  3
LAYEREVAL
350
65C
  3
LAYERNOTIFY
350
65D
  3
LIGHTINGUNITS
350
65B
  3
MSLTSCALE
350
659
  0
XRECORD
  5
63F
102
{ACAD_REACTORS
330
63E
102
}
330
63E
100
AcDbXrecord
280
     1
290
     1
  0
XRECORD
  5
641
102
{ACAD_REACTORS
330
640
102
}
330
640
100
AcDbXrecord
280
     1
290
     1
  0
XRECORD
  5
643
102
{ACAD_REACTORS
330
642
102
}
330
642
100
AcDbXrecord
280
     1
290
     1
  0
XRECORD
  5
645
102
{ACAD_REACTORS
330
644
102
}
330
644
100
AcDbXrecord
280
     1
290
     1
  0
XRECORD
  5
647
102
{ACAD_REACTORS
330
646
102
}
330
646
100
AcDbXrecord
280
     1
290
     1
  0
XRECORD
  5
649
102
{ACAD_REACTORS
330
648
102
}
330
648
100
AcDbXrecord
280
     1
290
     1
  0
XRECORD
  5
64B
102
{ACAD_REACTORS
330
64A
102
}
330
64A
100
AcDbXrecord
280
     1
290
     1
  0
XRECORD
  5
64D
102
{ACAD_REACTORS
330
64C
102
}
330
64C
100
AcDbXrecord
280
     1
290
     1
  0
XRECORD
  5
64F
102
{ACAD_REACTORS
330
64E
102
}
330
64E
100
AcDbXrecord
280
     1
290
     1
  0
XRECORD
  5
651
102
{ACAD_REACTORS
330
650
102
}
330
650
100
AcDbXrecord
280
     1
290
     1
  0
XRECORD
  5
653
102
{ACAD_REACTORS
330
652
102
}
330
652
100
AcDbXrecord
280
     1
290
     1
  0
ACDBDETAILVIEWSTYLE
  5
6A
102
{ACAD_REACTORS
330
69
102
}
330
69
100
AcDbModelDocViewStyle
 70
     0
  3
Imperial24
290
     0
300
Imperial24
 90
        0
100
AcDbDetailViewStyle
 70
     0
 71
     0
 90
        3
 71
     1
340
55
 62
   256
 40
0.24
340
0
 62
   256
 40
0.24
300

 40
0.36
280
     3
 71
     2
340
5C
 90
       25
 62
   256
 71
     3
340
55
 62
   256
 40
0.24
 90
        1
 40
0.75
 90
        1
300
%<\AcVar ViewType \f "%tc1">% %<\AcVar ViewDetailId>%\PSCALE %<\AcVar ViewScale \f "%sn">%
 71
     4
340
5C
 90
       25
 62
   256
340
5C
 90
       25
 62
   256
280
     0
  0
ACDBDETAILVIEWSTYLE
  5
624
102
{ACAD_REACTORS
330
69
102
}
330
69
100
AcDbModelDocViewStyle
 70
     0
  3
Metric50
290
     0
300
Metric50
 90
        0
100
AcDbDetailViewStyle
 70
     0
 71
     0
 90
        3
 71
     1
340
55
 62
   256
 40
5.0
340
0
 62
   256
 40
5.0
300

 40
0.0
280
     1
 71
     2
340
5C
 90
       25
 62
   256
 71
     3
340
55
 62
   256
 40
5.0
 90
        0
 40
15.0
 90
        1
300
%<\AcVar ViewDetailId>% (%<\AcVar ViewScale \f "%sn">%)
 71
     4
340
5C
 90
       25
 62
   256
340
5C
 90
       25
 62
   256
280
     0
  0
LAYOUT
  5
72
102
{ACAD_REACTORS
330
61
102
}
330
61
100
AcDbPlotSettings
  1

  2
RICOH MP C2503 JPN RPCS V2
  4

  6

 40
0.0
 41
0.0
 42
0.0
 43
0.0
 44
0.0
 45
0.0
 46
0.0
 47
0.0
 48
0.0
 49
0.0
140
0.0
141
0.0
142
1.0
143
1.0
 70
  1712
 72
     0
 73
     0
 74
     0
  7

 75
     0
147
1.0
 76
     0
 77
     2
 78
   300
148
0.0
149
0.0
100
AcDbLayout
  1
Model
 70
     1
 71
     0
 10
0.0
 20
0.0
 11
12.0
 21
9.0
 12
0.0
 22
0.0
 32
0.0
 14
0.0
 24
0.0
 34
0.0
 15
0.0
 25
0.0
 35
0.0
146
0.0
 13
0.0
 23
0.0
 33
0.0
 16
1.0
 26
0.0
 36
0.0
 17
0.0
 27
1.0
 37
0.0
 76
     0
330
6F
331
85
  0
LAYOUT
  5
6E
102
{ACAD_REACTORS
330
61
102
}
330
61
100
AcDbPlotSettings
  1

  2
RICOH MP C2503 JPN RPCS V2
  4

  6

 40
0.0
 41
0.0
 42
0.0
 43
0.0
 44
0.0
 45
0.0
 46
0.0
 47
0.0
 48
0.0
 49
0.0
140
0.0
141
0.0
142
1.0
143
1.0
 70
   688
 72
     0
 73
     0
 74
     5
  7

 75
    16
147
1.0
 76
     0
 77
     2
 78
   300
148
0.0
149
0.0
100
AcDbLayout
  1
レイアウト1
 70
     1
 71
     1
 10
0.0
 20
0.0
 11
12.0
 21
9.0
 12
0.0
 22
0.0
 32
0.0
 14
1.000000000000000E+20
 24
1.000000000000000E+20
 34
1.000000000000000E+20
 15
-1.000000000000000E+20
 25
-1.000000000000000E+20
 35
-1.000000000000000E+20
146
0.0
 13
0.0
 23
0.0
 33
0.0
 16
1.0
 26
0.0
 36
0.0
 17
0.0
 27
1.0
 37
0.0
 76
     0
330
6B
  0
MATERIAL
  5
19
102
{ACAD_XDICTIONARY
360
1A
102
}
102
{ACAD_REACTORS
330
10
102
}
330
10
100
AcDbMaterial
  1
ByBlock
 72
     0
 43
0.0208333333333333
 43
0.0
 43
0.0
 43
0.0
 43
0.0
 43
0.0208333333333333
 43
0.0
 43
0.0
 43
0.0
 43
0.0
 43
1.0
 43
0.0
 43
0.0
 43
0.0
 43
0.0
 43
1.0
 77
     0
 47
0.0208333333333333
 47
0.0
 47
0.0
 47
0.0
 47
0.0
 47
0.0208333333333333
 47
0.0
 47
0.0
 47
0.0
 47
0.0
 47
1.0
 47
0.0
 47
0.0
 47
0.0
 47
0.0
 47
1.0
171
     0
 49
0.0208333333333333
 49
0.0
 49
0.0
 49
0.0
 49
0.0
 49
0.0208333333333333
 49
0.0
 49
0.0
 49
0.0
 49
0.0
 49
1.0
 49
0.0
 49
0.0
 49
0.0
 49
0.0
 49
1.0
175
     0
142
0.0208333333333333
142
0.0
142
0.0
142
0.0
142
0.0
142
0.0208333333333333
142
0.0
142
0.0
142
0.0
142
0.0
142
1.0
142
0.0
142
0.0
142
0.0
142
0.0
142
1.0
179
     0
144
0.0208333333333333
144
0.0
144
0.0
144
0.0
144
0.0
144
0.0208333333333333
144
0.0
144
0.0
144
0.0
144
0.0
144
1.0
144
0.0
144
0.0
144
0.0
144
0.0
144
1.0
147
0.0208333333333333
147
0.0
147
0.0
147
0.0
147
0.0
147
0.0208333333333333
147
0.0
147
0.0
147
0.0
147
0.0
147
1.0
147
0.0
147
0.0
147
0.0
147
0.0
147
1.0
  0
MATERIAL
  5
11
102
{ACAD_XDICTIONARY
360
12
102
}
102
{ACAD_REACTORS
330
10
102
}
330
10
100
AcDbMaterial
  1
ByLayer
 72
     0
 43
0.0208333333333333
 43
0.0
 43
0.0
 43
0.0
 43
0.0
 43
0.0208333333333333
 43
0.0
 43
0.0
 43
0.0
 43
0.0
 43
1.0
 43
0.0
 43
0.0
 43
0.0
 43
0.0
 43
1.0
 77
     0
 47
0.0208333333333333
 47
0.0
 47
0.0
 47
0.0
 47
0.0
 47
0.0208333333333333
 47
0.0
 47
0.0
 47
0.0
 47
0.0
 47
1.0
 47
0.0
 47
0.0
 47
0.0
 47
0.0
 47
1.0
171
     0
 49
0.0208333333333333
 49
0.0
 49
0.0
 49
0.0
 49
0.0
 49
0.0208333333333333
 49
0.0
 49
0.0
 49
0.0
 49
0.0
 49
1.0
 49
0.0
 49
0.0
 49
0.0
 49
0.0
 49
1.0
175
     0
142
0.0208333333333333
142
0.0
142
0.0
142
0.0
142
0.0
142
0.0208333333333333
142
0.0
142
0.0
142
0.0
142
0.0
142
1.0
142
0.0
142
0.0
142
0.0
142
0.0
142
1.0
179
     0
144
0.0208333333333333
144
0.0
144
0.0
144
0.0
144
0.0
144
0.0208333333333333
144
0.0
144
0.0
144
0.0
144
0.0
144
1.0
144
0.0
144
0.0
144
0.0
144
0.0
144
1.0
147
0.0208333333333333
147
0.0
147
0.0
147
0.0
147
0.0
147
0.0208333333333333
147
0.0
147
0.0
147
0.0
147
0.0
147
1.0
147
0.0
147
0.0
147
0.0
147
0.0
147
1.0
  0
MATERIAL
  5
21
102
{ACAD_XDICTIONARY
360
22
102
}
102
{ACAD_REACTORS
330
10
102
}
330
10
100
AcDbMaterial
  1
Global
 72
     0
 43
0.0208333333333333
 43
0.0
 43
0.0
 43
0.0
 43
0.0
 43
0.0208333333333333
 43
0.0
 43
0.0
 43
0.0
 43
0.0
 43
1.0
 43
0.0
 43
0.0
 43
0.0
 43
0.0
 43
1.0
 77
     0
 47
0.0208333333333333
 47
0.0
 47
0.0
 47
0.0
 47
0.0
 47
0.0208333333333333
 47
0.0
 47
0.0
 47
0.0
 47
0.0
 47
1.0
 47
0.0
 47
0.0
 47
0.0
 47
0.0
 47
1.0
171
     0
 49
0.0208333333333333
 49
0.0
 49
0.0
 49
0.0
 49
0.0
 49
0.0208333333333333
 49
0.0
 49
0.0
 49
0.0
 49
0.0
 49
1.0
 49
0.0
 49
0.0
 49
0.0
 49
0.0
 49
1.0
175
     0
142
0.0208333333333333
142
0.0
142
0.0
142
0.0
142
0.0
142
0.0208333333333333
142
0.0
142
0.0
142
0.0
142
0.0
142
1.0
142
0.0
142
0.0
142
0.0
142
0.0
142
1.0
179
     0
144
0.0208333333333333
144
0.0
144
0.0
144
0.0
144
0.0
144
0.0208333333333333
144
0.0
144
0.0
144
0.0
144
0.0
144
1.0
144
0.0
144
0.0
144
0.0
144
0.0
144
1.0
147
0.0208333333333333
147
0.0
147
0.0
147
0.0
147
0.0
147
0.0208333333333333
147
0.0
147
0.0
147
0.0
147
0.0
147
1.0
147
0.0
147
0.0
147
0.0
147
0.0
147
1.0
  0
MLEADERSTYLE
  5
66
102
{ACAD_REACTORS
330
65
102
}
330
65
100
AcDbMLeaderStyle
179
     2
170
     2
171
     1
172
     0
 90
        2
 40
0.0
 41
0.0
173
     1
 91
-1056964608
340
5A
 92
       -2
290
     1
 42
0.09
291
     1
 43
0.36
  3
Standard
 44
0.18
300

342
55
174
     1
178
     6
175
     1
176
     0
 93
-1056964608
 45
0.18
292
     0
297
     0
 46
0.18
 94
-1056964608
 47
1.0
 49
1.0
140
1.0
293
     1
141
0.0
294
     1
177
     0
142
1.0
295
     0
296
     0
143
0.125
271
     0
272
     9
273
     9
298
     0
  0
MLINESTYLE
  5
5F
102
{ACAD_REACTORS
330
5E
102
}
330
5E
100
AcDbMlineStyle
  2
STANDARD
 70
     0
  3

 62
   256
 51
90.0
 52
90.0
 71
     2
 49
0.5
 62
   256
  6
BYLAYER
 49
-0.5
 62
   256
  6
BYLAYER
  0
ACDBPLACEHOLDER
  5
F
102
{ACAD_REACTORS
330
E
102
}
330
E
  0
SCALE
  5
43
102
{ACAD_REACTORS
330
42
102
}
330
42
100
AcDbScale
 70
     0
300
1:1
140
1.0
141
1.0
290
     1
  0
SCALE
  5
44
102
{ACAD_REACTORS
330
42
102
}
330
42
100
AcDbScale
 70
     0
300
1/128" = 1'-0"
140
0.0078125
141
12.0
290
     0
  0
SCALE
  5
45
102
{ACAD_REACTORS
330
42
102
}
330
42
100
AcDbScale
 70
     0
300
1/64" = 1'-0"
140
0.015625
141
12.0
290
     0
  0
SCALE
  5
46
102
{ACAD_REACTORS
330
42
102
}
330
42
100
AcDbScale
 70
     0
300
1/32" = 1'-0"
140
0.03125
141
12.0
290
     0
  0
SCALE
  5
47
102
{ACAD_REACTORS
330
42
102
}
330
42
100
AcDbScale
 70
     0
300
1/16" = 1'-0"
140
0.0625
141
12.0
290
     0
  0
SCALE
  5
48
102
{ACAD_REACTORS
330
42
102
}
330
42
100
AcDbScale
 70
     0
300
3/32" = 1'-0"
140
0.09375
141
12.0
290
     0
  0
SCALE
  5
49
102
{ACAD_REACTORS
330
42
102
}
330
42
100
AcDbScale
 70
     0
300
1/8" = 1'-0"
140
0.125
141
12.0
290
     0
  0
SCALE
  5
4A
102
{ACAD_REACTORS
330
42
102
}
330
42
100
AcDbScale
 70
     0
300
3/16" = 1'-0"
140
0.1875
141
12.0
290
     0
  0
SCALE
  5
4B
102
{ACAD_REACTORS
330
42
102
}
330
42
100
AcDbScale
 70
     0
300
1/4" = 1'-0"
140
0.25
141
12.0
290
     0
  0
SCALE
  5
4C
102
{ACAD_REACTORS
330
42
102
}
330
42
100
AcDbScale
 70
     0
300
3/8" = 1'-0"
140
0.375
141
12.0
290
     0
  0
SCALE
  5
4D
102
{ACAD_REACTORS
330
42
102
}
330
42
100
AcDbScale
 70
     0
300
1/2" = 1'-0"
140
0.5
141
12.0
290
     0
  0
SCALE
  5
4E
102
{ACAD_REACTORS
330
42
102
}
330
42
100
AcDbScale
 70
     0
300
3/4" = 1'-0"
140
0.75
141
12.0
290
     0
  0
SCALE
  5
4F
102
{ACAD_REACTORS
330
42
102
}
330
42
100
AcDbScale
 70
     0
300
1" = 1'-0"
140
1.0
141
12.0
290
     0
  0
SCALE
  5
50
102
{ACAD_REACTORS
330
42
102
}
330
42
100
AcDbScale
 70
     0
300
1-1/2" = 1'-0"
140
1.5
141
12.0
290
     0
  0
SCALE
  5
51
102
{ACAD_REACTORS
330
42
102
}
330
42
100
AcDbScale
 70
     0
300
3" = 1'-0"
140
3.0
141
12.0
290
     0
  0
SCALE
  5
52
102
{ACAD_REACTORS
330
42
102
}
330
42
100
AcDbScale
 70
     0
300
6" = 1'-0"
140
6.0
141
12.0
290
     0
  0
SCALE
  5
53
102
{ACAD_REACTORS
330
42
102
}
330
42
100
AcDbScale
 70
     0
300
1'-0" = 1'-0"
140
12.0
141
12.0
290
     0
  0
ACDBSECTIONVIEWSTYLE
  5
68
102
{ACAD_REACTORS
330
67
102
}
330
67
100
AcDbModelDocViewStyle
 70
     0
  3
Imperial24
290
     0
300
Imperial24
 90
        0
100
AcDbSectionViewStyle
 70
     0
 71
     0
 90
       78
 71
     1
340
55
 62
   256
 40
0.24
340
0
340
0
 62
   256
 40
0.24
300
I, O, Q, S, X, Z
 40
0.48
 90
        3
 40
0.18
 90
        1
 71
     2
340
5C
 90
       25
 62
   256
340
5C
 90
       50
 62
   256
 40
0.24
 40
0.0
 40
0.24
 71
     3
340
55
 62
   256
 40
0.24
 90
        1
 40
0.75
 90
        1
300
%<\AcVar ViewType \f "%tc1">% %<\AcVar ViewSectionStartId>%-%<\AcVar ViewSectionEndId>%\PSCALE %<\AcVar ViewScale \f "%sn">%
 71
     4
 62
   256
 62
   257
300
ANSI31
 40
1.0
 90
        0
290
     0
290
     0
 90
        6
 40
0.0
 40
1.570796326794896
 40
0.2617993877991494
 40
1.308996938995747
 40
-0.2617993877991494
 40
1.832595714594046
  0
ACDBSECTIONVIEWSTYLE
  5
623
102
{ACAD_REACTORS
330
67
102
}
330
67
100
AcDbModelDocViewStyle
 70
     0
  3
Metric50
290
     0
300
Metric50
 90
        0
100
AcDbSectionViewStyle
 70
     0
 71
     0
 90
      102
 71
     1
340
55
 62
   256
 40
5.0
340
0
340
0
 62
   256
 40
5.0
300
I, O, Q, S, X, Z
 40
10.0
 90
        0
 40
2.5
 90
        0
 71
     2
340
5C
 90
       25
 62
   256
340
5C
 90
       50
 62
   256
 40
5.0
 40
2.5
 40
5.0
 71
     3
340
55
 62
   256
 40
5.0
 90
        0
 40
15.0
 90
        1
300
%<\AcVar ViewSectionStartId>%-%<\AcVar ViewSectionEndId>% (%<\AcVar ViewScale \f "%sn">%)
 71
     4
 62
   256
 62
   257
300
ANSI31
 40
1.0
 90
        0
290
     0
290
     0
 90
        6
 40
0.0
 40
1.570796326794896
 40
0.2617993877991494
 40
1.308996938995747
 40
-0.2617993877991494
 40
1.832595714594046
  0
TABLESTYLE
  5
64
102
{ACAD_XDICTIONARY
360
65E
102
}
102
{ACAD_REACTORS
330
63
102
}
330
63
100
AcDbTableStyle
280
     0
  3
Standard
 70
     0
 71
     0
 40
0.06
 41
0.06
280
     0
281
     0
  7
STANDARD
140
0.18
170
     2
 62
     0
 63
     7
283
     0
 90
      512
 91
        0
  1

274
    -2
284
     1
 64
     0
275
    -2
285
     1
 65
     0
276
    -2
286
     1
 66
     0
277
    -2
287
     1
 67
     0
278
    -2
288
     1
 68
     0
279
    -2
289
     1
 69
     0
  7
STANDARD
140
0.25
170
     5
 62
     0
 63
     7
283
     0
 90
      512
 91
        0
  1

274
    -2
284
     1
 64
     0
275
    -2
285
     1
 65
     0
276
    -2
286
     1
 66
     0
277
    -2
287
     1
 67
     0
278
    -2
288
     1
 68
     0
279
    -2
289
     1
 69
     0
  7
STANDARD
140
0.18
170
     5
 62
     0
 63
     7
283
     0
 90
      512
 91
        0
  1

274
    -2
284
     1
 64
     0
275
    -2
285
     1
 65
     0
276
    -2
286
     1
 66
     0
277
    -2
287
     1
 67
     0
278
    -2
288
     1
 68
     0
279
    -2
289
     1
 69
     0
  0
VISUALSTYLE
  5
2F
102
{ACAD_REACTORS
330
29
102
}
330
29
100
AcDbVisualStyle
  2
2dWireframe
 70
     4
177
     3
291
     0
 70
    58
 90
        0
176
     1
 90
        2
176
     1
 90
        0
176
     1
 90
        0
176
     1
 40
0.6
176
     1
 40
30.0
176
     1
 62
     7
420
 16777215
176
     1
 90
        1
176
     1
 90
        4
176
     1
 62
     7
176
     1
 62
   257
176
     1
 90
        1
176
     1
 90
        1
176
     1
 40
1.0
176
     1
 90
        0
176
     1
 62
   257
176
     1
 40
1.0
176
     1
 90
        1
176
     1
 90
        6
176
     1
 90
        2
176
     1
 62
     7
176
     1
 90
        5
176
     1
 90
        0
176
     1
 90
        0
176
     1
290
     0
176
     1
 90
        1
176
     1
 40
0.0
176
     1
 90
        0
176
     1
290
     1
176
     1
290
     1
176
     1
290
     0
176
     1
290
     0
176
     1
290
     0
176
     1
290
     0
176
     1
290
     0
176
     1
290
     0
176
     1
290
     0
176
     1
 90
       50
176
     1
 40
0.0
176
     1
 40
1.0
176
     1
 90
        0
176
     1
 62
    18
420
        0
176
     1
 90
       50
176
     1
 90
        3
176
     1
 62
     5
420
      255
176
     1
290
     0
176
     1
 90
       50
176
     1
 90
       50
176
     1
 90
       50
176
     1
290
     0
176
     1
 90
       50
176
     1
 62
   256
176
     0
 40
1.0
176
     0
 90
        2
176
     1
  1
strokes_ogs.tif
176
     1
290
     0
176
     1
 40
1.0
176
     1
 40
1.0
176
     1
  0
VISUALSTYLE
  5
2E
102
{ACAD_REACTORS
330
29
102
}
330
29
100
AcDbVisualStyle
  2
Basic
 70
     7
177
     3
291
     1
 70
    58
 90
        1
176
     1
 90
        0
176
     1
 90
        1
176
     1
 90
        0
176
     1
 40
0.6
176
     1
 40
30.0
176
     1
 62
     7
420
 16777215
176
     1
 90
        0
176
     1
 90
        4
176
     1
 62
     7
176
     1
 62
   257
176
     1
 90
        1
176
     1
 90
        1
176
     1
 40
1.0
176
     1
 90
        8
176
     1
 62
     7
176
     1
 40
1.0
176
     1
 90
        1
176
     1
 90
        6
176
     1
 90
        2
176
     1
 62
     7
176
     1
 90
        5
176
     1
 90
        0
176
     1
 90
        0
176
     1
290
     0
176
     1
 90
        1
176
     1
 40
0.0
176
     1
 90
        0
176
     1
290
     0
176
     1
290
     1
176
     1
290
     1
176
     1
290
     0
176
     1
290
     0
176
     1
290
     0
176
     1
290
     0
176
     1
290
     0
176
     1
290
     0
176
     1
 90
       50
176
     1
 40
0.0
176
     1
 40
1.0
176
     1
 90
        0
176
     1
 62
    18
420
        0
176
     1
 90
       50
176
     1
 90
        3
176
     1
 62
     5
420
      255
176
     1
290
     0
176
     1
 90
       50
176
     1
 90
       50
176
     1
 90
       50
176
     1
290
     0
176
     1
 90
       50
176
     1
 62
   256
176
     0
 40
1.0
176
     0
 90
        2
176
     1
  1
strokes_ogs.tif
176
     1
290
     0
176
     1
 40
1.0
176
     1
 40
1.0
176
     1
  0
VISUALSTYLE
  5
35
102
{ACAD_REACTORS
330
29
102
}
330
29
100
AcDbVisualStyle
  2
Brighten
 70
    12
177
     3
291
     1
 70
    58
 90
        2
176
     1
 90
        2
176
     1
 90
        0
176
     1
 90
        0
176
     1
 40
0.6
176
     1
 40
30.0
176
     1
 62
     7
420
 16777215
176
     1
 90
        1
176
     1
 90
        4
176
     1
 62
     7
176
     1
 62
   257
176
     1
 90
        1
176
     1
 90
        1
176
     1
 40
1.0
176
     1
 90
        8
176
     1
 62
     7
176
     1
 40
1.0
176
     1
 90
        1
176
     1
 90
        6
176
     1
 90
        2
176
     1
 62
     7
176
     1
 90
        5
176
     1
 90
        0
176
     1
 90
        0
176
     1
290
     0
176
     1
 90
        1
176
     1
 40
50.0
176
     1
 90
        0
176
     1
290
     0
176
     1
290
     1
176
     1
290
     1
176
     1
290
     0
176
     1
290
     0
176
     1
290
     0
176
     1
290
     0
176
     1
290
     0
176
     1
290
     0
176
     1
 90
       50
176
     1
 40
0.0
176
     1
 40
1.0
176
     1
 90
        0
176
     1
 62
    18
420
        0
176
     1
 90
       50
176
     1
 90
        3
176
     1
 62
     5
420
      255
176
     1
290
     0
176
     1
 90
       50
176
     1
 90
       50
176
     1
 90
       50
176
     1
290
     0
176
     1
 90
       50
176
     1
 62
   256
176
     0
 40
1.0
176
     0
 90
        2
176
     1
  1
strokes_ogs.tif
176
     1
290
     0
176
     1
 40
1.0
176
     1
 40
1.0
176
     1
  0
VISUALSTYLE
  5
39
102
{ACAD_REACTORS
330
29
102
}
330
29
100
AcDbVisualStyle
  2
ColorChange
 70
    16
177
     3
291
     1
 70
    58
 90
        2
176
     1
 90
        2
176
     1
 90
        3
176
     1
 90
        0
176
     1
 40
0.6
176
     1
 40
30.0
176
     1
 62
     8
420
  8421504
176
     1
 90
        1
176
     1
 90
        4
176
     1
 62
     7
176
     1
 62
   257
176
     1
 90
        1
176
     1
 90
        1
176
     1
 40
1.0
176
     1
 90
        8
176
     1
 62
     8
420
  8421504
176
     1
 40
1.0
176
     1
 90
        1
176
     1
 90
        6
176
     1
 90
        2
176
     1
 62
     7
176
     1
 90
        5
176
     1
 90
        0
176
     1
 90
        0
176
     1
290
     0
176
     1
 90
        1
176
     1
 40
0.0
176
     1
 90
        0
176
     1
290
     0
176
     1
290
     1
176
     1
290
     1
176
     1
290
     0
176
     1
290
     0
176
     1
290
     0
176
     1
290
     0
176
     1
290
     0
176
     1
290
     0
176
     1
 90
       50
176
     1
 40
0.0
176
     1
 40
1.0
176
     1
 90
        0
176
     1
 62
    18
420
        0
176
     1
 90
       50
176
     1
 90
        3
176
     1
 62
     5
420
      255
176
     1
290
     0
176
     1
 90
       50
176
     1
 90
       50
176
     1
 90
       50
176
     1
290
     0
176
     1
 90
       50
176
     1
 62
   256
176
     0
 40
1.0
176
     0
 90
        2
176
     1
  1
strokes_ogs.tif
176
     1
290
     0
176
     1
 40
1.0
176
     1
 40
1.0
176
     1
  0
VISUALSTYLE
  5
32
102
{ACAD_REACTORS
330
29
102
}
330
29
100
AcDbVisualStyle
  2
Conceptual
 70
     9
177
     3
291
     0
 70
    58
 90
        3
176
     1
 90
        2
176
     1
 90
        0
176
     1
 90
        0
176
     1
 40
0.6
176
     1
 40
30.0
176
     1
 62
     7
420
 16777215
176
     1
 90
        2
176
     1
 90
        2
176
     1
 62
     7
176
     1
 62
   257
176
     1
 90
        1
176
     1
 90
        1
176
     1
 40
179.0
176
     1
 90
        8
176
     1
 62
     7
176
     1
 40
1.0
176
     1
 90
        1
176
     1
 90
        6
176
     1
 90
        2
176
     1
 62
     7
176
     1
 90
        3
176
     1
 90
        0
176
     1
 90
        0
176
     1
290
     0
176
     1
 90
        1
176
     1
 40
0.0
176
     1
 90
        0
176
     1
290
     0
176
     1
290
     1
176
     1
290
     1
176
     1
290
     0
176
     1
290
     0
176
     1
290
     0
176
     1
290
     0
176
     1
290
     0
176
     1
290
     0
176
     1
 90
       50
176
     1
 40
0.0
176
     1
 40
1.0
176
     1
 90
        0
176
     1
 62
    18
420
        0
176
     1
 90
       50
176
     1
 90
        3
176
     1
 62
     5
420
      255
176
     1
290
     0
176
     1
 90
       50
176
     1
 90
       50
176
     1
 90
       50
176
     1
290
     0
176
     1
 90
       50
176
     1
 62
   256
176
     0
 40
1.0
176
     0
 90
        2
176
     1
  1
strokes_ogs.tif
176
     1
290
     0
176
     1
 40
1.0
176
     1
 40
1.0
176
     1
  0
VISUALSTYLE
  5
34
102
{ACAD_REACTORS
330
29
102
}
330
29
100
AcDbVisualStyle
  2
Dim
 70
    11
177
     3
291
     1
 70
    58
 90
        2
176
     1
 90
        2
176
     1
 90
        0
176
     1
 90
        0
176
     1
 40
0.6
176
     1
 40
30.0
176
     1
 62
     7
420
 16777215
176
     1
 90
        1
176
     1
 90
        4
176
     1
 62
     7
176
     1
 62
   257
176
     1
 90
        1
176
     1
 90
        1
176
     1
 40
1.0
176
     1
 90
        8
176
     1
 62
     7
176
     1
 40
1.0
176
     1
 90
        1
176
     1
 90
        6
176
     1
 90
        2
176
     1
 62
     7
176
     1
 90
        5
176
     1
 90
        0
176
     1
 90
        0
176
     1
290
     0
176
     1
 90
        1
176
     1
 40
-50.0
176
     1
 90
        0
176
     1
290
     0
176
     1
290
     1
176
     1
290
     1
176
     1
290
     0
176
     1
290
     0
176
     1
290
     0
176
     1
290
     0
176
     1
290
     0
176
     1
290
     0
176
     1
 90
       50
176
     1
 40
0.0
176
     1
 40
1.0
176
     1
 90
        0
176
     1
 62
    18
420
        0
176
     1
 90
       50
176
     1
 90
        3
176
     1
 62
     5
420
      255
176
     1
290
     0
176
     1
 90
       50
176
     1
 90
       50
176
     1
 90
       50
176
     1
290
     0
176
     1
 90
       50
176
     1
 62
   256
176
     0
 40
1.0
176
     0
 90
        2
176
     1
  1
strokes_ogs.tif
176
     1
290
     0
176
     1
 40
1.0
176
     1
 40
1.0
176
     1
  0
VISUALSTYLE
  5
41
102
{ACAD_REACTORS
330
29
102
}
330
29
100
AcDbVisualStyle
  2
EdgeColorOff
 70
    22
177
     3
291
     1
 70
    58
 90
        2
176
     0
 90
        2
176
     0
 90
        0
176
     0
 90
        0
176
     0
 40
0.6
176
     0
 40
30.0
176
     0
 62
     7
420
 16777215
176
     0
 90
        1
176
     0
 90
        4
176
     0
 62
     7
176
     0
 62
   257
176
     0
 90
        1
176
     0
 90
        1
176
     0
 40
1.0
176
     0
 90
        8
176
     2
 62
     7
176
     0
 40
1.0
176
     0
 90
        1
176
     0
 90
        6
176
     0
 90
        2
176
     0
 62
     7
176
     0
 90
        5
176
     0
 90
        0
176
     0
 90
        0
176
     0
290
     0
176
     0
 90
        1
176
     0
 40
0.0
176
     0
 90
        0
176
     0
290
     0
176
     1
290
     1
176
     1
290
     1
176
     1
290
     0
176
     1
290
     0
176
     1
290
     0
176
     1
290
     0
176
     1
290
     0
176
     1
290
     0
176
     1
 90
       50
176
     0
 40
0.0
176
     0
 40
1.0
176
     0
 90
        0
176
     0
 62
    18
420
        0
176
     0
 90
       50
176
     0
 90
        3
176
     0
 62
     5
420
      255
176
     0
290
     0
176
     1
 90
       50
176
     0
 90
       50
176
     0
 90
       50
176
     0
290
     0
176
     1
 90
       50
176
     0
 62
   256
176
     0
 40
1.0
176
     0
 90
        2
176
     0
  1
strokes_ogs.tif
176
     0
290
     0
176
     1
 40
1.0
176
     0
 40
1.0
176
     0
  0
VISUALSTYLE
  5
38
102
{ACAD_REACTORS
330
29
102
}
330
29
100
AcDbVisualStyle
  2
Facepattern
 70
    15
177
     3
291
     1
 70
    58
 90
        2
176
     1
 90
        2
176
     1
 90
        0
176
     1
 90
        0
176
     1
 40
0.6
176
     1
 40
30.0
176
     1
 62
     7
420
 16777215
176
     1
 90
        1
176
     1
 90
        4
176
     1
 62
     7
176
     1
 62
   257
176
     1
 90
        1
176
     1
 90
        1
176
     1
 40
1.0
176
     1
 90
        8
176
     1
 62
     7
176
     1
 40
1.0
176
     1
 90
        1
176
     1
 90
        6
176
     1
 90
        2
176
     1
 62
     7
176
     1
 90
        5
176
     1
 90
        0
176
     1
 90
        0
176
     1
290
     0
176
     1
 90
        1
176
     1
 40
0.0
176
     1
 90
        0
176
     1
290
     0
176
     1
290
     1
176
     1
290
     1
176
     1
290
     0
176
     1
290
     0
176
     1
290
     0
176
     1
290
     0
176
     1
290
     0
176
     1
290
     0
176
     1
 90
       50
176
     1
 40
0.0
176
     1
 40
1.0
176
     1
 90
        0
176
     1
 62
    18
420
        0
176
     1
 90
       50
176
     1
 90
        3
176
     1
 62
     5
420
      255
176
     1
290
     0
176
     1
 90
       50
176
     1
 90
       50
176
     1
 90
       50
176
     1
290
     0
176
     1
 90
       50
176
     1
 62
   256
176
     0
 40
1.0
176
     0
 90
        2
176
     1
  1
strokes_ogs.tif
176
     1
290
     0
176
     1
 40
1.0
176
     1
 40
1.0
176
     1
  0
VISUALSTYLE
  5
2A
102
{ACAD_REACTORS
330
29
102
}
330
29
100
AcDbVisualStyle
  2
Flat
 70
     0
177
     3
291
     1
 70
    58
 90
        2
176
     1
 90
        1
176
     1
 90
        1
176
     1
 90
        2
176
     1
 40
0.6
176
     1
 40
30.0
176
     1
 62
     7
420
 16777215
176
     1
 90
        0
176
     1
 90
        0
176
     1
 62
     7
176
     1
 62
   257
176
     1
 90
        1
176
     1
 90
        1
176
     1
 40
1.0
176
     1
 90
        8
176
     1
 62
     7
176
     1
 40
1.0
176
     1
 90
        1
176
     1
 90
        6
176
     1
 90
        2
176
     1
 62
     7
176
     1
 90
        5
176
     1
 90
        0
176
     1
 90
        0
176
     1
290
     0
176
     1
 90
       13
176
     1
 40
0.0
176
     1
 90
        0
176
     1
290
     0
176
     1
290
     1
176
     1
290
     1
176
     1
290
     0
176
     1
290
     0
176
     1
290
     0
176
     1
290
     0
176
     1
290
     0
176
     1
290
     0
176
     1
 90
       50
176
     1
 40
0.0
176
     1
 40
1.0
176
     1
 90
        0
176
     1
 62
    18
420
        0
176
     1
 90
       50
176
     1
 90
        3
176
     1
 62
     5
420
      255
176
     1
290
     0
176
     1
 90
       50
176
     1
 90
       50
176
     1
 90
       50
176
     1
290
     0
176
     1
 90
       50
176
     1
 62
   256
176
     0
 40
1.0
176
     0
 90
        2
176
     1
  1
strokes_ogs.tif
176
     1
290
     0
176
     1
 40
1.0
176
     1
 40
1.0
176
     1
  0
VISUALSTYLE
  5
2B
102
{ACAD_REACTORS
330
29
102
}
330
29
100
AcDbVisualStyle
  2
FlatWithEdges
 70
     1
177
     3
291
     1
 70
    58
 90
        2
176
     1
 90
        1
176
     1
 90
        1
176
     1
 90
        2
176
     1
 40
0.6
176
     1
 40
30.0
176
     1
 62
     7
420
 16777215
176
     1
 90
        1
176
     1
 90
        0
176
     1
 62
     7
176
     1
 62
   257
176
     1
 90
        1
176
     1
 90
        1
176
     1
 40
1.0
176
     1
 90
        0
176
     1
 62
   257
176
     1
 40
1.0
176
     1
 90
        1
176
     1
 90
        6
176
     1
 90
        2
176
     1
 62
     7
176
     1
 90
        5
176
     1
 90
        0
176
     1
 90
        0
176
     1
290
     0
176
     1
 90
       13
176
     1
 40
0.0
176
     1
 90
        0
176
     1
290
     0
176
     1
290
     1
176
     1
290
     1
176
     1
290
     0
176
     1
290
     0
176
     1
290
     0
176
     1
290
     0
176
     1
290
     0
176
     1
290
     0
176
     1
 90
       50
176
     1
 40
0.0
176
     1
 40
1.0
176
     1
 90
        0
176
     1
 62
    18
420
        0
176
     1
 90
       50
176
     1
 90
        3
176
     1
 62
     5
420
      255
176
     1
290
     0
176
     1
 90
       50
176
     1
 90
       50
176
     1
 90
       50
176
     1
290
     0
176
     1
 90
       50
176
     1
 62
   256
176
     0
 40
1.0
176
     0
 90
        2
176
     1
  1
strokes_ogs.tif
176
     1
290
     0
176
     1
 40
1.0
176
     1
 40
1.0
176
     1
  0
VISUALSTYLE
  5
2C
102
{ACAD_REACTORS
330
29
102
}
330
29
100
AcDbVisualStyle
  2
Gouraud
 70
     2
177
     3
291
     1
 70
    58
 90
        2
176
     1
 90
        2
176
     1
 90
        1
176
     1
 90
        2
176
     1
 40
0.6
176
     1
 40
30.0
176
     1
 62
     7
420
 16777215
176
     1
 90
        0
176
     1
 90
        0
176
     1
 62
     7
176
     1
 62
   257
176
     1
 90
        1
176
     1
 90
        1
176
     1
 40
1.0
176
     1
 90
        0
176
     1
 62
     7
176
     1
 40
1.0
176
     1
 90
        1
176
     1
 90
        6
176
     1
 90
        2
176
     1
 62
     7
176
     1
 90
        5
176
     1
 90
        0
176
     1
 90
        0
176
     1
290
     0
176
     1
 90
       13
176
     1
 40
0.0
176
     1
 90
        0
176
     1
290
     0
176
     1
290
     1
176
     1
290
     1
176
     1
290
     0
176
     1
290
     0
176
     1
290
     0
176
     1
290
     0
176
     1
290
     0
176
     1
290
     0
176
     1
 90
       50
176
     1
 40
0.0
176
     1
 40
1.0
176
     1
 90
        0
176
     1
 62
    18
420
        0
176
     1
 90
       50
176
     1
 90
        3
176
     1
 62
     5
420
      255
176
     1
290
     0
176
     1
 90
       50
176
     1
 90
       50
176
     1
 90
       50
176
     1
290
     0
176
     1
 90
       50
176
     1
 62
   256
176
     0
 40
1.0
176
     0
 90
        2
176
     1
  1
strokes_ogs.tif
176
     1
290
     0
176
     1
 40
1.0
176
     1
 40
1.0
176
     1
  0
VISUALSTYLE
  5
2D
102
{ACAD_REACTORS
330
29
102
}
330
29
100
AcDbVisualStyle
  2
GouraudWithEdges
 70
     3
177
     3
291
     1
 70
    58
 90
        2
176
     1
 90
        2
176
     1
 90
        1
176
     1
 90
        2
176
     1
 40
0.6
176
     1
 40
30.0
176
     1
 62
     7
420
 16777215
176
     1
 90
        1
176
     1
 90
        0
176
     1
 62
     7
176
     1
 62
   257
176
     1
 90
        1
176
     1
 90
        1
176
     1
 40
1.0
176
     1
 90
        0
176
     1
 62
   257
176
     1
 40
1.0
176
     1
 90
        1
176
     1
 90
        6
176
     1
 90
        2
176
     1
 62
     7
176
     1
 90
        5
176
     1
 90
        0
176
     1
 90
        0
176
     1
290
     0
176
     1
 90
       13
176
     1
 40
0.0
176
     1
 90
        0
176
     1
290
     0
176
     1
290
     1
176
     1
290
     1
176
     1
290
     0
176
     1
290
     0
176
     1
290
     0
176
     1
290
     0
176
     1
290
     0
176
     1
290
     0
176
     1
 90
       50
176
     1
 40
0.0
176
     1
 40
1.0
176
     1
 90
        0
176
     1
 62
    18
420
        0
176
     1
 90
       50
176
     1
 90
        3
176
     1
 62
     5
420
      255
176
     1
290
     0
176
     1
 90
       50
176
     1
 90
       50
176
     1
 90
       50
176
     1
290
     0
176
     1
 90
       50
176
     1
 62
   256
176
     0
 40
1.0
176
     0
 90
        2
176
     1
  1
strokes_ogs.tif
176
     1
290
     0
176
     1
 40
1.0
176
     1
 40
1.0
176
     1
  0
VISUALSTYLE
  5
31
102
{ACAD_REACTORS
330
29
102
}
330
29
100
AcDbVisualStyle
  2
Hidden
 70
     6
177
     3
291
     0
 70
    58
 90
        1
176
     1
 90
        2
176
     1
 90
        2
176
     1
 90
        0
176
     1
 40
0.6
176
     1
 40
30.0
176
     1
 62
     7
420
 16777215
176
     1
 90
        2
176
     1
 90
        2
176
     1
 62
     7
176
     1
 62
   257
176
     1
 90
        2
176
     1
 90
        1
176
     1
 40
40.0
176
     1
 90
        0
176
     1
 62
   257
176
     1
 40
1.0
176
     1
 90
        1
176
     1
 90
        6
176
     1
 90
        2
176
     1
 62
     7
176
     1
 90
        3
176
     1
 90
        0
176
     1
 90
        0
176
     1
290
     0
176
     1
 90
        1
176
     1
 40
0.0
176
     1
 90
        0
176
     1
290
     0
176
     1
290
     1
176
     1
290
     1
176
     1
290
     0
176
     1
290
     0
176
     1
290
     0
176
     1
290
     0
176
     1
290
     0
176
     1
290
     0
176
     1
 90
       50
176
     1
 40
0.0
176
     1
 40
1.0
176
     1
 90
        0
176
     1
 62
    18
420
        0
176
     1
 90
       50
176
     1
 90
        3
176
     1
 62
     5
420
      255
176
     1
290
     0
176
     1
 90
       50
176
     1
 90
       50
176
     1
 90
       50
176
     1
290
     0
176
     1
 90
       50
176
     1
 62
   256
176
     0
 40
1.0
176
     0
 90
        2
176
     1
  1
strokes_ogs.tif
176
     1
290
     0
176
     1
 40
1.0
176
     1
 40
1.0
176
     1
  0
VISUALSTYLE
  5
3F
102
{ACAD_REACTORS
330
29
102
}
330
29
100
AcDbVisualStyle
  2
JitterOff
 70
    20
177
     3
291
     1
 70
    58
 90
        2
176
     0
 90
        2
176
     0
 90
        0
176
     0
 90
        0
176
     0
 40
0.6
176
     0
 40
30.0
176
     0
 62
     7
420
 16777215
176
     0
 90
        1
176
     0
 90
        4
176
     0
 62
     7
176
     0
 62
   257
176
     0
 90
        1
176
     0
 90
        1
176
     0
 40
1.0
176
     0
 90
       10
176
     2
 62
     7
176
     0
 40
1.0
176
     0
 90
        1
176
     0
 90
        6
176
     0
 90
        2
176
     0
 62
     7
176
     0
 90
        5
176
     0
 90
        0
176
     0
 90
        0
176
     0
290
     0
176
     0
 90
        1
176
     0
 40
0.0
176
     0
 90
        0
176
     0
290
     0
176
     1
290
     1
176
     1
290
     1
176
     1
290
     0
176
     1
290
     0
176
     1
290
     0
176
     1
290
     0
176
     1
290
     0
176
     1
290
     0
176
     1
 90
       50
176
     0
 40
0.0
176
     0
 40
1.0
176
     0
 90
        0
176
     0
 62
    18
420
        0
176
     0
 90
       50
176
     0
 90
        3
176
     0
 62
     5
420
      255
176
     0
290
     0
176
     1
 90
       50
176
     0
 90
       50
176
     0
 90
       50
176
     0
290
     0
176
     1
 90
       50
176
     0
 62
   256
176
     0
 40
1.0
176
     0
 90
        2
176
     0
  1
strokes_ogs.tif
176
     0
290
     0
176
     1
 40
1.0
176
     0
 40
1.0
176
     0
  0
VISUALSTYLE
  5
37
102
{ACAD_REACTORS
330
29
102
}
330
29
100
AcDbVisualStyle
  2
Linepattern
 70
    14
177
     3
291
     1
 70
    58
 90
        2
176
     1
 90
        2
176
     1
 90
        0
176
     1
 90
        0
176
     1
 40
0.6
176
     1
 40
30.0
176
     1
 62
     7
420
 16777215
176
     1
 90
        1
176
     1
 90
        4
176
     1
 62
     7
176
     1
 62
   257
176
     1
 90
        7
176
     1
 90
        7
176
     1
 40
1.0
176
     1
 90
        8
176
     1
 62
     7
176
     1
 40
1.0
176
     1
 90
        1
176
     1
 90
        6
176
     1
 90
        2
176
     1
 62
     7
176
     1
 90
        5
176
     1
 90
        0
176
     1
 90
        0
176
     1
290
     0
176
     1
 90
        1
176
     1
 40
0.0
176
     1
 90
        0
176
     1
290
     0
176
     1
290
     1
176
     1
290
     1
176
     1
290
     0
176
     1
290
     0
176
     1
290
     0
176
     1
290
     0
176
     1
290
     0
176
     1
290
     0
176
     1
 90
       50
176
     1
 40
0.0
176
     1
 40
1.0
176
     1
 90
        0
176
     1
 62
    18
420
        0
176
     1
 90
       50
176
     1
 90
        3
176
     1
 62
     5
420
      255
176
     1
290
     0
176
     1
 90
       50
176
     1
 90
       50
176
     1
 90
       50
176
     1
290
     0
176
     1
 90
       50
176
     1
 62
   256
176
     0
 40
1.0
176
     0
 90
        2
176
     1
  1
strokes_ogs.tif
176
     1
290
     0
176
     1
 40
1.0
176
     1
 40
1.0
176
     1
  0
VISUALSTYLE
  5
40
102
{ACAD_REACTORS
330
29
102
}
330
29
100
AcDbVisualStyle
  2
OverhangOff
 70
    21
177
     3
291
     1
 70
    58
 90
        2
176
     0
 90
        2
176
     0
 90
        0
176
     0
 90
        0
176
     0
 40
0.6
176
     0
 40
30.0
176
     0
 62
     7
420
 16777215
176
     0
 90
        1
176
     0
 90
        4
176
     0
 62
     7
176
     0
 62
   257
176
     0
 90
        1
176
     0
 90
        1
176
     0
 40
1.0
176
     0
 90
        9
176
     2
 62
     7
176
     0
 40
1.0
176
     0
 90
        1
176
     0
 90
        6
176
     0
 90
        2
176
     0
 62
     7
176
     0
 90
        5
176
     0
 90
        0
176
     0
 90
        0
176
     0
290
     0
176
     0
 90
        1
176
     0
 40
0.0
176
     0
 90
        0
176
     0
290
     0
176
     1
290
     1
176
     1
290
     1
176
     1
290
     0
176
     1
290
     0
176
     1
290
     0
176
     1
290
     0
176
     1
290
     0
176
     1
290
     0
176
     1
 90
       50
176
     0
 40
0.0
176
     0
 40
1.0
176
     0
 90
        0
176
     0
 62
    18
420
        0
176
     0
 90
       50
176
     0
 90
        3
176
     0
 62
     5
420
      255
176
     0
290
     0
176
     1
 90
       50
176
     0
 90
       50
176
     0
 90
       50
176
     0
290
     0
176
     1
 90
       50
176
     0
 62
   256
176
     0
 40
1.0
176
     0
 90
        2
176
     0
  1
strokes_ogs.tif
176
     0
290
     0
176
     1
 40
1.0
176
     0
 40
1.0
176
     0
  0
VISUALSTYLE
  5
33
102
{ACAD_REACTORS
330
29
102
}
330
29
100
AcDbVisualStyle
  2
Realistic
 70
     8
177
     3
291
     0
 70
    58
 90
        2
176
     1
 90
        3
176
     1
 90
        0
176
     1
 90
        2
176
     1
 40
0.6
176
     1
 40
30.0
176
     1
 62
     7
420
 16777215
176
     1
 90
        0
176
     1
 90
        0
176
     1
 62
     7
176
     1
 62
   257
176
     1
 90
        1
176
     1
 90
        1
176
     1
 40
1.0
176
     1
 90
        8
176
     1
 62
   257
176
     1
 40
1.0
176
     1
 90
        1
176
     1
 90
        6
176
     1
 90
        2
176
     1
 62
     7
176
     1
 90
        3
176
     1
 90
        0
176
     1
 90
        0
176
     1
290
     0
176
     1
 90
       13
176
     1
 40
0.0
176
     1
 90
        0
176
     1
290
     0
176
     1
290
     1
176
     1
290
     1
176
     1
290
     0
176
     1
290
     0
176
     1
290
     0
176
     1
290
     0
176
     1
290
     0
176
     1
290
     0
176
     1
 90
       50
176
     1
 40
0.0
176
     1
 40
1.0
176
     1
 90
        0
176
     1
 62
    18
420
        0
176
     1
 90
       50
176
     1
 90
        3
176
     1
 62
     5
420
      255
176
     1
290
     0
176
     1
 90
       50
176
     1
 90
       50
176
     1
 90
       50
176
     1
290
     0
176
     1
 90
       50
176
     1
 62
   256
176
     0
 40
1.0
176
     0
 90
        2
176
     1
  1
strokes_ogs.tif
176
     1
290
     0
176
     1
 40
1.0
176
     1
 40
1.0
176
     1
  0
VISUALSTYLE
  5
3E
102
{ACAD_REACTORS
330
29
102
}
330
29
100
AcDbVisualStyle
  2
Shaded
 70
    27
177
     3
291
     0
 70
    58
 90
        2
176
     1
 90
        2
176
     1
 90
        1
176
     1
 90
        2
176
     1
 40
0.6
176
     1
 40
30.0
176
     1
 62
     7
420
 16777215
176
     1
 90
        0
176
     1
 90
        4
176
     1
 62
     7
176
     1
 62
   257
176
     1
 90
        1
176
     1
 90
        1
176
     1
 40
1.0
176
     1
 90
        8
176
     1
 62
   257
176
     1
 40
1.0
176
     1
 90
        1
176
     1
 90
        6
176
     1
 90
        2
176
     1
 62
     8
420
  7895160
176
     1
 90
        3
176
     1
 90
        0
176
     1
 90
        0
176
     1
290
     0
176
     1
 90
        5
176
     1
 40
0.0
176
     1
 90
        0
176
     1
290
     0
176
     1
290
     1
176
     1
290
     1
176
     1
290
     0
176
     1
290
     0
176
     1
290
     0
176
     1
290
     0
176
     1
290
     0
176
     1
290
     0
176
     1
 90
       50
176
     1
 40
0.0
176
     1
 40
1.0
176
     1
 90
        0
176
     1
 62
    18
420
        0
176
     1
 90
       50
176
     1
 90
        3
176
     1
 62
     5
420
      255
176
     1
290
     0
176
     1
 90
       50
176
     1
 90
       50
176
     1
 90
       50
176
     1
290
     0
176
     1
 90
       50
176
     1
 62
   256
176
     0
 40
1.0
176
     0
 90
        2
176
     1
  1
strokes_ogs.tif
176
     1
290
     0
176
     1
 40
1.0
176
     1
 40
1.0
176
     1
  0
VISUALSTYLE
  5
3D
102
{ACAD_REACTORS
330
29
102
}
330
29
100
AcDbVisualStyle
  2
Shaded with edges
 70
    26
177
     3
291
     0
 70
    58
 90
        2
176
     1
 90
        2
176
     1
 90
        1
176
     1
 90
        2
176
     1
 40
0.6
176
     1
 40
30.0
176
     1
 62
     7
420
 16777215
176
     1
 90
        1
176
     1
 90
        2
176
     1
 62
     7
176
     1
 62
   257
176
     1
 90
        2
176
     1
 90
        1
176
     1
 40
1.0
176
     1
 90
        8
176
     1
 62
   257
176
     1
 40
1.0
176
     1
 90
        1
176
     1
 90
        6
176
     1
 90
        2
176
     1
 62
     7
176
     1
 90
        3
176
     1
 90
        0
176
     1
 90
        0
176
     1
290
     0
176
     1
 90
        5
176
     1
 40
0.0
176
     1
 90
        0
176
     1
290
     0
176
     1
290
     1
176
     1
290
     1
176
     1
290
     0
176
     1
290
     0
176
     1
290
     0
176
     1
290
     0
176
     1
290
     0
176
     1
290
     0
176
     1
 90
       50
176
     1
 40
0.0
176
     1
 40
1.0
176
     1
 90
        0
176
     1
 62
    18
420
        0
176
     1
 90
       50
176
     1
 90
        3
176
     1
 62
     5
420
      255
176
     1
290
     0
176
     1
 90
       50
176
     1
 90
       50
176
     1
 90
       50
176
     1
290
     0
176
     1
 90
       50
176
     1
 62
   256
176
     0
 40
1.0
176
     0
 90
        2
176
     1
  1
strokes_ogs.tif
176
     1
290
     0
176
     1
 40
1.0
176
     1
 40
1.0
176
     1
  0
VISUALSTYLE
  5
3A
102
{ACAD_REACTORS
330
29
102
}
330
29
100
AcDbVisualStyle
  2
Shades of Gray
 70
    23
177
     3
291
     0
 70
    58
 90
        2
176
     1
 90
        2
176
     1
 90
        3
176
     1
 90
        0
176
     1
 40
0.6
176
     1
 40
30.0
176
     1
 62
     7
420
 16777215
176
     1
 90
        2
176
     1
 90
        2
176
     1
 62
     7
176
     1
 62
     7
176
     1
 90
        1
176
     1
 90
        1
176
     1
 40
40.0
176
     1
 90
        8
176
     1
 62
     7
176
     1
 40
1.0
176
     1
 90
        1
176
     1
 90
        6
176
     1
 90
        2
176
     1
 62
     7
176
     1
 90
        3
176
     1
 90
        0
176
     1
 90
        0
176
     1
290
     0
176
     1
 90
        1
176
     1
 40
0.0
176
     1
 90
        0
176
     1
290
     0
176
     1
290
     1
176
     1
290
     1
176
     1
290
     0
176
     1
290
     0
176
     1
290
     0
176
     1
290
     0
176
     1
290
     0
176
     1
290
     0
176
     1
 90
       50
176
     1
 40
0.0
176
     1
 40
1.0
176
     1
 90
        0
176
     1
 62
    18
420
        0
176
     1
 90
       50
176
     1
 90
        3
176
     1
 62
     5
420
      255
176
     1
290
     0
176
     1
 90
       50
176
     1
 90
       50
176
     1
 90
       50
176
     1
290
     0
176
     1
 90
       50
176
     1
 62
   256
176
     0
 40
1.0
176
     0
 90
        2
176
     1
  1
strokes_ogs.tif
176
     1
290
     0
176
     1
 40
1.0
176
     1
 40
1.0
176
     1
  0
VISUALSTYLE
  5
3B
102
{ACAD_REACTORS
330
29
102
}
330
29
100
AcDbVisualStyle
  2
Sketchy
 70
    24
177
     3
291
     0
 70
    58
 90
        1
176
     1
 90
        2
176
     1
 90
        2
176
     1
 90
        0
176
     1
 40
0.6
176
     1
 40
30.0
176
     1
 62
     7
420
 16777215
176
     1
 90
        2
176
     1
 90
        2
176
     1
 62
     7
176
     1
 62
     7
176
     1
 90
        1
176
     1
 90
        1
176
     1
 40
40.0
176
     1
 90
       11
176
     1
 62
     7
176
     1
 40
1.0
176
     1
 90
        1
176
     1
 90
        6
176
     1
 90
        2
176
     1
 62
     7
176
     1
 90
        6
176
     1
 90
        0
176
     1
 90
        0
176
     1
290
     0
176
     1
 90
        1
176
     1
 40
0.0
176
     1
 90
        0
176
     1
290
     0
176
     1
290
     1
176
     1
290
     1
176
     1
290
     0
176
     1
290
     0
176
     1
290
     0
176
     1
290
     0
176
     1
290
     0
176
     1
290
     0
176
     1
 90
       50
176
     1
 40
0.0
176
     1
 40
1.0
176
     1
 90
        0
176
     1
 62
    18
420
        0
176
     1
 90
       50
176
     1
 90
        3
176
     1
 62
     5
420
      255
176
     1
290
     0
176
     1
 90
       50
176
     1
 90
       50
176
     1
 90
       50
176
     1
290
     0
176
     1
 90
       50
176
     1
 62
   256
176
     0
 40
1.0
176
     0
 90
        2
176
     1
  1
strokes_ogs.tif
176
     1
290
     0
176
     1
 40
1.0
176
     1
 40
1.0
176
     1
  0
VISUALSTYLE
  5
36
102
{ACAD_REACTORS
330
29
102
}
330
29
100
AcDbVisualStyle
  2
Thicken
 70
    13
177
     3
291
     1
 70
    58
 90
        2
176
     1
 90
        2
176
     1
 90
        0
176
     1
 90
        0
176
     1
 40
0.6
176
     1
 40
30.0
176
     1
 62
     7
420
 16777215
176
     1
 90
        1
176
     1
 90
        4
176
     1
 62
     7
176
     1
 62
   257
176
     1
 90
        1
176
     1
 90
        1
176
     1
 40
1.0
176
     1
 90
       12
176
     1
 62
     7
176
     1
 40
1.0
176
     1
 90
        1
176
     1
 90
        6
176
     1
 90
        2
176
     1
 62
     7
176
     1
 90
        5
176
     1
 90
        0
176
     1
 90
        0
176
     1
290
     0
176
     1
 90
        1
176
     1
 40
0.0
176
     1
 90
        0
176
     1
290
     0
176
     1
290
     1
176
     1
290
     1
176
     1
290
     0
176
     1
290
     0
176
     1
290
     0
176
     1
290
     0
176
     1
290
     0
176
     1
290
     0
176
     1
 90
       50
176
     1
 40
0.0
176
     1
 40
1.0
176
     1
 90
        0
176
     1
 62
    18
420
        0
176
     1
 90
       50
176
     1
 90
        3
176
     1
 62
     5
420
      255
176
     1
290
     0
176
     1
 90
       50
176
     1
 90
       50
176
     1
 90
       50
176
     1
290
     0
176
     1
 90
       50
176
     1
 62
   256
176
     0
 40
1.0
176
     0
 90
        2
176
     1
  1
strokes_ogs.tif
176
     1
290
     0
176
     1
 40
1.0
176
     1
 40
1.0
176
     1
  0
VISUALSTYLE
  5
30
102
{ACAD_REACTORS
330
29
102
}
330
29
100
AcDbVisualStyle
  2
Wireframe
 70
     5
177
     3
291
     0
 70
    58
 90
        0
176
     1
 90
        2
176
     1
 90
        0
176
     1
 90
        0
176
     1
 40
0.6
176
     1
 40
30.0
176
     1
 62
     7
420
 16777215
176
     1
 90
        1
176
     1
 90
        4
176
     1
 62
     7
176
     1
 62
   257
176
     1
 90
        1
176
     1
 90
        1
176
     1
 40
1.0
176
     1
 90
        0
176
     1
 62
   257
176
     1
 40
1.0
176
     1
 90
        1
176
     1
 90
        6
176
     1
 90
        2
176
     1
 62
     7
176
     1
 90
        3
176
     1
 90
        0
176
     1
 90
        0
176
     1
290
     0
176
     1
 90
        1
176
     1
 40
0.0
176
     1
 90
        0
176
     1
290
     0
176
     1
290
     1
176
     1
290
     1
176
     1
290
     0
176
     1
290
     0
176
     1
290
     0
176
     1
290
     0
176
     1
290
     0
176
     1
290
     0
176
     1
 90
       50
176
     1
 40
0.0
176
     1
 40
1.0
176
     1
 90
        0
176
     1
 62
    18
420
        0
176
     1
 90
       50
176
     1
 90
        3
176
     1
 62
     5
420
      255
176
     1
290
     0
176
     1
 90
       50
176
     1
 90
       50
176
     1
 90
       50
176
     1
290
     0
176
     1
 90
       50
176
     1
 62
   256
176
     0
 40
1.0
176
     0
 90
        2
176
     1
  1
strokes_ogs.tif
176
     1
290
     0
176
     1
 40
1.0
176
     1
 40
1.0
176
     1
  0
VISUALSTYLE
  5
3C
102
{ACAD_REACTORS
330
29
102
}
330
29
100
AcDbVisualStyle
  2
X-Ray
 70
    25
177
     3
291
     0
 70
    58
 90
        2
176
     1
 90
        2
176
     1
 90
        1
176
     1
 90
        1
176
     1
 40
0.5
176
     1
 40
30.0
176
     1
 62
     7
420
 16777215
176
     1
 90
        1
176
     1
 90
        0
176
     1
 62
     7
176
     1
 62
   257
176
     1
 90
        1
176
     1
 90
        1
176
     1
 40
1.0
176
     1
 90
        8
176
     1
 62
     7
176
     1
 40
1.0
176
     1
 90
        1
176
     1
 90
        6
176
     1
 90
        2
176
     1
 62
     7
176
     1
 90
        3
176
     1
 90
        0
176
     1
 90
        0
176
     1
290
     0
176
     1
 90
       13
176
     1
 40
0.0
176
     1
 90
        0
176
     1
290
     0
176
     1
290
     1
176
     1
290
     1
176
     1
290
     0
176
     1
290
     0
176
     1
290
     0
176
     1
290
     0
176
     1
290
     0
176
     1
290
     0
176
     1
 90
       50
176
     1
 40
0.0
176
     1
 40
1.0
176
     1
 90
        0
176
     1
 62
    18
420
        0
176
     1
 90
       50
176
     1
 90
        3
176
     1
 62
     5
420
      255
176
     1
290
     0
176
     1
 90
       50
176
     1
 90
       50
176
     1
 90
       50
176
     1
290
     0
176
     1
 90
       50
176
     1
 62
   256
176
     0
 40
1.0
176
     0
 90
        2
176
     1
  1
strokes_ogs.tif
176
     1
290
     0
176
     1
 40
1.0
176
     1
 40
1.0
176
     1
  0
DICTIONARYVAR
  5
65A
102
{ACAD_REACTORS
330
654
102
}
330
654
100
DictionaryVariables
280
     0
  1
1:1
  0
DICTIONARYVAR
  5
656
102
{ACAD_REACTORS
330
654
102
}
330
654
100
DictionaryVariables
280
     0
  1
STANDARD
  0
DICTIONARYVAR
  5
655
102
{ACAD_REACTORS
330
654
102
}
330
654
100
DictionaryVariables
280
     0
  1
STANDARD
  0
DICTIONARYVAR
  5
657
102
{ACAD_REACTORS
330
654
102
}
330
654
100
DictionaryVariables
280
     0
  1
Imperial24
  0
DICTIONARYVAR
  5
658
102
{ACAD_REACTORS
330
654
102
}
330
654
100
DictionaryVariables
280
     0
  1
Imperial24
  0
DICTIONARYVAR
  5
65C
102
{ACAD_REACTORS
330
654
102
}
330
654
100
DictionaryVariables
280
     0
  1
1
  0
DICTIONARYVAR
  5
65D
102
{ACAD_REACTORS
330
654
102
}
330
654
100
DictionaryVariables
280
     0
  1
15
  0
DICTIONARYVAR
  5
65B
102
{ACAD_REACTORS
330
654
102
}
330
654
100
DictionaryVariables
280
     0
  1
0
  0
DICTIONARYVAR
  5
659
102
{ACAD_REACTORS
330
654
102
}
330
654
100
DictionaryVariables
280
     0
  1
0
  0
DICTIONARY
  5
1A
330
19
100
AcDbDictionary
280
     1
281
     1
  3
BUMPTILE
360
1C
  3
DIFFUSETILE
360
1B
  3
OPACITYTILE
360
1F
  3
REFLECTIONTILE
360
1E
  3
REFRACTIONTILE
360
20
  3
SPECULARTILE
360
1D
  0
DICTIONARY
  5
12
330
11
100
AcDbDictionary
280
     1
281
     1
  3
BUMPTILE
360
14
  3
DIFFUSETILE
360
13
  3
OPACITYTILE
360
17
  3
REFLECTIONTILE
360
16
  3
REFRACTIONTILE
360
18
  3
SPECULARTILE
360
15
  0
DICTIONARY
  5
22
330
21
100
AcDbDictionary
280
     1
281
     1
  3
BUMPTILE
360
24
  3
DIFFUSETILE
360
23
  3
OPACITYTILE
360
27
  3
REFLECTIONTILE
360
26
  3
REFRACTIONTILE
360
28
  3
SPECULARTILE
360
25
  0
DICTIONARY
  5
65E
330
64
100
AcDbDictionary
280
     1
281
     1
  3
ACAD_ROUNDTRIP_2008_TABLESTYLE_CELLSTYLEMAP
360
65F
  0
XRECORD
  5
1C
102
{ACAD_REACTORS
330
1A
102
}
330
1A
100
AcDbXrecord
280
     1
270
     1
271
     1
  0
XRECORD
  5
1B
102
{ACAD_REACTORS
330
1A
102
}
330
1A
100
AcDbXrecord
280
     1
270
     1
271
     1
  0
XRECORD
  5
1F
102
{ACAD_REACTORS
330
1A
102
}
330
1A
100
AcDbXrecord
280
     1
270
     1
271
     1
  0
XRECORD
  5
1E
102
{ACAD_REACTORS
330
1A
102
}
330
1A
100
AcDbXrecord
280
     1
270
     1
271
     1
  0
XRECORD
  5
20
102
{ACAD_REACTORS
330
1A
102
}
330
1A
100
AcDbXrecord
280
     1
270
     1
271
     1
  0
XRECORD
  5
1D
102
{ACAD_REACTORS
330
1A
102
}
330
1A
100
AcDbXrecord
280
     1
270
     1
271
     1
  0
XRECORD
  5
14
102
{ACAD_REACTORS
330
12
102
}
330
12
100
AcDbXrecord
280
     1
270
     1
271
     1
  0
XRECORD
  5
13
102
{ACAD_REACTORS
330
12
102
}
330
12
100
AcDbXrecord
280
     1
270
     1
271
     1
  0
XRECORD
  5
17
102
{ACAD_REACTORS
330
12
102
}
330
12
100
AcDbXrecord
280
     1
270
     1
271
     1
  0
XRECORD
  5
16
102
{ACAD_REACTORS
330
12
102
}
330
12
100
AcDbXrecord
280
     1
270
     1
271
     1
  0
XRECORD
  5
18
102
{ACAD_REACTORS
330
12
102
}
330
12
100
AcDbXrecord
280
     1
270
     1
271
     1
  0
XRECORD
  5
15
102
{ACAD_REACTORS
330
12
102
}
330
12
100
AcDbXrecord
280
     1
270
     1
271
     1
  0
XRECORD
  5
24
102
{ACAD_REACTORS
330
22
102
}
330
22
100
AcDbXrecord
280
     1
270
     1
271
     1
  0
XRECORD
  5
23
102
{ACAD_REACTORS
330
22
102
}
330
22
100
AcDbXrecord
280
     1
270
     1
271
     1
  0
XRECORD
  5
27
102
{ACAD_REACTORS
330
22
102
}
330
22
100
AcDbXrecord
280
     1
270
     1
271
     1
  0
XRECORD
  5
26
102
{ACAD_REACTORS
330
22
102
}
330
22
100
AcDbXrecord
280
     1
270
     1
271
     1
  0
XRECORD
  5
28
102
{ACAD_REACTORS
330
22
102
}
330
22
100
AcDbXrecord
280
     1
270
     1
271
     1
  0
XRECORD
  5
25
102
{ACAD_REACTORS
330
22
102
}
330
22
100
AcDbXrecord
280
     1
270
     1
271
     1
  0
CELLSTYLEMAP
  5
65F
102
{ACAD_REACTORS
330
65E
102
}
330
65E
100
AcDbCellStyleMap
 90
        3
300
CELLSTYLE
  1
TABLEFORMAT_BEGIN
 90
        5
170
     1
 91
        0
 92
    32768
 62
   257
 93
        1
300
CONTENTFORMAT
  1
CONTENTFORMAT_BEGIN
 90
        0
 91
        0
 92
      512
 93
        0
300

 40
0.0
140
1.0
 94
        5
 62
     0
340
55
144
0.25
309
CONTENTFORMAT_END
171
     0
 94
        0
309
TABLEFORMAT_END
  1
CELLSTYLE_BEGIN
 90
        1
 91
        1
300
_TITLE
309
CELLSTYLE_END
300
CELLSTYLE
  1
TABLEFORMAT_BEGIN
 90
        5
170
     1
 91
        0
 92
        0
 62
   257
 93
        1
300
CONTENTFORMAT
  1
CONTENTFORMAT_BEGIN
 90
        0
 91
        0
 92
      512
 93
        0
300

 40
0.0
140
1.0
 94
        5
 62
     0
340
55
144
0.18
309
CONTENTFORMAT_END
171
     0
 94
        0
309
TABLEFORMAT_END
  1
CELLSTYLE_BEGIN
 90
        2
 91
        1
300
_HEADER
309
CELLSTYLE_END
300
CELLSTYLE
  1
TABLEFORMAT_BEGIN
 90
        5
170
     1
 91
        0
 92
        0
 62
   257
 93
        1
300
CONTENTFORMAT
  1
CONTENTFORMAT_BEGIN
 90
        0
 91
        0
 92
      512
 93
        0
300

 40
0.0
140
1.0
 94
        2
 62
     0
340
55
144
0.18
309
CONTENTFORMAT_END
171
     0
 94
        0
309
TABLEFORMAT_END
  1
CELLSTYLE_BEGIN
 90
        3
 91
        2
300
_DATA
309
CELLSTYLE_END
  0
ENDSEC
  0
EOF
