  0
SECTION
  2
HEADER
  9
$ACADVER
  1
AC1032
  9
$ACADMAINTVER
 90
      197
  9
$DWGCODEPAGE
  3
ANSI_932
  9
$LASTSAVEDBY
  1
hiro-ichiyama
  9
$REQUIREDVERSIONS
160
                 0
  9
$INSBASE
 10
0.0
 20
0.0
 30
0.0
  9
$EXTMIN
 10
33.24572896077962
 20
27.50035294226882
 30
-0.0015258207003583
  9
$EXTMAX
 10
793.6012589395991
 20
574.6841904908465
 30
0.0000000349246037
  9
$LIMMIN
 10
0.0
 20
0.0
  9
$LIMMAX
 10
594.0
 20
841.0
  9
$ORTHOMODE
 70
     0
  9
$REGENMODE
 70
     1
  9
$FILLMODE
 70
     1
  9
$QTEXTMODE
 70
     0
  9
$MIRRTEXT
 70
     0
  9
$LTSCALE
 40
20.0
  9
$ATTMODE
 70
     1
  9
$TEXTSIZE
 40
4.0
  9
$TRACEWID
 40
0.05
  9
$TEXTSTYLE
  7
STANDARD
  9
$CLAYER
  8
0
  9
$CELTYPE
  6
CONTINUOUS
  9
$CECOLOR
 62
   256
  9
$CELTSCALE
 40
1.0
  9
$DISPSILH
 70
     0
  9
$DIMSCALE
 40
1.0
  9
$DIMASZ
 40
1.0
  9
$DIMEXO
 40
0.8
  9
$DIMDLI
 40
0.38
  9
$DIMRND
 40
0.0
  9
$DIMDLE
 40
0.0
  9
$DIMEXE
 40
2.0
  9
$DIMTP
 40
0.0
  9
$DIMTM
 40
0.0
  9
$DIMTXT
 40
3.1
  9
$DIMCEN
 40
0.09
  9
$DIMTSZ
 40
0.0
  9
$DIMTOL
 70
     0
  9
$DIMLIM
 70
     0
  9
$DIMTIH
 70
     0
  9
$DIMTOH
 70
     0
  9
$DIMSE1
 70
     0
  9
$DIMSE2
 70
     0
  9
$DIMTAD
 70
     1
  9
$DIMZIN
 70
     0
  9
$DIMBLK
  1

  9
$DIMASO
 70
     1
  9
$DIMSHO
 70
     1
  9
$DIMPOST
  1

  9
$DIMAPOST
  1

  9
$DIMALT
 70
     0
  9
$DIMALTD
 70
     2
  9
$DIMALTF
 40
25.4
  9
$DIMLFAC
 40
1.0
  9
$DIMTOFL
 70
     0
  9
$DIMTVP
 40
0.5
  9
$DIMTIX
 70
     0
  9
$DIMSOXD
 70
     0
  9
$DIMSAH
 70
     0
  9
$DIMBLK1
  1

  9
$DIMBLK2
  1

  9
$DIMSTYLE
  2
Standard
  9
$DIMCLRD
 70
     0
  9
$DIMCLRE
 70
     0
  9
$DIMCLRT
 70
     0
  9
$DIMTFAC
 40
1.0
  9
$DIMGAP
 40
0.09
  9
$DIMJUST
 70
     0
  9
$DIMSD1
 70
     0
  9
$DIMSD2
 70
     0
  9
$DIMTOLJ
 70
     1
  9
$DIMTZIN
 70
     0
  9
$DIMALTZ
 70
     0
  9
$DIMALTTZ
 70
     0
  9
$DIMUPT
 70
     0
  9
$DIMDEC
 70
     4
  9
$DIMTDEC
 70
     4
  9
$DIMALTU
 70
     2
  9
$DIMALTTD
 70
     2
  9
$DIMTXSTY
  7
STANDARD
  9
$DIMAUNIT
 70
     0
  9
$DIMADEC
 70
     0
  9
$DIMALTRND
 40
0.0
  9
$DIMAZIN
 70
     0
  9
$DIMDSEP
 70
    46
  9
$DIMATFIT
 70
     3
  9
$DIMFRAC
 70
     0
  9
$DIMLDRBLK
  1

  9
$DIMLUNIT
 70
     2
  9
$DIMLWD
 70
    -2
  9
$DIMLWE
 70
    -2
  9
$DIMTMOVE
 70
     0
  9
$DIMFXL
 40
1.0
  9
$DIMFXLON
 70
     0
  9
$DIMJOGANG
 40
0.7853981633974483
  9
$DIMTFILL
 70
     0
  9
$DIMTFILLCLR
 70
     0
  9
$DIMARCSYM
 70
     0
  9
$DIMLTYPE
  6

  9
$DIMLTEX1
  6

  9
$DIMLTEX2
  6

  9
$DIMTXTDIRECTION
 70
     0
  9
$LUNITS
 70
     2
  9
$LUPREC
 70
     4
  9
$SKETCHINC
 40
0.1
  9
$FILLETRAD
 40
0.0
  9
$AUNITS
 70
     0
  9
$AUPREC
 70
     0
  9
$MENU
  1
.
  9
$ELEVATION
 40
0.0
  9
$PELEVATION
 40
0.0
  9
$THICKNESS
 40
0.0
  9
$LIMCHECK
 70
     0
  9
$CHAMFERA
 40
0.0
  9
$CHAMFERB
 40
0.0
  9
$CHAMFERC
 40
0.0
  9
$CHAMFERD
 40
0.0
  9
$SKPOLY
 70
     0
  9
$TDCREATE
 40
2459992.394780093
  9
$TDUCREATE
 40
2459992.019780092
  9
$TDUPDATE
 40
2459992.398368056
  9
$TDUUPDATE
 40
2459992.023368056
  9
$TDINDWG
 40
0.0035879630
  9
$TDUSRTIMER
 40
0.0035879630
  9
$USRTIMER
 70
     1
  9
$ANGBASE
 50
0.0
  9
$ANGDIR
 70
     0
  9
$PDMODE
 70
     0
  9
$PDSIZE
 40
0.0
  9
$PLINEWID
 40
0.0
  9
$SPLFRAME
 70
     0
  9
$SPLINETYPE
 70
     6
  9
$SPLINESEGS
 70
     8
  9
$HANDSEED
  5
66F
  9
$SURFTAB1
 70
     6
  9
$SURFTAB2
 70
     6
  9
$SURFTYPE
 70
     6
  9
$SURFU
 70
     6
  9
$SURFV
 70
     6
  9
$UCSBASE
  2

  9
$UCSNAME
  2

  9
$UCSORG
 10
0.0
 20
0.0
 30
0.0
  9
$UCSXDIR
 10
1.0
 20
0.0
 30
0.0
  9
$UCSYDIR
 10
0.0
 20
1.0
 30
0.0
  9
$UCSORTHOREF
  2

  9
$UCSORTHOVIEW
 70
     0
  9
$UCSORGTOP
 10
0.0
 20
0.0
 30
0.0
  9
$UCSORGBOTTOM
 10
0.0
 20
0.0
 30
0.0
  9
$UCSORGLEFT
 10
0.0
 20
0.0
 30
0.0
  9
$UCSORGRIGHT
 10
0.0
 20
0.0
 30
0.0
  9
$UCSORGFRONT
 10
0.0
 20
0.0
 30
0.0
  9
$UCSORGBACK
 10
0.0
 20
0.0
 30
0.0
  9
$PUCSBASE
  2

  9
$PUCSNAME
  2

  9
$PUCSORG
 10
0.0
 20
0.0
 30
0.0
  9
$PUCSXDIR
 10
1.0
 20
0.0
 30
0.0
  9
$PUCSYDIR
 10
0.0
 20
1.0
 30
0.0
  9
$PUCSORTHOREF
  2

  9
$PUCSORTHOVIEW
 70
     0
  9
$PUCSORGTOP
 10
0.0
 20
0.0
 30
0.0
  9
$PUCSORGBOTTOM
 10
0.0
 20
0.0
 30
0.0
  9
$PUCSORGLEFT
 10
0.0
 20
0.0
 30
0.0
  9
$PUCSORGRIGHT
 10
0.0
 20
0.0
 30
0.0
  9
$PUCSORGFRONT
 10
0.0
 20
0.0
 30
0.0
  9
$PUCSORGBACK
 10
0.0
 20
0.0
 30
0.0
  9
$USERI1
 70
     0
  9
$USERI2
 70
     0
  9
$USERI3
 70
     0
  9
$USERI4
 70
     0
  9
$USERI5
 70
     0
  9
$USERR1
 40
0.0
  9
$USERR2
 40
0.0
  9
$USERR3
 40
0.0
  9
$USERR4
 40
0.0
  9
$USERR5
 40
0.0
  9
$WORLDVIEW
 70
     1
  9
$SHADEDGE
 70
     3
  9
$SHADEDIF
 70
    70
  9
$TILEMODE
 70
     1
  9
$MAXACTVP
 70
    64
  9
$PINSBASE
 10
0.0
 20
0.0
 30
0.0
  9
$PLIMCHECK
 70
     0
  9
$PEXTMIN
 10
1.000000000000000E+20
 20
1.000000000000000E+20
 30
1.000000000000000E+20
  9
$PEXTMAX
 10
-1.000000000000000E+20
 20
-1.000000000000000E+20
 30
-1.000000000000000E+20
  9
$PLIMMIN
 10
0.0
 20
0.0
  9
$PLIMMAX
 10
12.0
 20
9.0
  9
$UNITMODE
 70
     0
  9
$VISRETAIN
 70
     1
  9
$PLINEGEN
 70
     0
  9
$PSLTSCALE
 70
     1
  9
$TREEDEPTH
 70
  3020
  9
$CMLSTYLE
  2
Standard
  9
$CMLJUST
 70
     0
  9
$CMLSCALE
 40
1.0
  9
$PROXYGRAPHICS
 70
     1
  9
$MEASUREMENT
 70
     1
  9
$CELWEIGHT
370
    -1
  9
$ENDCAPS
280
     0
  9
$JOINSTYLE
280
     0
  9
$LWDISPLAY
290
     0
  9
$INSUNITS
 70
     0
  9
$HYPERLINKBASE
  1

  9
$STYLESHEET
  1

  9
$XEDIT
290
     1
  9
$CEPSNTYPE
380
     0
  9
$PSTYLEMODE
290
     1
  9
$FINGERPRINTGUID
  2
{E3C18C95-3A03-874B-8B09-16DBA314FF1B}
  9
$VERSIONGUID
  2
{0ADA75CF-D9ED-7A40-85AA-7DFAF239A42C}
  9
$EXTNAMES
290
     1
  9
$PSVPSCALE
 40
0.0
  9
$OLESTARTUP
290
     0
  9
$SORTENTS
280
   127
  9
$INDEXCTL
280
     0
  9
$HIDETEXT
280
     0
  9
$XCLIPFRAME
280
     2
  9
$HALOGAP
280
     0
  9
$OBSCOLOR
 70
   257
  9
$OBSLTYPE
280
     0
  9
$INTERSECTIONDISPLAY
280
     0
  9
$INTERSECTIONCOLOR
 70
   257
  9
$DIMASSOC
280
     1
  9
$PROJECTNAME
  1

  9
$CAMERADISPLAY
290
     0
  9
$LENSLENGTH
 40
50.0
  9
$CAMERAHEIGHT
 40
0.0
  9
$STEPSPERSEC
 40
2.0
  9
$STEPSIZE
 40
6.0
  9
$3DDWFPREC
 40
2.0
  9
$PSOLWIDTH
 40
0.25
  9
$PSOLHEIGHT
 40
4.0
  9
$LOFTANG1
 40
1.570796326794896
  9
$LOFTANG2
 40
1.570796326794896
  9
$LOFTMAG1
 40
0.0
  9
$LOFTMAG2
 40
0.0
  9
$LOFTPARAM
 70
     7
  9
$LOFTNORMALS
280
     1
  9
$LATITUDE
 40
37.795
  9
$LONGITUDE
 40
-122.394
  9
$NORTHDIRECTION
 40
0.0
  9
$TIMEZONE
 70
 -8000
  9
$LIGHTGLYPHDISPLAY
280
     1
  9
$TILEMODELIGHTSYNCH
280
     1
  9
$CMATERIAL
347
11
  9
$SOLIDHIST
280
     0
  9
$SHOWHIST
280
     1
  9
$DWFFRAME
280
     2
  9
$DGNFRAME
280
     0
  9
$REALWORLDSCALE
290
     1
  9
$INTERFERECOLOR
 62
     1
  9
$INTERFEREOBJVS
345
33
  9
$INTERFEREVPVS
346
30
  9
$CSHADOW
280
     0
  9
$SHADOWPLANELOCATION
 40
0.0
  0
ENDSEC
  0
SECTION
  2
CLASSES
  0
CLASS
  1
ACDBDICTIONARYWDFLT
  2
AcDbDictionaryWithDefault
  3
ObjectDBX Classes
 90
        0
 91
        1
280
     0
281
     0
  0
CLASS
  1
MATERIAL
  2
AcDbMaterial
  3
ObjectDBX Classes
 90
     1153
 91
        3
280
     0
281
     0
  0
CLASS
  1
VISUALSTYLE
  2
AcDbVisualStyle
  3
ObjectDBX Classes
 90
     4095
 91
       24
280
     0
281
     0
  0
CLASS
  1
SCALE
  2
AcDbScale
  3
ObjectDBX Classes
 90
     1153
 91
       17
280
     0
281
     0
  0
CLASS
  1
TABLESTYLE
  2
AcDbTableStyle
  3
ObjectDBX Classes
 90
     4095
 91
        1
280
     0
281
     0
  0
CLASS
  1
MLEADERSTYLE
  2
AcDbMLeaderStyle
  3
ACDB_MLEADERSTYLE_CLASS
 90
     4095
 91
        1
280
     0
281
     0
  0
CLASS
  1
ACDBSECTIONVIEWSTYLE
  2
AcDbSectionViewStyle
  3
ObjectDBX Classes
 90
     1025
 91
        2
280
     0
281
     0
  0
CLASS
  1
ACDBDETAILVIEWSTYLE
  2
AcDbDetailViewStyle
  3
ObjectDBX Classes
 90
     1025
 91
        2
280
     0
281
     0
  0
CLASS
  1
DICTIONARYVAR
  2
AcDbDictionaryVar
  3
ObjectDBX Classes
 90
        0
 91
        9
280
     0
281
     0
  0
CLASS
  1
CELLSTYLEMAP
  2
AcDbCellStyleMap
  3
ObjectDBX Classes
 90
     1152
 91
        1
280
     0
281
     0
  0
ENDSEC
  0
SECTION
  2
TABLES
  0
TABLE
  2
VPORT
  5
8
330
0
100
AcDbSymbolTable
 70
     1
  0
VPORT
  5
85
330
8
100
AcDbSymbolTableRecord
100
AcDbViewportTableRecord
  2
*Active
 70
     0
 10
0.0
 20
0.0
 11
1.0
 21
1.0
 12
413.4234939501893
 22
301.0922717165577
 13
0.0
 23
0.0
 14
1.0
 24
1.0
 15
0.0
 25
0.0
 16
0.0
 26
0.0
 36
1.0
 17
0.0
 27
0.0
 37
0.0
 40
551.1585385477198
 41
2.295757575757575
 42
50.0
 43
0.0
 44
0.0
 50
0.0
 51
0.0
 71
     0
 72
   100
 73
     1
 74
     1
 75
     0
 76
     0
 77
     0
 78
     0
281
     0
 65
     1
110
0.0
120
0.0
130
0.0
111
1.0
121
0.0
131
0.0
112
0.0
122
1.0
132
0.0
 79
     0
146
0.0
348
2F
 60
     3
 61
     5
292
     1
282
     1
141
0.0
142
0.0
 63
   250
421
  3355443
1001
ACAD_NAV_VCDISPLAY
1070
     3
  0
ENDTAB
  0
TABLE
  2
LTYPE
  5
5
330
0
100
AcDbSymbolTable
 70
     6
  0
LTYPE
  5
5A
330
5
100
AcDbSymbolTableRecord
100
AcDbLinetypeTableRecord
  2
ByBlock
 70
     0
  3

 72
    65
 73
     0
 40
0.0
  0
LTYPE
  5
5B
330
5
100
AcDbSymbolTableRecord
100
AcDbLinetypeTableRecord
  2
ByLayer
 70
     0
  3

 72
    65
 73
     0
 40
0.0
  0
LTYPE
  5
5C
330
5
100
AcDbSymbolTableRecord
100
AcDbLinetypeTableRecord
  2
CONTINUOUS
 70
     0
  3
Solid line (NEC CAE2D for Win R15.2 : 2020.12.23)
 72
    65
 73
     0
 40
0.0
  0
LTYPE
  5
73
330
5
100
AcDbSymbolTableRecord
100
AcDbLinetypeTableRecord
  2
DASHED
 70
     0
  3
__ __ __ __ __ __ __ __ __ __ __ __ __ _
 72
    65
 73
     2
 40
0.75
 49
0.5
 74
     0
 49
-0.25
 74
     0
  0
LTYPE
  5
74
330
5
100
AcDbSymbolTableRecord
100
AcDbLinetypeTableRecord
  2
HIDDEN
 70
     0
  3
__ __ __ __ __ __ __ __ __ __ __ __ __ __
 72
    65
 73
     2
 40
0.375
 49
0.25
 74
     0
 49
-0.125
 74
     0
  0
LTYPE
  5
75
330
5
100
AcDbSymbolTableRecord
100
AcDbLinetypeTableRecord
  2
CENTER
 70
     0
  3
____ _ ____ _ ____ _ ____ _ ____ _ ____
 72
    65
 73
     4
 40
2.0
 49
1.25
 74
     0
 49
-0.25
 74
     0
 49
0.25
 74
     0
 49
-0.25
 74
     0
  0
ENDTAB
  0
TABLE
  2
LAYER
  5
2
330
0
100
AcDbSymbolTable
 70
    11
  0
LAYER
  5
54
102
{ACAD_XDICTIONARY
360
64B
102
}
330
2
100
AcDbSymbolTableRecord
100
AcDbLayerTableRecord
  2
0
 70
     0
 62
     7
  6
CONTINUOUS
370
    -3
390
F
347
21
348
0
  0
LAYER
  5
76
102
{ACAD_XDICTIONARY
360
64D
102
}
330
2
100
AcDbSymbolTableRecord
100
AcDbLayerTableRecord
  2
DXF0
 70
     0
 62
     3
  6
CONTINUOUS
370
    -3
390
F
347
21
348
0
  0
LAYER
  5
77
102
{ACAD_XDICTIONARY
360
64F
102
}
330
2
100
AcDbSymbolTableRecord
100
AcDbLayerTableRecord
  2
LOUVER
 70
     0
 62
     4
  6
CONTINUOUS
370
    -3
390
F
347
21
348
0
  0
LAYER
  5
78
102
{ACAD_XDICTIONARY
360
651
102
}
330
2
100
AcDbSymbolTableRecord
100
AcDbLayerTableRecord
  2
UKEZAI
 70
     0
 62
     5
  6
CONTINUOUS
370
    -3
390
F
347
21
348
0
  0
LAYER
  5
79
102
{ACAD_XDICTIONARY
360
653
102
}
330
2
100
AcDbSymbolTableRecord
100
AcDbLayerTableRecord
  2
ANCHOR
 70
     0
 62
     2
  6
CONTINUOUS
370
    -3
390
F
347
21
348
0
  0
LAYER
  5
7A
102
{ACAD_XDICTIONARY
360
655
102
}
330
2
100
AcDbSymbolTableRecord
100
AcDbLayerTableRecord
  2
KUTAI
 70
     0
 62
     6
  6
CONTINUOUS
370
    -3
390
F
347
21
348
0
  0
LAYER
  5
7B
102
{ACAD_XDICTIONARY
360
657
102
}
330
2
100
AcDbSymbolTableRecord
100
AcDbLayerTableRecord
  2
WASHER
 70
     0
 62
     2
  6
CONTINUOUS
370
    -3
390
F
347
21
348
0
  0
LAYER
  5
7C
102
{ACAD_XDICTIONARY
360
659
102
}
330
2
100
AcDbSymbolTableRecord
100
AcDbLayerTableRecord
  2
COMMENT
 70
     0
 62
     3
  6
CONTINUOUS
370
    -3
390
F
347
21
348
0
  0
LAYER
  5
7D
102
{ACAD_XDICTIONARY
360
65B
102
}
330
2
100
AcDbSymbolTableRecord
100
AcDbLayerTableRecord
  2
WAKU
 70
     0
 62
     1
  6
CONTINUOUS
370
    -3
390
F
347
21
348
0
  0
LAYER
  5
7E
102
{ACAD_XDICTIONARY
360
65D
102
}
330
2
100
AcDbSymbolTableRecord
100
AcDbLayerTableRecord
  2
UNTITLED0001023
 70
     0
 62
     8
  6
CONTINUOUS
370
    -3
390
F
347
21
348
0
  0
LAYER
  5
7F
102
{ACAD_XDICTIONARY
360
65F
102
}
330
2
100
AcDbSymbolTableRecord
100
AcDbLayerTableRecord
  2
DXF1023
 70
     0
 62
     6
  6
CONTINUOUS
370
    -3
390
F
347
21
348
0
  0
ENDTAB
  0
TABLE
  2
STYLE
  5
3
330
0
100
AcDbSymbolTable
 70
     5
  0
STYLE
  5
55
330
3
100
AcDbSymbolTableRecord
100
AcDbTextStyleTableRecord
  2
STANDARD
 70
     0
 40
0.0
 41
1.0
 50
0.0
 71
     0
 42
4.0
  3
TXT
  4

  0
STYLE
  5
59
330
3
100
AcDbSymbolTableRecord
100
AcDbTextStyleTableRecord
  2
Annotative
 70
     0
 40
0.0
 41
1.0
 50
0.0
 71
     0
 42
0.2
  3
txt
  4

1001
AcadAnnotative
1000
AnnotativeData
1002
{
1070
     1
1070
     1
1002
}
  0
STYLE
  5
80
330
3
100
AcDbSymbolTableRecord
100
AcDbTextStyleTableRecord
  2
ANKTATE
 70
     4
 40
0.0
 41
1.0
 50
0.0
 71
     0
 42
4.0
  3
TXT
  4

  0
STYLE
  5
81
330
3
100
AcDbSymbolTableRecord
100
AcDbTextStyleTableRecord
  2
KNJYOKO
 70
     0
 40
0.0
 41
1.0
 50
0.0
 71
     0
 42
4.0
  3
TXT
  4
BIGFONT
  0
STYLE
  5
82
330
3
100
AcDbSymbolTableRecord
100
AcDbTextStyleTableRecord
  2
KNJTATE
 70
     4
 40
0.0
 41
1.0
 50
0.0
 71
     0
 42
4.0
  3
TXT
  4
BIGFONT
  0
ENDTAB
  0
TABLE
  2
VIEW
  5
6
330
0
100
AcDbSymbolTable
 70
     0
  0
ENDTAB
  0
TABLE
  2
UCS
  5
7
330
0
100
AcDbSymbolTable
 70
     0
  0
ENDTAB
  0
TABLE
  2
APPID
  5
9
330
0
100
AcDbSymbolTable
 70
     4
  0
APPID
  5
56
330
9
100
AcDbSymbolTableRecord
100
AcDbRegAppTableRecord
  2
ACAD
 70
     0
  0
APPID
  5
5D
330
9
100
AcDbSymbolTableRecord
100
AcDbRegAppTableRecord
  2
AcadAnnotative
 70
     0
  0
APPID
  5
643
330
9
100
AcDbSymbolTableRecord
100
AcDbRegAppTableRecord
  2
ACAD_EXEMPT_FROM_CAD_STANDARDS
 70
     0
  0
APPID
  5
66B
330
9
100
AcDbSymbolTableRecord
100
AcDbRegAppTableRecord
  2
ACAD_NAV_VCDISPLAY
 70
     0
  0
ENDTAB
  0
TABLE
  2
DIMSTYLE
  5
A
330
0
100
AcDbSymbolTable
 70
     3
100
AcDbDimStyleTable
 71
     0
  0
DIMSTYLE
105
57
102
{ACAD_REACTORS
330
48C
330
48D
330
48E
330
48F
330
490
330
491
330
5B2
330
5B3
330
5B4
330
5B5
330
5B6
330
5B7
330
5B8
330
5B9
330
5BA
330
5BB
330
5BC
330
5BD
330
5BE
330
5BF
330
5C0
330
5C1
330
5C2
330
5C3
102
}
330
A
100
AcDbSymbolTableRecord
100
AcDbDimStyleTableRecord
  2
Standard
 70
     0
340
55
  0
DIMSTYLE
105
58
330
A
100
AcDbSymbolTableRecord
100
AcDbDimStyleTableRecord
  2
Annotative
 70
     0
340
55
1001
AcadAnnotative
1000
AnnotativeData
1002
{
1070
     1
1070
     1
1002
}
  0
ENDTAB
  0
TABLE
  2
BLOCK_RECORD
  5
1
330
0
100
AcDbSymbolTable
 70
    26
  0
BLOCK_RECORD
  5
6F
330
1
100
AcDbSymbolTableRecord
100
AcDbBlockTableRecord
  2
*Model_Space
340
72
 70
     0
280
     1
281
     0
  0
BLOCK_RECORD
  5
6B
330
1
100
AcDbSymbolTableRecord
100
AcDbBlockTableRecord
  2
*Paper_Space
340
6E
 70
     0
280
     1
281
     0
  0
BLOCK_RECORD
  5
86
330
1
100
AcDbSymbolTableRecord
100
AcDbBlockTableRecord
  2
*X0
340
0
102
{BLKREFS
331
266
102
}
 70
     0
280
     1
281
     0
  0
BLOCK_RECORD
  5
97
330
1
100
AcDbSymbolTableRecord
100
AcDbBlockTableRecord
  2
*D1
340
0
 70
     0
280
     1
281
     0
  0
BLOCK_RECORD
  5
A5
330
1
100
AcDbSymbolTableRecord
100
AcDbBlockTableRecord
  2
*D2
340
0
 70
     0
280
     1
281
     0
  0
BLOCK_RECORD
  5
B3
330
1
100
AcDbSymbolTableRecord
100
AcDbBlockTableRecord
  2
*D3
340
0
 70
     0
280
     1
281
     0
  0
BLOCK_RECORD
  5
C1
330
1
100
AcDbSymbolTableRecord
100
AcDbBlockTableRecord
  2
*D4
340
0
 70
     0
280
     1
281
     0
  0
BLOCK_RECORD
  5
D0
330
1
100
AcDbSymbolTableRecord
100
AcDbBlockTableRecord
  2
*D5
340
0
 70
     0
280
     1
281
     0
  0
BLOCK_RECORD
  5
DE
330
1
100
AcDbSymbolTableRecord
100
AcDbBlockTableRecord
  2
*D6
340
0
 70
     0
280
     1
281
     0
  0
BLOCK_RECORD
  5
EC
330
1
100
AcDbSymbolTableRecord
100
AcDbBlockTableRecord
  2
*D7
340
0
 70
     0
280
     1
281
     0
  0
BLOCK_RECORD
  5
FA
330
1
100
AcDbSymbolTableRecord
100
AcDbBlockTableRecord
  2
*D8
340
0
 70
     0
280
     1
281
     0
  0
BLOCK_RECORD
  5
108
330
1
100
AcDbSymbolTableRecord
100
AcDbBlockTableRecord
  2
*D9
340
0
 70
     0
280
     1
281
     0
  0
BLOCK_RECORD
  5
117
330
1
100
AcDbSymbolTableRecord
100
AcDbBlockTableRecord
  2
*D10
340
0
 70
     0
280
     1
281
     0
  0
BLOCK_RECORD
  5
126
330
1
100
AcDbSymbolTableRecord
100
AcDbBlockTableRecord
  2
*D11
340
0
 70
     0
280
     1
281
     0
  0
BLOCK_RECORD
  5
134
330
1
100
AcDbSymbolTableRecord
100
AcDbBlockTableRecord
  2
*D12
340
0
 70
     0
280
     1
281
     0
  0
BLOCK_RECORD
  5
142
330
1
100
AcDbSymbolTableRecord
100
AcDbBlockTableRecord
  2
*D13
340
0
 70
     0
280
     1
281
     0
  0
BLOCK_RECORD
  5
150
330
1
100
AcDbSymbolTableRecord
100
AcDbBlockTableRecord
  2
*D14
340
0
 70
     0
280
     1
281
     0
  0
BLOCK_RECORD
  5
15E
330
1
100
AcDbSymbolTableRecord
100
AcDbBlockTableRecord
  2
*D15
340
0
 70
     0
280
     1
281
     0
  0
BLOCK_RECORD
  5
16C
330
1
100
AcDbSymbolTableRecord
100
AcDbBlockTableRecord
  2
*D16
340
0
 70
     0
280
     1
281
     0
  0
BLOCK_RECORD
  5
17B
330
1
100
AcDbSymbolTableRecord
100
AcDbBlockTableRecord
  2
*D17
340
0
 70
     0
280
     1
281
     0
  0
BLOCK_RECORD
  5
18A
330
1
100
AcDbSymbolTableRecord
100
AcDbBlockTableRecord
  2
*D18
340
0
 70
     0
280
     1
281
     0
  0
BLOCK_RECORD
  5
199
330
1
100
AcDbSymbolTableRecord
100
AcDbBlockTableRecord
  2
*D19
340
0
 70
     0
280
     1
281
     0
  0
BLOCK_RECORD
  5
1A7
330
1
100
AcDbSymbolTableRecord
100
AcDbBlockTableRecord
  2
*D20
340
0
 70
     0
280
     1
281
     0
  0
BLOCK_RECORD
  5
1B5
330
1
100
AcDbSymbolTableRecord
100
AcDbBlockTableRecord
  2
*D21
340
0
 70
     0
280
     1
281
     0
  0
BLOCK_RECORD
  5
1C3
330
1
100
AcDbSymbolTableRecord
100
AcDbBlockTableRecord
  2
*D22
340
0
 70
     0
280
     1
281
     0
  0
BLOCK_RECORD
  5
1D2
330
1
100
AcDbSymbolTableRecord
100
AcDbBlockTableRecord
  2
*D23
340
0
 70
     0
280
     1
281
     0
  0
BLOCK_RECORD
  5
1E1
330
1
100
AcDbSymbolTableRecord
100
AcDbBlockTableRecord
  2
*D24
340
0
 70
     0
280
     1
281
     0
  0
ENDTAB
  0
ENDSEC
  0
SECTION
  2
BLOCKS
  0
BLOCK
  5
70
330
6F
100
AcDbEntity
  8
0
100
AcDbBlockBegin
  2
*Model_Space
 70
     0
 10
0.0
 20
0.0
 30
0.0
  3
*Model_Space
  1

  0
ENDBLK
  5
71
330
6F
100
AcDbEntity
  8
0
100
AcDbBlockEnd
  0
BLOCK
  5
6C
330
6B
100
AcDbEntity
 67
     1
  8
0
100
AcDbBlockBegin
  2
*Paper_Space
 70
     0
 10
0.0
 20
0.0
 30
0.0
  3
*Paper_Space
  1

  0
ENDBLK
  5
6D
330
6B
100
AcDbEntity
 67
     1
  8
0
100
AcDbBlockEnd
  0
BLOCK
  5
87
330
86
100
AcDbEntity
  8
KUTAI
  6
ByBlock
 62
    12
100
AcDbBlockBegin
  2
*X0
 70
     1
 10
0.0
 20
0.0
 30
0.0
  3
*X0
  1

  0
LINE
  5
88
330
86
100
AcDbEntity
  8
KUTAI
  6
ByBlock
 62
     0
100
AcDbLine
 10
227.7273721234332
 20
97.33644960962564
 30
0.0
 11
229.3273721234318
 21
98.93644960962369
 31
0.0
  0
LINE
  5
89
330
86
100
AcDbEntity
  8
KUTAI
  6
ByBlock
 62
     0
100
AcDbLine
 10
228.0509278357716
 20
96.24579175751655
 30
0.0
 11
229.3908846518857
 21
97.58574857507472
 31
0.0
  0
LINE
  5
8A
330
86
100
AcDbEntity
  8
KUTAI
  6
ByBlock
 62
     0
100
AcDbLine
 10
227.7273721234332
 20
118.549653045222
 30
0.0
 11
229.3273721234303
 21
120.1496530452196
 31
0.0
  0
LINE
  5
8B
330
86
100
AcDbEntity
  8
KUTAI
  6
ByBlock
 62
     0
100
AcDbLine
 10
256.1273721234334
 20
146.949653045222
 30
0.0
 11
257.7273721234319
 21
148.5496530452206
 31
0.0
  0
LINE
  5
8C
330
86
100
AcDbEntity
  8
KUTAI
  6
ByBlock
 62
     0
100
AcDbLine
 10
227.7273721234328
 20
117.1354394828478
 30
0.0
 11
229.3273721234318
 21
118.7354394828473
 31
0.0
  0
LINE
  5
8D
330
86
100
AcDbEntity
  8
KUTAI
  6
ByBlock
 62
     0
100
AcDbLine
 10
256.1273721234338
 20
145.5354394828493
 30
0.0
 11
257.7273721234333
 21
147.1354394828488
 31
0.0
  0
LINE
  5
8E
330
86
100
AcDbEntity
  8
KUTAI
  6
ByBlock
 62
     0
100
AcDbLine
 10
227.7273721234315
 20
139.7628564808165
 30
0.0
 11
229.3273721234309
 21
141.362856480816
 31
0.0
  0
LINE
  5
8F
330
86
100
AcDbEntity
  8
KUTAI
  6
ByBlock
 62
     0
100
AcDbLine
 10
241.7009652522406
 20
153.7364496096257
 30
0.0
 11
243.3009652522401
 21
155.3364496096252
 31
0.0
  0
LINE
  5
90
330
86
100
AcDbEntity
  8
KUTAI
  6
ByBlock
 62
     0
100
AcDbLine
 10
227.7273721234324
 20
138.3486429184442
 30
0.0
 11
229.3273721234314
 21
139.9486429184427
 31
0.0
  0
LINE
  5
91
330
86
100
AcDbEntity
  8
KUTAI
  6
ByBlock
 62
     0
100
AcDbLine
 10
243.1151788146158
 20
153.7364496096271
 30
0.0
 11
244.7151788146125
 21
155.3364496096243
 31
0.0
  0
LINE
  5
92
330
86
100
AcDbEntity
  8
KUTAI
  6
ByBlock
 62
     0
100
AcDbLine
 10
246.9405755590291
 20
95.33644960962515
 30
0.0
 11
248.5405755590272
 21
96.93644960962277
 31
0.0
  0
LINE
  5
93
330
86
100
AcDbEntity
  8
KUTAI
  6
ByBlock
 62
     0
100
AcDbLine
 10
256.1273721234341
 20
104.5232461740302
 30
0.0
 11
256.9405755590264
 21
105.3364496096224
 31
0.0
  0
LINE
  5
94
330
86
100
AcDbEntity
  8
KUTAI
  6
ByBlock
 62
     0
100
AcDbLine
 10
248.3547891214028
 20
95.33644960962558
 30
0.0
 11
249.9547891214004
 21
96.93644960962316
 31
0.0
  0
LINE
  5
95
330
86
100
AcDbEntity
  8
KUTAI
  6
ByBlock
 62
     0
100
AcDbLine
 10
256.1273721234347
 20
103.109032611657
 30
0.0
 11
257.727372123431
 21
104.7090326116537
 31
0.0
  0
ENDBLK
  5
96
330
86
100
AcDbEntity
  8
KUTAI
  6
ByBlock
 62
    12
100
AcDbBlockEnd
  0
BLOCK
  5
98
330
97
100
AcDbEntity
  8
DXF0
  6
Continuous
 62
     3
100
AcDbBlockBegin
  2
*D1
 70
     1
 10
0.0
 20
0.0
 30
0.0
  3
*D1
  1

  0
LINE
  5
99
330
97
100
AcDbEntity
  8
DXF0
  6
ByBlock
 62
     0
100
AcDbLine
 10
216.927372112166
 20
510.7555691123011
 30
0.0
 11
194.4105681989201
 21
510.7555691123011
 31
0.0
  0
LINE
  5
9A
330
97
100
AcDbEntity
  8
DXF0
  6
ByBlock
 62
     0
100
AcDbLine
 10
196.4105681989201
 20
510.7555691123011
 30
0.0
 11
196.4105681989201
 21
410.7555691123014
 31
0.0
  0
LWPOLYLINE
  5
9B
330
97
100
AcDbEntity
  8
DXF0
  6
ByBlock
 62
     0
100
AcDbPolyline
 90
        2
 70
     1
 43
0.5
 10
196.66056819892
 20
510.7555691123011
 42
1.0
 10
196.1605681989201
 20
510.7555691123011
 42
1.0
  0
LWPOLYLINE
  5
9F
330
97
100
AcDbEntity
  8
DXF0
  6
ByBlock
 62
     0
100
AcDbPolyline
 90
        2
 70
     1
 43
0.5
 10
196.66056819892
 20
410.7555691123014
 42
1.0
 10
196.1605681989201
 20
410.7555691123014
 42
1.0
  0
TEXT
  5
A3
330
97
100
AcDbEntity
  8
DXF0
  6
ByBlock
 62
     0
100
AcDbText
 10
195.9105681989201
 20
456.7605689883236
 30
0.0
 40
3.099999904632568
  1
100
 50
90.0
100
AcDbText
  0
ENDBLK
  5
A4
330
97
100
AcDbEntity
  8
DXF0
  6
Continuous
 62
     3
100
AcDbBlockEnd
  0
BLOCK
  5
A6
330
A5
100
AcDbEntity
  8
DXF0
  6
Continuous
 62
     3
100
AcDbBlockBegin
  2
*D2
 70
     1
 10
0.0
 20
0.0
 30
0.0
  3
*D2
  1

  0
LINE
  5
A7
330
A5
100
AcDbEntity
  8
DXF0
  6
ByBlock
 62
     0
100
AcDbLine
 10
206.9996519533903
 20
410.7555691123014
 30
0.0
 11
206.9996519533903
 21
420.7555691123124
 31
0.0
  0
LWPOLYLINE
  5
A8
330
A5
100
AcDbEntity
  8
DXF0
  6
ByBlock
 62
     0
100
AcDbPolyline
 90
        2
 70
     1
 43
0.5
 10
207.2496519533903
 20
410.7555691123014
 42
1.0
 10
206.7496519533903
 20
410.7555691123014
 42
1.0
  0
LWPOLYLINE
  5
AC
330
A5
100
AcDbEntity
  8
DXF0
  6
ByBlock
 62
     0
100
AcDbPolyline
 90
        2
 70
     1
 43
0.5
 10
207.2496519533903
 20
420.7555691123124
 42
1.0
 10
206.7496519533903
 20
420.7555691123124
 42
1.0
  0
LINE
  5
B0
330
A5
100
AcDbEntity
  8
DXF0
  6
ByBlock
 62
     0
100
AcDbLine
 10
212.5387701867189
 20
420.7555691123124
 30
0.0
 11
204.9996519533903
 21
420.7555691123124
 31
0.0
  0
TEXT
  5
B1
330
A5
100
AcDbEntity
  8
DXF0
  6
ByBlock
 62
     0
100
AcDbText
 10
206.4996519533903
 20
413.1555690288603
 30
0.0
 40
3.099999904632568
  1
10
 50
90.0
100
AcDbText
  0
ENDBLK
  5
B2
330
A5
100
AcDbEntity
  8
DXF0
  6
Continuous
 62
     3
100
AcDbBlockEnd
  0
BLOCK
  5
B4
330
B3
100
AcDbEntity
  8
DXF0
  6
Continuous
 62
     3
100
AcDbBlockBegin
  2
*D3
 70
     1
 10
0.0
 20
0.0
 30
0.0
  3
*D3
  1

  0
LINE
  5
B5
330
B3
100
AcDbEntity
  8
DXF0
  6
ByBlock
 62
     0
100
AcDbLine
 10
213.3971723608286
 20
410.7555691123014
 30
0.0
 11
213.3971723608286
 21
414.8660653948788
 31
0.0
  0
LWPOLYLINE
  5
B6
330
B3
100
AcDbEntity
  8
DXF0
  6
ByBlock
 62
     0
100
AcDbPolyline
 90
        2
 70
     1
 43
0.5
 10
213.6471723608286
 20
410.7555691123014
 42
1.0
 10
213.1471723608286
 20
410.7555691123014
 42
1.0
  0
LWPOLYLINE
  5
BA
330
B3
100
AcDbEntity
  8
DXF0
  6
ByBlock
 62
     0
100
AcDbPolyline
 90
        2
 70
     1
 43
0.5
 10
213.6471723608286
 20
411.7555691123013
 42
1.0
 10
213.1471723608286
 20
411.7555691123013
 42
1.0
  0
LINE
  5
BE
330
B3
100
AcDbEntity
  8
DXF0
  6
ByBlock
 62
     0
100
AcDbLine
 10
216.927372112166
 20
411.7555691123013
 30
0.0
 11
211.3971723608286
 21
411.7555691123013
 31
0.0
  0
TEXT
  5
BF
330
B3
100
AcDbEntity
  8
DXF0
  6
ByBlock
 62
     0
100
AcDbText
 10
212.8971723608286
 20
412.2660652233731
 30
0.0
 40
3.099999904632568
  1
1
 50
90.0
100
AcDbText
  0
ENDBLK
  5
C0
330
B3
100
AcDbEntity
  8
DXF0
  6
Continuous
 62
     3
100
AcDbBlockEnd
  0
BLOCK
  5
C2
330
C1
100
AcDbEntity
  8
DXF0
  6
Continuous
 62
     3
100
AcDbBlockBegin
  2
*D4
 70
     1
 10
0.0
 20
0.0
 30
0.0
  3
*D4
  1

  0
LINE
  5
C3
330
C1
100
AcDbEntity
  8
DXF0
  6
ByBlock
 62
     0
100
AcDbLine
 10
217.7273721240869
 20
511.5555691242222
 30
0.0
 11
217.7273721240869
 21
525.7790716969634
 31
0.0
  0
LINE
  5
C4
330
C1
100
AcDbEntity
  8
DXF0
  6
ByBlock
 62
     0
100
AcDbLine
 10
217.7273721240869
 20
523.7790716969634
 30
0.0
 11
267.7273721243835
 21
523.7790716969634
 31
0.0
  0
LWPOLYLINE
  5
C5
330
C1
100
AcDbEntity
  8
DXF0
  6
ByBlock
 62
     0
100
AcDbPolyline
 90
        2
 70
     1
 43
0.5
 10
217.9773721240869
 20
523.7790716969634
 42
1.0
 10
217.4773721240869
 20
523.7790716969634
 42
1.0
  0
LWPOLYLINE
  5
C9
330
C1
100
AcDbEntity
  8
DXF0
  6
ByBlock
 62
     0
100
AcDbPolyline
 90
        2
 70
     1
 43
0.5
 10
267.9773721243835
 20
523.7790716969634
 42
1.0
 10
267.4773721243835
 20
523.7790716969634
 42
1.0
  0
LINE
  5
CD
330
C1
100
AcDbEntity
  8
DXF0
  6
ByBlock
 62
     0
100
AcDbLine
 10
267.7273721243835
 20
511.5555691242217
 30
0.0
 11
267.7273721243835
 21
525.7790716969634
 31
0.0
  0
TEXT
  5
CE
330
C1
100
AcDbEntity
  8
DXF0
  6
ByBlock
 62
     0
100
AcDbText
 10
240.1273720407887
 20
524.2790716969635
 30
0.0
 40
3.099999904632568
  1
50
100
AcDbText
  0
ENDBLK
  5
CF
330
C1
100
AcDbEntity
  8
DXF0
  6
Continuous
 62
     3
100
AcDbBlockEnd
  0
BLOCK
  5
D1
330
D0
100
AcDbEntity
  8
DXF0
  6
Continuous
 62
     3
100
AcDbBlockBegin
  2
*D5
 70
     1
 10
0.0
 20
0.0
 30
0.0
  3
*D5
  1

  0
LINE
  5
D2
330
D0
100
AcDbEntity
  8
DXF0
  6
ByBlock
 62
     0
100
AcDbLine
 10
217.7273721240869
 20
410.9555691003803
 30
0.0
 11
217.7273721240869
 21
351.0798412058073
 31
0.0
  0
LINE
  5
D3
330
D0
100
AcDbEntity
  8
DXF0
  6
ByBlock
 62
     0
100
AcDbLine
 10
217.7273721240869
 20
353.0798412058073
 30
0.0
 11
242.7273721234328
 21
353.0798412058073
 31
0.0
  0
LWPOLYLINE
  5
D4
330
D0
100
AcDbEntity
  8
DXF0
  6
ByBlock
 62
     0
100
AcDbPolyline
 90
        2
 70
     1
 43
0.5
 10
217.9773721240869
 20
353.0798412058073
 42
1.0
 10
217.4773721240869
 20
353.0798412058073
 42
1.0
  0
LWPOLYLINE
  5
D8
330
D0
100
AcDbEntity
  8
DXF0
  6
ByBlock
 62
     0
100
AcDbPolyline
 90
        2
 70
     1
 43
0.5
 10
242.9773721234328
 20
353.0798412058073
 42
1.0
 10
242.4773721234328
 20
353.0798412058073
 42
1.0
  0
TEXT
  5
DC
330
D0
100
AcDbEntity
  8
DXF0
  6
ByBlock
 62
     0
100
AcDbText
 10
227.6273720403133
 20
353.5798412058073
 30
0.0
 40
3.099999904632568
  1
25
100
AcDbText
  0
ENDBLK
  5
DD
330
D0
100
AcDbEntity
  8
DXF0
  6
Continuous
 62
     3
100
AcDbBlockEnd
  0
BLOCK
  5
DF
330
DE
100
AcDbEntity
  8
DXF0
  6
Continuous
 62
     3
100
AcDbBlockBegin
  2
*D6
 70
     1
 10
0.0
 20
0.0
 30
0.0
  3
*D6
  1

  0
LINE
  5
E0
330
DE
100
AcDbEntity
  8
DXF0
  6
ByBlock
 62
     0
100
AcDbLine
 10
242.7273721234328
 20
353.0798412058073
 30
0.0
 11
267.7273721243834
 21
353.0798412058073
 31
0.0
  0
LWPOLYLINE
  5
E1
330
DE
100
AcDbEntity
  8
DXF0
  6
ByBlock
 62
     0
100
AcDbPolyline
 90
        2
 70
     1
 43
0.5
 10
242.9773721234328
 20
353.0798412058073
 42
1.0
 10
242.4773721234328
 20
353.0798412058073
 42
1.0
  0
LWPOLYLINE
  5
E5
330
DE
100
AcDbEntity
  8
DXF0
  6
ByBlock
 62
     0
100
AcDbPolyline
 90
        2
 70
     1
 43
0.5
 10
267.9773721243834
 20
353.0798412058073
 42
1.0
 10
267.4773721243834
 20
353.0798412058073
 42
1.0
  0
LINE
  5
E9
330
DE
100
AcDbEntity
  8
DXF0
  6
ByBlock
 62
     0
100
AcDbLine
 10
267.7273721243834
 20
410.9555691004011
 30
0.0
 11
267.7273721243834
 21
351.0798412058073
 31
0.0
  0
TEXT
  5
EA
330
DE
100
AcDbEntity
  8
DXF0
  6
ByBlock
 62
     0
100
AcDbText
 10
252.6273720404616
 20
353.5798412058073
 30
0.0
 40
3.099999904632568
  1
25
100
AcDbText
  0
ENDBLK
  5
EB
330
DE
100
AcDbEntity
  8
DXF0
  6
Continuous
 62
     3
100
AcDbBlockEnd
  0
BLOCK
  5
ED
330
EC
100
AcDbEntity
  8
DXF0
  6
Continuous
 62
     3
100
AcDbBlockBegin
  2
*D7
 70
     1
 10
0.0
 20
0.0
 30
0.0
  3
*D7
  1

  0
LINE
  5
EE
330
EC
100
AcDbEntity
  8
DXF0
  6
ByBlock
 62
     0
100
AcDbLine
 10
581.9412277077364
 20
510.7555691123011
 30
0.0
 11
556.497123976148
 21
510.7555691123011
 31
0.0
  0
LINE
  5
EF
330
EC
100
AcDbEntity
  8
DXF0
  6
ByBlock
 62
     0
100
AcDbLine
 10
558.497123976148
 20
510.7555691123011
 30
0.0
 11
558.497123976148
 21
410.7555691123014
 31
0.0
  0
LWPOLYLINE
  5
F0
330
EC
100
AcDbEntity
  8
DXF0
  6
ByBlock
 62
     0
100
AcDbPolyline
 90
        2
 70
     1
 43
0.5
 10
558.747123976148
 20
510.7555691123011
 42
1.0
 10
558.247123976148
 20
510.7555691123011
 42
1.0
  0
LWPOLYLINE
  5
F4
330
EC
100
AcDbEntity
  8
DXF0
  6
ByBlock
 62
     0
100
AcDbPolyline
 90
        2
 70
     1
 43
0.5
 10
558.747123976148
 20
410.7555691123014
 42
1.0
 10
558.247123976148
 20
410.7555691123014
 42
1.0
  0
TEXT
  5
F8
330
EC
100
AcDbEntity
  8
DXF0
  6
ByBlock
 62
     0
100
AcDbText
 10
557.997123976148
 20
456.7605689883236
 30
0.0
 40
3.099999904632568
  1
100
 50
90.0
100
AcDbText
  0
ENDBLK
  5
F9
330
EC
100
AcDbEntity
  8
DXF0
  6
Continuous
 62
     3
100
AcDbBlockEnd
  0
BLOCK
  5
FB
330
FA
100
AcDbEntity
  8
DXF0
  6
Continuous
 62
     3
100
AcDbBlockBegin
  2
*D8
 70
     1
 10
0.0
 20
0.0
 30
0.0
  3
*D8
  1

  0
LINE
  5
FC
330
FA
100
AcDbEntity
  8
DXF0
  6
ByBlock
 62
     0
100
AcDbLine
 10
570.1102546600155
 20
410.7555691123014
 30
0.0
 11
570.1102546600155
 21
420.7555691122906
 31
0.0
  0
LWPOLYLINE
  5
FD
330
FA
100
AcDbEntity
  8
DXF0
  6
ByBlock
 62
     0
100
AcDbPolyline
 90
        2
 70
     1
 43
0.5
 10
570.3602546600154
 20
410.7555691123014
 42
1.0
 10
569.8602546600154
 20
410.7555691123014
 42
1.0
  0
LWPOLYLINE
  5
101
330
FA
100
AcDbEntity
  8
DXF0
  6
ByBlock
 62
     0
100
AcDbPolyline
 90
        2
 70
     1
 43
0.5
 10
570.3602546600154
 20
420.7555691122906
 42
1.0
 10
569.8602546600154
 20
420.7555691122906
 42
1.0
  0
LINE
  5
105
330
FA
100
AcDbEntity
  8
DXF0
  6
ByBlock
 62
     0
100
AcDbLine
 10
577.5526257822909
 20
420.7555691123101
 30
0.0
 11
568.1102546600154
 21
420.7555691122854
 31
0.0
  0
TEXT
  5
106
330
FA
100
AcDbEntity
  8
DXF0
  6
ByBlock
 62
     0
100
AcDbText
 10
569.6102546600155
 20
413.1555690288494
 30
0.0
 40
3.099999904632568
  1
10
 50
90.0
100
AcDbText
  0
ENDBLK
  5
107
330
FA
100
AcDbEntity
  8
DXF0
  6
Continuous
 62
     3
100
AcDbBlockEnd
  0
BLOCK
  5
109
330
108
100
AcDbEntity
  8
DXF0
  6
Continuous
 62
     3
100
AcDbBlockBegin
  2
*D9
 70
     1
 10
0.0
 20
0.0
 30
0.0
  3
*D9
  1

  0
LINE
  5
10A
330
108
100
AcDbEntity
  8
DXF0
  6
ByBlock
 62
     0
100
AcDbLine
 10
579.8895603527471
 20
410.7555691123014
 30
0.0
 11
576.4960643112926
 21
410.7555691123014
 31
0.0
  0
LINE
  5
10B
330
108
100
AcDbEntity
  8
DXF0
  6
ByBlock
 62
     0
100
AcDbLine
 10
578.4960643112927
 20
410.7555691123014
 30
0.0
 11
578.4960643112927
 21
414.9519387602811
 31
0.0
  0
LWPOLYLINE
  5
10C
330
108
100
AcDbEntity
  8
DXF0
  6
ByBlock
 62
     0
100
AcDbPolyline
 90
        2
 70
     1
 43
0.5
 10
578.7460643112926
 20
410.7555691123014
 42
1.0
 10
578.2460643112926
 20
410.7555691123014
 42
1.0
  0
LWPOLYLINE
  5
110
330
108
100
AcDbEntity
  8
DXF0
  6
ByBlock
 62
     0
100
AcDbPolyline
 90
        2
 70
     1
 43
0.5
 10
578.7460643112926
 20
411.7555691123013
 42
1.0
 10
578.2460643112926
 20
411.7555691123013
 42
1.0
  0
LINE
  5
114
330
108
100
AcDbEntity
  8
DXF0
  6
ByBlock
 62
     0
100
AcDbLine
 10
581.9412277077364
 20
411.7555691123013
 30
0.0
 11
576.4960643112926
 21
411.7555691123013
 31
0.0
  0
TEXT
  5
115
330
108
100
AcDbEntity
  8
DXF0
  6
ByBlock
 62
     0
100
AcDbText
 10
577.9960643112927
 20
412.3519387575292
 30
0.0
 40
3.099999904632568
  1
1
 50
90.0
100
AcDbText
  0
ENDBLK
  5
116
330
108
100
AcDbEntity
  8
DXF0
  6
Continuous
 62
     3
100
AcDbBlockEnd
  0
BLOCK
  5
118
330
117
100
AcDbEntity
  8
DXF0
  6
Continuous
 62
     3
100
AcDbBlockBegin
  2
*D10
 70
     1
 10
0.0
 20
0.0
 30
0.0
  3
*D10
  1

  0
LINE
  5
119
330
117
100
AcDbEntity
  8
DXF0
  6
ByBlock
 62
     0
100
AcDbLine
 10
582.7412277196573
 20
511.5555691242222
 30
0.0
 11
582.7412277196573
 21
526.6542334479096
 31
0.0
  0
LINE
  5
11A
330
117
100
AcDbEntity
  8
DXF0
  6
ByBlock
 62
     0
100
AcDbLine
 10
582.7412277196573
 20
524.6542334479096
 30
0.0
 11
632.7412277199536
 21
524.6542334479096
 31
0.0
  0
LWPOLYLINE
  5
11B
330
117
100
AcDbEntity
  8
DXF0
  6
ByBlock
 62
     0
100
AcDbPolyline
 90
        2
 70
     1
 43
0.5
 10
582.9912277196573
 20
524.6542334479096
 42
1.0
 10
582.4912277196573
 20
524.6542334479096
 42
1.0
  0
LWPOLYLINE
  5
11F
330
117
100
AcDbEntity
  8
DXF0
  6
ByBlock
 62
     0
100
AcDbPolyline
 90
        2
 70
     1
 43
0.5
 10
632.9912277199537
 20
524.6542334479096
 42
1.0
 10
632.4912277199537
 20
524.6542334479096
 42
1.0
  0
LINE
  5
123
330
117
100
AcDbEntity
  8
DXF0
  6
ByBlock
 62
     0
100
AcDbLine
 10
632.7412277199536
 20
511.5555691242217
 30
0.0
 11
632.7412277199536
 21
526.6542334479096
 31
0.0
  0
TEXT
  5
124
330
117
100
AcDbEntity
  8
DXF0
  6
ByBlock
 62
     0
100
AcDbText
 10
605.141227636359
 20
525.1542334479096
 30
0.0
 40
3.099999904632568
  1
50
100
AcDbText
  0
ENDBLK
  5
125
330
117
100
AcDbEntity
  8
DXF0
  6
Continuous
 62
     3
100
AcDbBlockEnd
  0
BLOCK
  5
127
330
126
100
AcDbEntity
  8
DXF0
  6
Continuous
 62
     3
100
AcDbBlockBegin
  2
*D11
 70
     1
 10
0.0
 20
0.0
 30
0.0
  3
*D11
  1

  0
LINE
  5
128
330
126
100
AcDbEntity
  8
DXF0
  6
ByBlock
 62
     0
100
AcDbLine
 10
582.7412277196573
 20
410.9555691003803
 30
0.0
 11
582.7412277196573
 21
351.2016224205654
 31
0.0
  0
LINE
  5
129
330
126
100
AcDbEntity
  8
DXF0
  6
ByBlock
 62
     0
100
AcDbLine
 10
582.7412277196573
 20
353.2016224205654
 30
0.0
 11
607.7412277190031
 21
353.2016224205654
 31
0.0
  0
LWPOLYLINE
  5
12A
330
126
100
AcDbEntity
  8
DXF0
  6
ByBlock
 62
     0
100
AcDbPolyline
 90
        2
 70
     1
 43
0.5
 10
582.9912277196573
 20
353.2016224205654
 42
1.0
 10
582.4912277196573
 20
353.2016224205654
 42
1.0
  0
LWPOLYLINE
  5
12E
330
126
100
AcDbEntity
  8
DXF0
  6
ByBlock
 62
     0
100
AcDbPolyline
 90
        2
 70
     1
 43
0.5
 10
607.9912277190032
 20
353.2016224205654
 42
1.0
 10
607.4912277190032
 20
353.2016224205654
 42
1.0
  0
TEXT
  5
132
330
126
100
AcDbEntity
  8
DXF0
  6
ByBlock
 62
     0
100
AcDbText
 10
592.6412276358838
 20
353.7016224205653
 30
0.0
 40
3.099999904632568
  1
25
100
AcDbText
  0
ENDBLK
  5
133
330
126
100
AcDbEntity
  8
DXF0
  6
Continuous
 62
     3
100
AcDbBlockEnd
  0
BLOCK
  5
135
330
134
100
AcDbEntity
  8
DXF0
  6
Continuous
 62
     3
100
AcDbBlockBegin
  2
*D12
 70
     1
 10
0.0
 20
0.0
 30
0.0
  3
*D12
  1

  0
LINE
  5
136
330
134
100
AcDbEntity
  8
DXF0
  6
ByBlock
 62
     0
100
AcDbLine
 10
607.7412277190031
 20
353.2016224205654
 30
0.0
 11
632.7412277199536
 21
353.2016224205654
 31
0.0
  0
LWPOLYLINE
  5
137
330
134
100
AcDbEntity
  8
DXF0
  6
ByBlock
 62
     0
100
AcDbPolyline
 90
        2
 70
     1
 43
0.5
 10
607.9912277190032
 20
353.2016224205654
 42
1.0
 10
607.4912277190032
 20
353.2016224205654
 42
1.0
  0
LWPOLYLINE
  5
13B
330
134
100
AcDbEntity
  8
DXF0
  6
ByBlock
 62
     0
100
AcDbPolyline
 90
        2
 70
     1
 43
0.5
 10
632.9912277199537
 20
353.2016224205654
 42
1.0
 10
632.4912277199537
 20
353.2016224205654
 42
1.0
  0
LINE
  5
13F
330
134
100
AcDbEntity
  8
DXF0
  6
ByBlock
 62
     0
100
AcDbLine
 10
632.7412277199536
 20
410.9555691004011
 30
0.0
 11
632.7412277199536
 21
351.2016224205654
 31
0.0
  0
TEXT
  5
140
330
134
100
AcDbEntity
  8
DXF0
  6
ByBlock
 62
     0
100
AcDbText
 10
617.641227636032
 20
353.7016224205653
 30
0.0
 40
3.099999904632568
  1
25
100
AcDbText
  0
ENDBLK
  5
141
330
134
100
AcDbEntity
  8
DXF0
  6
Continuous
 62
     3
100
AcDbBlockEnd
  0
BLOCK
  5
143
330
142
100
AcDbEntity
  8
DXF0
  6
Continuous
 62
     3
100
AcDbBlockBegin
  2
*D13
 70
     1
 10
0.0
 20
0.0
 30
0.0
  3
*D13
  1

  0
LINE
  5
144
330
142
100
AcDbEntity
  8
DXF0
  6
ByBlock
 62
     0
100
AcDbLine
 10
216.927372112166
 20
258.3364496096258
 30
0.0
 11
194.223877076532
 21
258.3364496096258
 31
0.0
  0
LINE
  5
145
330
142
100
AcDbEntity
  8
DXF0
  6
ByBlock
 62
     0
100
AcDbLine
 10
196.2238770765319
 20
258.3364496096258
 30
0.0
 11
196.2238770765319
 21
158.336449609626
 31
0.0
  0
LWPOLYLINE
  5
146
330
142
100
AcDbEntity
  8
DXF0
  6
ByBlock
 62
     0
100
AcDbPolyline
 90
        2
 70
     1
 43
0.5
 10
196.473877076532
 20
258.3364496096258
 42
1.0
 10
195.9738770765319
 20
258.3364496096258
 42
1.0
  0
LWPOLYLINE
  5
14A
330
142
100
AcDbEntity
  8
DXF0
  6
ByBlock
 62
     0
100
AcDbPolyline
 90
        2
 70
     1
 43
0.5
 10
196.473877076532
 20
158.336449609626
 42
1.0
 10
195.9738770765319
 20
158.336449609626
 42
1.0
  0
TEXT
  5
14E
330
142
100
AcDbEntity
  8
DXF0
  6
ByBlock
 62
     0
100
AcDbText
 10
195.723877076532
 20
204.3414494856482
 30
0.0
 40
3.099999904632568
  1
100
 50
90.0
100
AcDbText
  0
ENDBLK
  5
14F
330
142
100
AcDbEntity
  8
DXF0
  6
Continuous
 62
     3
100
AcDbBlockEnd
  0
BLOCK
  5
151
330
150
100
AcDbEntity
  8
DXF0
  6
Continuous
 62
     3
100
AcDbBlockBegin
  2
*D14
 70
     1
 10
0.0
 20
0.0
 30
0.0
  3
*D14
  1

  0
LINE
  5
152
330
150
100
AcDbEntity
  8
DXF0
  6
ByBlock
 62
     0
100
AcDbLine
 10
206.8872204361401
 20
158.336449609626
 30
0.0
 11
206.8872204361401
 21
168.3364496096368
 31
0.0
  0
LWPOLYLINE
  5
153
330
150
100
AcDbEntity
  8
DXF0
  6
ByBlock
 62
     0
100
AcDbPolyline
 90
        2
 70
     1
 43
0.5
 10
207.1372204361401
 20
158.336449609626
 42
1.0
 10
206.6372204361401
 20
158.336449609626
 42
1.0
  0
LWPOLYLINE
  5
157
330
150
100
AcDbEntity
  8
DXF0
  6
ByBlock
 62
     0
100
AcDbPolyline
 90
        2
 70
     1
 43
0.5
 10
207.1372204361401
 20
168.3364496096368
 42
1.0
 10
206.6372204361401
 20
168.3364496096368
 42
1.0
  0
LINE
  5
15B
330
150
100
AcDbEntity
  8
DXF0
  6
ByBlock
 62
     0
100
AcDbLine
 10
212.5387701867228
 20
168.3364496096368
 30
0.0
 11
204.8872204361401
 21
168.3364496096368
 31
0.0
  0
TEXT
  5
15C
330
150
100
AcDbEntity
  8
DXF0
  6
ByBlock
 62
     0
100
AcDbText
 10
206.3872204361401
 20
160.7364495261849
 30
0.0
 40
3.099999904632568
  1
10
 50
90.0
100
AcDbText
  0
ENDBLK
  5
15D
330
150
100
AcDbEntity
  8
DXF0
  6
Continuous
 62
     3
100
AcDbBlockEnd
  0
BLOCK
  5
15F
330
15E
100
AcDbEntity
  8
DXF0
  6
Continuous
 62
     3
100
AcDbBlockBegin
  2
*D15
 70
     1
 10
0.0
 20
0.0
 30
0.0
  3
*D15
  1

  0
LINE
  5
160
330
15E
100
AcDbEntity
  8
DXF0
  6
ByBlock
 62
     0
100
AcDbLine
 10
213.9056837349318
 20
158.336449609626
 30
0.0
 11
213.9056837349318
 21
162.7378263338691
 31
0.0
  0
LWPOLYLINE
  5
161
330
15E
100
AcDbEntity
  8
DXF0
  6
ByBlock
 62
     0
100
AcDbPolyline
 90
        2
 70
     1
 43
0.5
 10
214.1556837349318
 20
158.336449609626
 42
1.0
 10
213.6556837349318
 20
158.336449609626
 42
1.0
  0
LWPOLYLINE
  5
165
330
15E
100
AcDbEntity
  8
DXF0
  6
ByBlock
 62
     0
100
AcDbPolyline
 90
        2
 70
     1
 43
0.5
 10
214.1556837349318
 20
159.3364496096259
 42
1.0
 10
213.6556837349318
 20
159.3364496096259
 42
1.0
  0
LINE
  5
169
330
15E
100
AcDbEntity
  8
DXF0
  6
ByBlock
 62
     0
100
AcDbLine
 10
216.927372112166
 20
159.3364496096259
 30
0.0
 11
211.9056837349318
 21
159.3364496096259
 31
0.0
  0
TEXT
  5
16A
330
15E
100
AcDbEntity
  8
DXF0
  6
ByBlock
 62
     0
100
AcDbText
 10
213.4056837349318
 20
160.137826251729
 30
0.0
 40
3.099999904632568
  1
1
 50
90.0
100
AcDbText
  0
ENDBLK
  5
16B
330
15E
100
AcDbEntity
  8
DXF0
  6
Continuous
 62
     3
100
AcDbBlockEnd
  0
BLOCK
  5
16D
330
16C
100
AcDbEntity
  8
DXF0
  6
Continuous
 62
     3
100
AcDbBlockBegin
  2
*D16
 70
     1
 10
0.0
 20
0.0
 30
0.0
  3
*D16
  1

  0
LINE
  5
16E
330
16C
100
AcDbEntity
  8
DXF0
  6
ByBlock
 62
     0
100
AcDbLine
 10
217.7273721240869
 20
259.1364496215468
 30
0.0
 11
217.7273721240869
 21
271.0397750432966
 31
0.0
  0
LINE
  5
16F
330
16C
100
AcDbEntity
  8
DXF0
  6
ByBlock
 62
     0
100
AcDbLine
 10
217.7273721240869
 20
269.0397750432966
 30
0.0
 11
267.7273721243835
 21
269.0397750432966
 31
0.0
  0
LWPOLYLINE
  5
170
330
16C
100
AcDbEntity
  8
DXF0
  6
ByBlock
 62
     0
100
AcDbPolyline
 90
        2
 70
     1
 43
0.5
 10
217.9773721240869
 20
269.0397750432966
 42
1.0
 10
217.4773721240869
 20
269.0397750432966
 42
1.0
  0
LWPOLYLINE
  5
174
330
16C
100
AcDbEntity
  8
DXF0
  6
ByBlock
 62
     0
100
AcDbPolyline
 90
        2
 70
     1
 43
0.5
 10
267.9773721243835
 20
269.0397750432966
 42
1.0
 10
267.4773721243835
 20
269.0397750432966
 42
1.0
  0
LINE
  5
178
330
16C
100
AcDbEntity
  8
DXF0
  6
ByBlock
 62
     0
100
AcDbLine
 10
267.7273721243835
 20
259.1364496215464
 30
0.0
 11
267.7273721243835
 21
271.0397750432966
 31
0.0
  0
TEXT
  5
179
330
16C
100
AcDbEntity
  8
DXF0
  6
ByBlock
 62
     0
100
AcDbText
 10
240.1273720407887
 20
269.5397750432966
 30
0.0
 40
3.099999904632568
  1
50
100
AcDbText
  0
ENDBLK
  5
17A
330
16C
100
AcDbEntity
  8
DXF0
  6
Continuous
 62
     3
100
AcDbBlockEnd
  0
BLOCK
  5
17C
330
17B
100
AcDbEntity
  8
DXF0
  6
Continuous
 62
     3
100
AcDbBlockBegin
  2
*D17
 70
     1
 10
0.0
 20
0.0
 30
0.0
  3
*D17
  1

  0
LINE
  5
17D
330
17B
100
AcDbEntity
  8
DXF0
  6
ByBlock
 62
     0
100
AcDbLine
 10
217.7273721240869
 20
158.536449597705
 30
0.0
 11
217.7273721240869
 21
83.68302340851696
 31
0.0
  0
LINE
  5
17E
330
17B
100
AcDbEntity
  8
DXF0
  6
ByBlock
 62
     0
100
AcDbLine
 10
217.7273721240869
 20
85.68302340851698
 30
0.0
 11
242.7273721234328
 21
85.68302340851698
 31
0.0
  0
LWPOLYLINE
  5
17F
330
17B
100
AcDbEntity
  8
DXF0
  6
ByBlock
 62
     0
100
AcDbPolyline
 90
        2
 70
     1
 43
0.5
 10
217.9773721240869
 20
85.68302340851698
 42
1.0
 10
217.4773721240869
 20
85.68302340851698
 42
1.0
  0
LWPOLYLINE
  5
183
330
17B
100
AcDbEntity
  8
DXF0
  6
ByBlock
 62
     0
100
AcDbPolyline
 90
        2
 70
     1
 43
0.5
 10
242.9773721234328
 20
85.68302340851698
 42
1.0
 10
242.4773721234328
 20
85.68302340851698
 42
1.0
  0
LINE
  5
187
330
17B
100
AcDbEntity
  8
DXF0
  6
ByBlock
 62
     0
100
AcDbLine
 10
242.7273721234328
 20
110.9663940385101
 30
0.0
 11
242.7273721234328
 21
83.68302340851696
 31
0.0
  0
TEXT
  5
188
330
17B
100
AcDbEntity
  8
DXF0
  6
ByBlock
 62
     0
100
AcDbText
 10
227.6273720403133
 20
86.18302340851696
 30
0.0
 40
3.099999904632568
  1
25
100
AcDbText
  0
ENDBLK
  5
189
330
17B
100
AcDbEntity
  8
DXF0
  6
Continuous
 62
     3
100
AcDbBlockEnd
  0
BLOCK
  5
18B
330
18A
100
AcDbEntity
  8
DXF0
  6
Continuous
 62
     3
100
AcDbBlockBegin
  2
*D18
 70
     1
 10
0.0
 20
0.0
 30
0.0
  3
*D18
  1

  0
LINE
  5
18C
330
18A
100
AcDbEntity
  8
DXF0
  6
ByBlock
 62
     0
100
AcDbLine
 10
242.7273721234328
 20
110.9663940385101
 30
0.0
 11
242.7273721234328
 21
83.68302340851696
 31
0.0
  0
LINE
  5
18D
330
18A
100
AcDbEntity
  8
DXF0
  6
ByBlock
 62
     0
100
AcDbLine
 10
242.7273721234328
 20
85.68302340851698
 30
0.0
 11
267.7273721243834
 21
85.68302340851698
 31
0.0
  0
LWPOLYLINE
  5
18E
330
18A
100
AcDbEntity
  8
DXF0
  6
ByBlock
 62
     0
100
AcDbPolyline
 90
        2
 70
     1
 43
0.5
 10
242.9773721234328
 20
85.68302340851698
 42
1.0
 10
242.4773721234328
 20
85.68302340851698
 42
1.0
  0
LWPOLYLINE
  5
192
330
18A
100
AcDbEntity
  8
DXF0
  6
ByBlock
 62
     0
100
AcDbPolyline
 90
        2
 70
     1
 43
0.5
 10
267.9773721243834
 20
85.68302340851698
 42
1.0
 10
267.4773721243834
 20
85.68302340851698
 42
1.0
  0
LINE
  5
196
330
18A
100
AcDbEntity
  8
DXF0
  6
ByBlock
 62
     0
100
AcDbLine
 10
267.7273721243834
 20
158.5364495977259
 30
0.0
 11
267.7273721243834
 21
83.68302340851696
 31
0.0
  0
TEXT
  5
197
330
18A
100
AcDbEntity
  8
DXF0
  6
ByBlock
 62
     0
100
AcDbText
 10
252.6273720404616
 20
86.18302340851696
 30
0.0
 40
3.099999904632568
  1
25
100
AcDbText
  0
ENDBLK
  5
198
330
18A
100
AcDbEntity
  8
DXF0
  6
Continuous
 62
     3
100
AcDbBlockEnd
  0
BLOCK
  5
19A
330
199
100
AcDbEntity
  8
DXF0
  6
Continuous
 62
     3
100
AcDbBlockBegin
  2
*D19
 70
     1
 10
0.0
 20
0.0
 30
0.0
  3
*D19
  1

  0
LINE
  5
19B
330
199
100
AcDbEntity
  8
DXF0
  6
ByBlock
 62
     0
100
AcDbLine
 10
557.4407471900565
 20
156.8364496096263
 30
0.0
 11
557.4407471900565
 21
256.8364496096261
 31
0.0
  0
LWPOLYLINE
  5
19C
330
199
100
AcDbEntity
  8
DXF0
  6
ByBlock
 62
     0
100
AcDbPolyline
 90
        2
 70
     1
 43
0.5
 10
557.6907471900565
 20
156.8364496096263
 42
1.0
 10
557.1907471900565
 20
156.8364496096263
 42
1.0
  0
LWPOLYLINE
  5
1A0
330
199
100
AcDbEntity
  8
DXF0
  6
ByBlock
 62
     0
100
AcDbPolyline
 90
        2
 70
     1
 43
0.5
 10
557.6907471900565
 20
256.8364496096261
 42
1.0
 10
557.1907471900565
 20
256.8364496096261
 42
1.0
  0
LINE
  5
1A4
330
199
100
AcDbEntity
  8
DXF0
  6
ByBlock
 62
     0
100
AcDbLine
 10
581.9412277077364
 20
256.8364496096261
 30
0.0
 11
555.4407471900565
 21
256.8364496096261
 31
0.0
  0
TEXT
  5
1A5
330
199
100
AcDbEntity
  8
DXF0
  6
ByBlock
 62
     0
100
AcDbText
 10
556.9407471900565
 20
202.8414494856486
 30
0.0
 40
3.099999904632568
  1
100
 50
90.0
100
AcDbText
  0
ENDBLK
  5
1A6
330
199
100
AcDbEntity
  8
DXF0
  6
Continuous
 62
     3
100
AcDbBlockEnd
  0
BLOCK
  5
1A8
330
1A7
100
AcDbEntity
  8
DXF0
  6
Continuous
 62
     3
100
AcDbBlockBegin
  2
*D20
 70
     1
 10
0.0
 20
0.0
 30
0.0
  3
*D20
  1

  0
LINE
  5
1A9
330
1A7
100
AcDbEntity
  8
DXF0
  6
ByBlock
 62
     0
100
AcDbLine
 10
570.3210733871642
 20
156.8364496096263
 30
0.0
 11
570.3210733871642
 21
166.836449609637
 31
0.0
  0
LWPOLYLINE
  5
1AA
330
1A7
100
AcDbEntity
  8
DXF0
  6
ByBlock
 62
     0
100
AcDbPolyline
 90
        2
 70
     1
 43
0.5
 10
570.5710733871642
 20
156.8364496096263
 42
1.0
 10
570.0710733871642
 20
156.8364496096263
 42
1.0
  0
LWPOLYLINE
  5
1AE
330
1A7
100
AcDbEntity
  8
DXF0
  6
ByBlock
 62
     0
100
AcDbPolyline
 90
        2
 70
     1
 43
0.5
 10
570.5710733871642
 20
166.836449609637
 42
1.0
 10
570.0710733871642
 20
166.836449609637
 42
1.0
  0
LINE
  5
1B2
330
1A7
100
AcDbEntity
  8
DXF0
  6
ByBlock
 62
     0
100
AcDbLine
 10
577.5526257822914
 20
166.836449609637
 30
0.0
 11
568.3210733871642
 21
166.836449609637
 31
0.0
  0
TEXT
  5
1B3
330
1A7
100
AcDbEntity
  8
DXF0
  6
ByBlock
 62
     0
100
AcDbText
 10
569.8210733871642
 20
159.2364495261852
 30
0.0
 40
3.099999904632568
  1
10
 50
90.0
100
AcDbText
  0
ENDBLK
  5
1B4
330
1A7
100
AcDbEntity
  8
DXF0
  6
Continuous
 62
     3
100
AcDbBlockEnd
  0
BLOCK
  5
1B6
330
1B5
100
AcDbEntity
  8
DXF0
  6
Continuous
 62
     3
100
AcDbBlockBegin
  2
*D21
 70
     1
 10
0.0
 20
0.0
 30
0.0
  3
*D21
  1

  0
LINE
  5
1B7
330
1B5
100
AcDbEntity
  8
DXF0
  6
ByBlock
 62
     0
100
AcDbLine
 10
578.0386902659667
 20
156.8364496096263
 30
0.0
 11
578.0386902659667
 21
161.4447972639689
 31
0.0
  0
LWPOLYLINE
  5
1B8
330
1B5
100
AcDbEntity
  8
DXF0
  6
ByBlock
 62
     0
100
AcDbPolyline
 90
        2
 70
     1
 43
0.5
 10
578.2886902659667
 20
156.8364496096263
 42
1.0
 10
577.7886902659666
 20
156.8364496096263
 42
1.0
  0
LWPOLYLINE
  5
1BC
330
1B5
100
AcDbEntity
  8
DXF0
  6
ByBlock
 62
     0
100
AcDbPolyline
 90
        2
 70
     1
 43
0.5
 10
578.2886902659667
 20
157.8364496096262
 42
1.0
 10
577.7886902659666
 20
157.8364496096262
 42
1.0
  0
LINE
  5
1C0
330
1B5
100
AcDbEntity
  8
DXF0
  6
ByBlock
 62
     0
100
AcDbLine
 10
581.9412277077364
 20
157.8364496096262
 30
0.0
 11
576.0386902659667
 21
157.8364496096262
 31
0.0
  0
TEXT
  5
1C1
330
1B5
100
AcDbEntity
  8
DXF0
  6
ByBlock
 62
     0
100
AcDbText
 10
577.5386902659667
 20
158.8447971340298
 30
0.0
 40
3.099999904632568
  1
1
 50
90.0
100
AcDbText
  0
ENDBLK
  5
1C2
330
1B5
100
AcDbEntity
  8
DXF0
  6
Continuous
 62
     3
100
AcDbBlockEnd
  0
BLOCK
  5
1C4
330
1C3
100
AcDbEntity
  8
DXF0
  6
Continuous
 62
     3
100
AcDbBlockBegin
  2
*D22
 70
     1
 10
0.0
 20
0.0
 30
0.0
  3
*D22
  1

  0
LINE
  5
1C5
330
1C3
100
AcDbEntity
  8
DXF0
  6
ByBlock
 62
     0
100
AcDbLine
 10
582.7412277196573
 20
257.6364496215472
 30
0.0
 11
582.7412277196573
 21
272.4484251036254
 31
0.0
  0
LINE
  5
1C6
330
1C3
100
AcDbEntity
  8
DXF0
  6
ByBlock
 62
     0
100
AcDbLine
 10
582.7412277196573
 20
270.4484251036254
 30
0.0
 11
632.7412277199536
 21
270.4484251036254
 31
0.0
  0
LWPOLYLINE
  5
1C7
330
1C3
100
AcDbEntity
  8
DXF0
  6
ByBlock
 62
     0
100
AcDbPolyline
 90
        2
 70
     1
 43
0.5
 10
582.9912277196573
 20
270.4484251036254
 42
1.0
 10
582.4912277196573
 20
270.4484251036254
 42
1.0
  0
LWPOLYLINE
  5
1CB
330
1C3
100
AcDbEntity
  8
DXF0
  6
ByBlock
 62
     0
100
AcDbPolyline
 90
        2
 70
     1
 43
0.5
 10
632.9912277199537
 20
270.4484251036254
 42
1.0
 10
632.4912277199537
 20
270.4484251036254
 42
1.0
  0
LINE
  5
1CF
330
1C3
100
AcDbEntity
  8
DXF0
  6
ByBlock
 62
     0
100
AcDbLine
 10
632.7412277199536
 20
257.6364496215467
 30
0.0
 11
632.7412277199536
 21
272.4484251036254
 31
0.0
  0
TEXT
  5
1D0
330
1C3
100
AcDbEntity
  8
DXF0
  6
ByBlock
 62
     0
100
AcDbText
 10
605.141227636359
 20
270.9484251036254
 30
0.0
 40
3.099999904632568
  1
50
100
AcDbText
  0
ENDBLK
  5
1D1
330
1C3
100
AcDbEntity
  8
DXF0
  6
Continuous
 62
     3
100
AcDbBlockEnd
  0
BLOCK
  5
1D3
330
1D2
100
AcDbEntity
  8
DXF0
  6
Continuous
 62
     3
100
AcDbBlockBegin
  2
*D23
 70
     1
 10
0.0
 20
0.0
 30
0.0
  3
*D23
  1

  0
LINE
  5
1D4
330
1D2
100
AcDbEntity
  8
DXF0
  6
ByBlock
 62
     0
100
AcDbLine
 10
582.7412277196573
 20
157.0364495977053
 30
0.0
 11
582.7412277196573
 21
111.3041648356053
 31
0.0
  0
LINE
  5
1D5
330
1D2
100
AcDbEntity
  8
DXF0
  6
ByBlock
 62
     0
100
AcDbLine
 10
582.7412277196573
 20
113.3041648356053
 30
0.0
 11
607.7412277190031
 21
113.3041648356053
 31
0.0
  0
LWPOLYLINE
  5
1D6
330
1D2
100
AcDbEntity
  8
DXF0
  6
ByBlock
 62
     0
100
AcDbPolyline
 90
        2
 70
     1
 43
0.5
 10
582.9912277196573
 20
113.3041648356053
 42
1.0
 10
582.4912277196573
 20
113.3041648356053
 42
1.0
  0
LWPOLYLINE
  5
1DA
330
1D2
100
AcDbEntity
  8
DXF0
  6
ByBlock
 62
     0
100
AcDbPolyline
 90
        2
 70
     1
 43
0.5
 10
607.9912277190032
 20
113.3041648356053
 42
1.0
 10
607.4912277190032
 20
113.3041648356053
 42
1.0
  0
LINE
  5
1DE
330
1D2
100
AcDbEntity
  8
DXF0
  6
ByBlock
 62
     0
100
AcDbLine
 10
607.7412277190031
 20
113.8259138931143
 30
0.0
 11
607.7412277190031
 21
111.3041648356053
 31
0.0
  0
TEXT
  5
1DF
330
1D2
100
AcDbEntity
  8
DXF0
  6
ByBlock
 62
     0
100
AcDbText
 10
592.6412276358838
 20
113.8041648356053
 30
0.0
 40
3.099999904632568
  1
25
100
AcDbText
  0
ENDBLK
  5
1E0
330
1D2
100
AcDbEntity
  8
DXF0
  6
Continuous
 62
     3
100
AcDbBlockEnd
  0
BLOCK
  5
1E2
330
1E1
100
AcDbEntity
  8
DXF0
  6
Continuous
 62
     3
100
AcDbBlockBegin
  2
*D24
 70
     1
 10
0.0
 20
0.0
 30
0.0
  3
*D24
  1

  0
LINE
  5
1E3
330
1E1
100
AcDbEntity
  8
DXF0
  6
ByBlock
 62
     0
100
AcDbLine
 10
607.7412277190031
 20
113.8259138931143
 30
0.0
 11
607.7412277190031
 21
111.3041648356053
 31
0.0
  0
LINE
  5
1E4
330
1E1
100
AcDbEntity
  8
DXF0
  6
ByBlock
 62
     0
100
AcDbLine
 10
607.7412277190031
 20
113.3041648356053
 30
0.0
 11
632.7412277199536
 21
113.3041648356053
 31
0.0
  0
LWPOLYLINE
  5
1E5
330
1E1
100
AcDbEntity
  8
DXF0
  6
ByBlock
 62
     0
100
AcDbPolyline
 90
        2
 70
     1
 43
0.5
 10
607.9912277190032
 20
113.3041648356053
 42
1.0
 10
607.4912277190032
 20
113.3041648356053
 42
1.0
  0
LWPOLYLINE
  5
1E9
330
1E1
100
AcDbEntity
  8
DXF0
  6
ByBlock
 62
     0
100
AcDbPolyline
 90
        2
 70
     1
 43
0.5
 10
632.9912277199537
 20
113.3041648356053
 42
1.0
 10
632.4912277199537
 20
113.3041648356053
 42
1.0
  0
LINE
  5
1ED
330
1E1
100
AcDbEntity
  8
DXF0
  6
ByBlock
 62
     0
100
AcDbLine
 10
632.7412277199536
 20
157.0364495977262
 30
0.0
 11
632.7412277199536
 21
111.3041648356053
 31
0.0
  0
TEXT
  5
1EE
330
1E1
100
AcDbEntity
  8
DXF0
  6
ByBlock
 62
     0
100
AcDbText
 10
617.641227636032
 20
113.8041648356053
 30
0.0
 40
3.099999904632568
  1
25
100
AcDbText
  0
ENDBLK
  5
1EF
330
1E1
100
AcDbEntity
  8
DXF0
  6
Continuous
 62
     3
100
AcDbBlockEnd
  0
ENDSEC
  0
SECTION
  2
ENTITIES
  0
LINE
  5
1F0
330
6F
100
AcDbEntity
  8
KUTAI
  6
Continuous
100
AcDbLine
 10
517.4856009406731
 20
310.7555691123014
 30
0.0
 11
692.665189448772
 21
310.7555691123014
 31
0.0
  0
LINE
  5
1F1
330
6F
100
AcDbEntity
  8
KUTAI
  6
Continuous
100
AcDbLine
 10
284.0129803851768
 20
374.6987978358873
 30
0.0
 11
320.0697516615907
 21
410.7555691123013
 31
0.0
  0
LINE
  5
1F2
330
6F
100
AcDbEntity
  8
KUTAI
  6
Continuous
100
AcDbLine
 10
276.9419125733111
 20
374.698797835887
 30
0.0
 11
312.9986838497251
 21
410.7555691123013
 31
0.0
  0
LINE
  5
1F3
330
6F
100
AcDbEntity
  8
KUTAI
  6
Continuous
100
AcDbLine
 10
269.8708447614457
 20
374.6987978358873
 30
0.0
 11
305.9276160378598
 21
410.7555691123014
 31
0.0
  0
LINE
  5
1F4
330
6F
100
AcDbEntity
  8
KUTAI
  6
Continuous
100
AcDbLine
 10
148.4647851474592
 20
374.6987978358871
 30
0.0
 11
184.5215564238731
 21
410.755569112301
 31
0.0
  0
LINE
  5
1F5
330
6F
100
AcDbEntity
  8
KUTAI
  6
Continuous
100
AcDbLine
 10
141.3937173355937
 20
374.6987978358873
 30
0.0
 11
177.4504886120079
 21
410.7555691123013
 31
0.0
  0
LINE
  5
1F6
330
6F
100
AcDbEntity
  8
KUTAI
  6
Continuous
100
AcDbLine
 10
134.3226495237282
 20
374.6987978358871
 30
0.0
 11
170.3794208001424
 21
410.7555691123014
 31
0.0
  0
LINE
  5
1F7
330
6F
100
AcDbEntity
  8
KUTAI
  6
Continuous
100
AcDbLine
 10
572.1209905521602
 20
310.7555691123015
 30
0.0
 11
672.12099055216
 21
410.7555691123014
 31
0.0
  0
LINE
  5
1F8
330
6F
100
AcDbEntity
  8
KUTAI
  6
Continuous
100
AcDbLine
 10
565.0499227402947
 20
310.7555691123015
 30
0.0
 11
665.0499227402945
 21
410.7555691123013
 31
0.0
  0
LINE
  5
1F9
330
6F
100
AcDbEntity
  8
WASHER
  6
HIDDEN
100
AcDbLine
 10
610.9412277190032
 20
412.2555691123013
 30
0.0
 11
610.9412277190032
 21
414.2555691123079
 31
0.0
  0
LINE
  5
1FA
330
6F
100
AcDbEntity
  8
WASHER
  6
HIDDEN
100
AcDbLine
 10
604.5412277190032
 20
412.2555691123013
 30
0.0
 11
604.5412277190032
 21
414.2555691122943
 31
0.0
  0
LINE
  5
1FB
330
6F
100
AcDbEntity
  8
ANCHOR
  6
HIDDEN
100
AcDbLine
 10
604.7412277190032
 20
404.1158044133073
 30
0.0
 11
604.7412277190032
 21
414.2555691123014
 31
0.0
  0
LINE
  5
1FC
330
6F
100
AcDbEntity
  8
ANCHOR
  6
HIDDEN
100
AcDbLine
 10
610.7412277190031
 20
404.1158044133073
 30
0.0
 11
610.7412277190031
 21
414.2555691123014
 31
0.0
  0
LINE
  5
1FD
330
6F
100
AcDbEntity
  8
ANCHOR
  6
CENTER
100
AcDbLine
 10
607.7412277190031
 20
114.6259139050352
 30
0.0
 11
607.7412277190031
 21
170.3068162692735
 31
0.0
  0
LINE
  5
1FE
330
6F
100
AcDbEntity
  8
WASHER
  6
Continuous
100
AcDbLine
 10
592.7412277190032
 20
160.3364496096261
 30
0.0
 11
622.7412277190031
 21
160.3364496096261
 31
0.0
  0
LINE
  5
1FF
330
6F
100
AcDbEntity
  8
WASHER
  6
Continuous
100
AcDbLine
 10
622.7412277190031
 20
158.3364496096261
 30
0.0
 11
622.7412277190031
 21
160.3364496096261
 31
0.0
  0
LINE
  5
200
330
6F
100
AcDbEntity
  8
WASHER
  6
Continuous
100
AcDbLine
 10
592.7412277190032
 20
158.3364496096261
 30
0.0
 11
592.7412277190032
 21
160.3364496096261
 31
0.0
  0
LINE
  5
201
330
6F
100
AcDbEntity
  8
ANCHOR
  6
CENTER
100
AcDbLine
 10
596.8015886547852
 20
166.8364496096154
 30
0.0
 11
578.3526257942123
 21
166.836449609637
 31
0.0
  0
LINE
  5
202
330
6F
100
AcDbEntity
  8
ANCHOR
  6
HIDDEN
100
AcDbLine
 10
592.2412277201555
 20
168.8364496097414
 30
0.0
 11
582.7412277188267
 21
168.8364496097818
 31
0.0
  0
LINE
  5
203
330
6F
100
AcDbEntity
  8
ANCHOR
  6
HIDDEN
100
AcDbLine
 10
592.2412277207105
 20
164.8364496097414
 30
0.0
 11
582.741227718811
 21
164.8364496097818
 31
0.0
  0
LINE
  5
204
330
6F
100
AcDbEntity
  8
ANCHOR
  6
HIDDEN
100
AcDbLine
 10
595.1638774509205
 20
167.83644960975
 30
0.0
 11
593.241227720166
 21
167.8364496097461
 31
0.0
  0
LINE
  5
205
330
6F
100
AcDbEntity
  8
ANCHOR
  6
HIDDEN
100
AcDbLine
 10
595.1638774511165
 20
165.83644960975
 30
0.0
 11
593.2412277207039
 21
165.8364496097461
 31
0.0
  0
LINE
  5
206
330
6F
100
AcDbEntity
  8
ANCHOR
  6
HIDDEN
100
AcDbLine
 10
595.7412277202085
 20
166.8364496095899
 30
0.0
 11
595.163877450921
 21
167.8364496097506
 31
0.0
  0
LINE
  5
207
330
6F
100
AcDbEntity
  8
ANCHOR
  6
HIDDEN
100
AcDbLine
 10
595.1638774511174
 20
165.836449609751
 30
0.0
 11
595.7412277202092
 21
166.8364496095899
 31
0.0
  0
ARC
  5
208
330
6F
100
AcDbEntity
  8
ANCHOR
  6
HIDDEN
100
AcDbCircle
 10
593.7412277207133
 20
166.8364496097483
 30
0.0
 40
0.5
100
AcDbArc
 50
97.20679386168658
 51
262.7932061387912
  0
LINE
  5
209
330
6F
100
AcDbEntity
  8
ANCHOR
  6
HIDDEN
100
AcDbLine
 10
593.6785022842484
 20
166.3403996932873
 30
0.0
 11
595.1638774511166
 21
165.8364496097495
 31
0.0
  0
LINE
  5
20A
330
6F
100
AcDbEntity
  8
ANCHOR
  6
HIDDEN
100
AcDbLine
 10
593.6785022842448
 20
167.3324995262081
 30
0.0
 11
595.1638774509206
 21
167.8364496097502
 31
0.0
  0
LINE
  5
20B
330
6F
100
AcDbEntity
  8
ANCHOR
  6
HIDDEN
100
AcDbLine
 10
593.2412277201644
 20
167.8364496097457
 30
0.0
 11
592.2412277201551
 21
168.8364496097429
 31
0.0
  0
LINE
  5
20C
330
6F
100
AcDbEntity
  8
ANCHOR
  6
HIDDEN
100
AcDbLine
 10
592.2412277207106
 20
164.8364496097448
 30
0.0
 11
593.241227720703
 21
165.8364496097448
 31
0.0
  0
LINE
  5
20D
330
6F
100
AcDbEntity
  8
ANCHOR
  6
HIDDEN
100
AcDbLine
 10
592.2412277204419
 20
164.8364496097438
 30
0.0
 11
592.2412277204272
 21
168.8364496097438
 31
0.0
  0
LINE
  5
20E
330
6F
100
AcDbEntity
  8
ANCHOR
  6
HIDDEN
100
AcDbLine
 10
593.2412277202072
 20
165.8364496097438
 30
0.0
 11
593.241227720198
 21
167.8364496097438
 31
0.0
  0
LINE
  5
20F
330
6F
100
AcDbEntity
  8
ANCHOR
  6
HIDDEN
100
AcDbLine
 10
593.0412277207056
 20
165.6364496097443
 30
0.0
 11
582.7412277188151
 21
165.6364496097854
 31
0.0
  0
LINE
  5
210
330
6F
100
AcDbEntity
  8
ANCHOR
  6
HIDDEN
100
AcDbLine
 10
593.0412277201646
 20
168.0364496097439
 30
0.0
 11
582.7412277188242
 21
168.036449609785
 31
0.0
  0
LINE
  5
211
330
6F
100
AcDbEntity
  8
ANCHOR
  6
Continuous
100
AcDbLine
 10
580.7189171376769
 20
167.3346478573742
 30
0.0
 11
580.7189171376774
 21
166.338251361892
 31
0.0
  0
LINE
  5
212
330
6F
100
AcDbEntity
  8
ANCHOR
  6
Continuous
100
AcDbLine
 10
580.7189171376767
 20
167.3346478573744
 30
0.0
 11
580.2412277190024
 21
167.3346478573744
 31
0.0
  0
LINE
  5
213
330
6F
100
AcDbEntity
  8
ANCHOR
  6
Continuous
100
AcDbLine
 10
580.7189171376771
 20
166.3382513618922
 30
0.0
 11
580.2412277190027
 21
166.3382513618922
 31
0.0
  0
LINE
  5
214
330
6F
100
AcDbEntity
  8
ANCHOR
  6
Continuous
100
AcDbLine
 10
582.241227719019
 20
162.1364496096311
 30
0.0
 11
582.741227719019
 21
162.1364496096316
 31
0.0
  0
ARC
  5
215
330
6F
100
AcDbEntity
  8
ANCHOR
  6
Continuous
100
AcDbCircle
 10
586.3326931133253
 20
166.6608181763158
 30
0.0
 40
6.099999999999999
100
AcDbArc
 50
183.0312034848472
 51
227.876411461438
  0
LINE
  5
216
330
6F
100
AcDbEntity
  8
ANCHOR
  6
Continuous
100
AcDbLine
 10
582.2412277189852
 20
171.5364496096331
 30
0.0
 11
582.2412277190201
 21
162.1364496096315
 31
0.0
  0
ARC
  5
217
330
6F
100
AcDbEntity
  8
ANCHOR
  6
Continuous
100
AcDbCircle
 10
586.3326931133253
 20
167.0120810429535
 30
0.0
 40
6.099999999999999
100
AcDbArc
 50
132.1235885386251
 51
176.9687965152159
  0
LINE
  5
218
330
6F
100
AcDbEntity
  8
ANCHOR
  6
Continuous
100
AcDbLine
 10
582.741227718986
 20
171.5364496096344
 30
0.0
 11
582.7412277190208
 21
162.136449609633
 31
0.0
  0
LINE
  5
219
330
6F
100
AcDbEntity
  8
ANCHOR
  6
Continuous
100
AcDbLine
 10
582.2412277190148
 20
171.5364496096328
 30
0.0
 11
582.7412277190148
 21
171.5364496096331
 31
0.0
  0
LINE
  5
21A
330
6F
100
AcDbEntity
  8
WASHER
  6
Continuous
100
AcDbLine
 10
592.7412277190032
 20
158.3364496096261
 30
0.0
 11
622.7412277190031
 21
158.3364496096261
 31
0.0
  0
LINE
  5
21B
330
6F
100
AcDbEntity
  8
WASHER
  6
HIDDEN
100
AcDbLine
 10
610.9412277190032
 20
158.336449609626
 30
0.0
 11
610.9412277190032
 21
160.3364496096327
 31
0.0
  0
LINE
  5
21C
330
6F
100
AcDbEntity
  8
WASHER
  6
HIDDEN
100
AcDbLine
 10
604.5412277190033
 20
158.336449609626
 30
0.0
 11
604.5412277190033
 21
160.3364496096191
 31
0.0
  0
LINE
  5
21D
330
6F
100
AcDbEntity
  8
KUTAI
  6
Continuous
100
AcDbLine
 10
132.4720475945935
 20
158.336449609626
 30
0.0
 11
334.6456117066339
 21
158.336449609626
 31
0.0
  0
LINE
  5
21E
330
6F
100
AcDbEntity
  8
ANCHOR
  6
CENTER
100
AcDbLine
 10
242.7273721234328
 20
111.766394050431
 30
0.0
 11
242.7273721234328
 21
171.8068162692732
 31
0.0
  0
LINE
  5
21F
330
6F
100
AcDbEntity
  8
WASHER
  6
Continuous
100
AcDbLine
 10
227.7273721234328
 20
161.8364496096258
 30
0.0
 11
257.7273721234328
 21
161.8364496096258
 31
0.0
  0
LINE
  5
220
330
6F
100
AcDbEntity
  8
WASHER
  6
Continuous
100
AcDbLine
 10
257.7273721234328
 20
159.8364496096258
 30
0.0
 11
257.7273721234328
 21
161.8364496096258
 31
0.0
  0
LINE
  5
221
330
6F
100
AcDbEntity
  8
WASHER
  6
Continuous
100
AcDbLine
 10
227.7273721234328
 20
159.8364496096258
 30
0.0
 11
227.7273721234328
 21
161.8364496096258
 31
0.0
  0
LINE
  5
222
330
6F
100
AcDbEntity
  8
ANCHOR
  6
CENTER
100
AcDbLine
 10
231.7877330592167
 20
168.3364496096151
 30
0.0
 11
213.3387701986437
 21
168.3364496096368
 31
0.0
  0
LINE
  5
223
330
6F
100
AcDbEntity
  8
ANCHOR
  6
HIDDEN
100
AcDbLine
 10
227.2273721245868
 20
170.3364496097411
 30
0.0
 11
217.727372123258
 21
170.3364496097814
 31
0.0
  0
LINE
  5
224
330
6F
100
AcDbEntity
  8
ANCHOR
  6
HIDDEN
100
AcDbLine
 10
227.2273721251419
 20
166.3364496097411
 30
0.0
 11
217.7273721232424
 21
166.3364496097814
 31
0.0
  0
LINE
  5
225
330
6F
100
AcDbEntity
  8
ANCHOR
  6
HIDDEN
100
AcDbLine
 10
230.150021855352
 20
169.3364496097496
 30
0.0
 11
228.2273721245974
 21
169.3364496097457
 31
0.0
  0
LINE
  5
226
330
6F
100
AcDbEntity
  8
ANCHOR
  6
HIDDEN
100
AcDbLine
 10
230.1500218555479
 20
167.3364496097496
 30
0.0
 11
228.2273721251354
 21
167.3364496097457
 31
0.0
  0
LINE
  5
227
330
6F
100
AcDbEntity
  8
ANCHOR
  6
HIDDEN
100
AcDbLine
 10
230.7273721246398
 20
168.3364496095895
 30
0.0
 11
230.1500218553523
 21
169.3364496097502
 31
0.0
  0
LINE
  5
228
330
6F
100
AcDbEntity
  8
ANCHOR
  6
HIDDEN
100
AcDbLine
 10
230.1500218555486
 20
167.3364496097509
 30
0.0
 11
230.7273721246403
 21
168.3364496095898
 31
0.0
  0
ARC
  5
229
330
6F
100
AcDbEntity
  8
ANCHOR
  6
HIDDEN
100
AcDbCircle
 10
228.7273721251447
 20
168.336449609748
 30
0.0
 40
0.5
100
AcDbArc
 50
97.20679386168658
 51
262.7932061387912
  0
LINE
  5
22A
330
6F
100
AcDbEntity
  8
ANCHOR
  6
HIDDEN
100
AcDbLine
 10
228.6646466886797
 20
167.8403996932869
 30
0.0
 11
230.1500218555479
 21
167.3364496097491
 31
0.0
  0
LINE
  5
22B
330
6F
100
AcDbEntity
  8
ANCHOR
  6
HIDDEN
100
AcDbLine
 10
228.6646466886761
 20
168.8324995262078
 30
0.0
 11
230.1500218553519
 21
169.3364496097498
 31
0.0
  0
LINE
  5
22C
330
6F
100
AcDbEntity
  8
ANCHOR
  6
HIDDEN
100
AcDbLine
 10
228.2273721245957
 20
169.3364496097453
 30
0.0
 11
227.2273721245864
 21
170.3364496097425
 31
0.0
  0
LINE
  5
22D
330
6F
100
AcDbEntity
  8
ANCHOR
  6
HIDDEN
100
AcDbLine
 10
227.227372125142
 20
166.3364496097444
 30
0.0
 11
228.2273721251345
 21
167.3364496097445
 31
0.0
  0
LINE
  5
22E
330
6F
100
AcDbEntity
  8
ANCHOR
  6
HIDDEN
100
AcDbLine
 10
227.2273721248733
 20
166.3364496097434
 30
0.0
 11
227.2273721248585
 21
170.3364496097434
 31
0.0
  0
LINE
  5
22F
330
6F
100
AcDbEntity
  8
ANCHOR
  6
HIDDEN
100
AcDbLine
 10
228.2273721246386
 20
167.3364496097435
 30
0.0
 11
228.2273721246294
 21
169.3364496097435
 31
0.0
  0
LINE
  5
230
330
6F
100
AcDbEntity
  8
ANCHOR
  6
HIDDEN
100
AcDbLine
 10
228.0273721251369
 20
167.1364496097439
 30
0.0
 11
217.7273721232463
 21
167.136449609785
 31
0.0
  0
LINE
  5
231
330
6F
100
AcDbEntity
  8
ANCHOR
  6
HIDDEN
100
AcDbLine
 10
228.0273721245957
 20
169.5364496097435
 30
0.0
 11
217.7273721232555
 21
169.5364496097846
 31
0.0
  0
LINE
  5
232
330
6F
100
AcDbEntity
  8
ANCHOR
  6
Continuous
100
AcDbLine
 10
215.7050615421084
 20
168.8346478573738
 30
0.0
 11
215.7050615421089
 21
167.8382513618916
 31
0.0
  0
LINE
  5
233
330
6F
100
AcDbEntity
  8
ANCHOR
  6
Continuous
100
AcDbLine
 10
215.7050615421081
 20
168.834647857374
 30
0.0
 11
215.2273721234338
 21
168.834647857374
 31
0.0
  0
LINE
  5
234
330
6F
100
AcDbEntity
  8
ANCHOR
  6
Continuous
100
AcDbLine
 10
215.7050615421086
 20
167.8382513618918
 30
0.0
 11
215.2273721234342
 21
167.8382513618918
 31
0.0
  0
LINE
  5
235
330
6F
100
AcDbEntity
  8
ANCHOR
  6
Continuous
100
AcDbLine
 10
217.2273721234506
 20
163.6364496096307
 30
0.0
 11
217.7273721234506
 21
163.6364496096311
 31
0.0
  0
ARC
  5
236
330
6F
100
AcDbEntity
  8
ANCHOR
  6
Continuous
100
AcDbCircle
 10
221.3188375177567
 20
168.1608181763155
 30
0.0
 40
6.099999999999999
100
AcDbArc
 50
183.0312034848472
 51
227.876411461438
  0
LINE
  5
237
330
6F
100
AcDbEntity
  8
ANCHOR
  6
Continuous
100
AcDbLine
 10
217.2273721234166
 20
173.0364496096327
 30
0.0
 11
217.2273721234514
 21
163.6364496096311
 31
0.0
  0
ARC
  5
238
330
6F
100
AcDbEntity
  8
ANCHOR
  6
Continuous
100
AcDbCircle
 10
221.3188375177567
 20
168.5120810429531
 30
0.0
 40
6.099999999999999
100
AcDbArc
 50
132.1235885386251
 51
176.9687965152159
  0
LINE
  5
239
330
6F
100
AcDbEntity
  8
ANCHOR
  6
Continuous
100
AcDbLine
 10
217.7273721234175
 20
173.036449609634
 30
0.0
 11
217.7273721234522
 21
163.6364496096326
 31
0.0
  0
LINE
  5
23A
330
6F
100
AcDbEntity
  8
ANCHOR
  6
Continuous
100
AcDbLine
 10
217.2273721234463
 20
173.0364496096324
 30
0.0
 11
217.7273721234463
 21
173.0364496096328
 31
0.0
  0
LINE
  5
23B
330
6F
100
AcDbEntity
  8
WASHER
  6
Continuous
100
AcDbLine
 10
227.7273721234328
 20
159.8364496096258
 30
0.0
 11
257.7273721234328
 21
159.8364496096258
 31
0.0
  0
LINE
  5
23C
330
6F
100
AcDbEntity
  8
WASHER
  6
HIDDEN
100
AcDbLine
 10
245.9273721234329
 20
159.8364496096256
 30
0.0
 11
245.9273721234329
 21
161.8364496096323
 31
0.0
  0
LINE
  5
23D
330
6F
100
AcDbEntity
  8
WASHER
  6
HIDDEN
100
AcDbLine
 10
239.527372123433
 20
159.8364496096256
 30
0.0
 11
239.527372123433
 21
161.8364496096188
 31
0.0
  0
LINE
  5
23E
330
6F
100
AcDbEntity
  8
ANCHOR
  6
Continuous
100
AcDbLine
 10
248.2273721234651
 20
161.8364496096299
 30
0.0
 11
237.2273721234651
 21
161.8364496096218
 31
0.0
  0
LINE
  5
23F
330
6F
100
AcDbEntity
  8
ANCHOR
  6
Continuous
100
AcDbLine
 10
248.2273721234645
 20
161.8364496096304
 30
0.0
 11
248.2273721234648
 21
162.6364496096301
 31
0.0
  0
LINE
  5
240
330
6F
100
AcDbEntity
  8
ANCHOR
  6
Continuous
100
AcDbLine
 10
237.2273721234645
 20
161.8364496096219
 30
0.0
 11
237.2273721234648
 21
162.6364496096221
 31
0.0
  0
LINE
  5
241
330
6F
100
AcDbEntity
  8
ANCHOR
  6
Continuous
100
AcDbLine
 10
248.2273721234645
 20
162.6364496096301
 30
0.0
 11
237.2273721234645
 21
162.636449609622
 31
0.0
  0
ARC
  5
242
330
6F
100
AcDbEntity
  8
ANCHOR
  6
Continuous
100
AcDbCircle
 10
242.7273721234668
 20
158.7805672566849
 30
0.0
 40
5.555882352941173
100
AcDbArc
 50
43.94901598298635
 51
136.0509840170985
  0
LINE
  5
243
330
6F
100
AcDbEntity
  8
ANCHOR
  6
HIDDEN
100
AcDbLine
 10
240.7273721233263
 20
125.3364496096783
 30
0.0
 11
240.7273721232859
 21
161.8364496098018
 31
0.0
  0
LINE
  5
244
330
6F
100
AcDbEntity
  8
ANCHOR
  6
HIDDEN
100
AcDbLine
 10
244.7273721233263
 20
125.3364496091232
 30
0.0
 11
244.7273721232859
 21
161.8364496098174
 31
0.0
  0
LINE
  5
245
330
6F
100
AcDbEntity
  8
ANCHOR
  6
HIDDEN
100
AcDbLine
 10
241.7273721233181
 20
122.4137998789131
 30
0.0
 11
241.727372123322
 21
124.3364496096676
 31
0.0
  0
LINE
  5
246
330
6F
100
AcDbEntity
  8
ANCHOR
  6
HIDDEN
100
AcDbLine
 10
243.7273721233181
 20
122.4137998787172
 30
0.0
 11
243.727372123322
 21
124.3364496091297
 31
0.0
  0
LINE
  5
247
330
6F
100
AcDbEntity
  8
ANCHOR
  6
HIDDEN
100
AcDbLine
 10
242.7273721234784
 20
121.836449609625
 30
0.0
 11
241.7273721233177
 21
122.4137998789124
 31
0.0
  0
LINE
  5
248
330
6F
100
AcDbEntity
  8
ANCHOR
  6
HIDDEN
100
AcDbLine
 10
243.727372123317
 20
122.4137998787168
 30
0.0
 11
242.7273721234781
 21
121.836449609625
 31
0.0
  0
ARC
  5
249
330
6F
100
AcDbEntity
  8
ANCHOR
  6
HIDDEN
100
AcDbCircle
 10
242.7273721233194
 20
123.8364496091199
 30
0.0
 40
0.5
100
AcDbArc
 50
7.206793861208892
 51
172.7932061383134
  0
LINE
  5
24A
330
6F
100
AcDbEntity
  8
ANCHOR
  6
HIDDEN
100
AcDbLine
 10
243.2234220397804
 20
123.8991750455848
 30
0.0
 11
243.7273721233182
 21
122.4137998787164
 31
0.0
  0
LINE
  5
24B
330
6F
100
AcDbEntity
  8
ANCHOR
  6
HIDDEN
100
AcDbLine
 10
242.2313222068599
 20
123.8991750455883
 30
0.0
 11
241.7273721233178
 21
122.4137998789128
 31
0.0
  0
LINE
  5
24C
330
6F
100
AcDbEntity
  8
ANCHOR
  6
HIDDEN
100
AcDbLine
 10
241.7273721233227
 20
124.3364496096696
 30
0.0
 11
240.7273721233254
 21
125.336449609679
 31
0.0
  0
LINE
  5
24D
330
6F
100
AcDbEntity
  8
ANCHOR
  6
HIDDEN
100
AcDbLine
 10
244.7273721233234
 20
125.3364496091232
 30
0.0
 11
243.7273721233232
 21
124.3364496091307
 31
0.0
  0
LINE
  5
24E
330
6F
100
AcDbEntity
  8
ANCHOR
  6
HIDDEN
100
AcDbLine
 10
244.727372123324
 20
125.3364496093916
 30
0.0
 11
240.727372123324
 21
125.3364496094064
 31
0.0
  0
LINE
  5
24F
330
6F
100
AcDbEntity
  8
ANCHOR
  6
HIDDEN
100
AcDbLine
 10
243.7273721233241
 20
124.3364496096263
 30
0.0
 11
241.7273721233241
 21
124.3364496096355
 31
0.0
  0
LINE
  5
250
330
6F
100
AcDbEntity
  8
ANCHOR
  6
HIDDEN
100
AcDbLine
 10
243.9273721233238
 20
124.5364496091281
 30
0.0
 11
243.9273721232827
 21
161.8364496098135
 31
0.0
  0
LINE
  5
251
330
6F
100
AcDbEntity
  8
ANCHOR
  6
HIDDEN
100
AcDbLine
 10
241.5273721233242
 20
124.5364496096693
 30
0.0
 11
241.5273721232831
 21
161.8364496098043
 31
0.0
  0
LINE
  5
252
330
6F
100
AcDbEntity
  8
KUTAI
  6
Continuous
100
AcDbLine
 10
227.7273721234328
 20
97.33644960962594
 30
0.0
 11
227.7273721234328
 21
153.336449609626
 31
0.0
  0
LINE
  5
253
330
6F
100
AcDbEntity
  8
KUTAI
  6
Continuous
100
AcDbLine
 10
229.7273721234328
 20
95.33644960962595
 30
0.0
 11
255.7273721234328
 21
95.33644960962595
 31
0.0
  0
LINE
  5
254
330
6F
100
AcDbEntity
  8
KUTAI
  6
Continuous
100
AcDbLine
 10
230.3273721234328
 20
153.736449609626
 30
0.0
 11
255.1273721234328
 21
153.736449609626
 31
0.0
  0
LINE
  5
255
330
6F
100
AcDbEntity
  8
KUTAI
  6
Continuous
100
AcDbLine
 10
229.3273721234328
 20
97.93644960962595
 30
0.0
 11
229.3273721234328
 21
152.736449609626
 31
0.0
  0
LINE
  5
256
330
6F
100
AcDbEntity
  8
KUTAI
  6
Continuous
100
AcDbLine
 10
230.3273721234328
 20
96.93644960962595
 30
0.0
 11
255.1273721234329
 21
96.93644960962595
 31
0.0
  0
LINE
  5
257
330
6F
100
AcDbEntity
  8
KUTAI
  6
Continuous
100
AcDbLine
 10
256.1273721234328
 20
145.336449609626
 30
0.0
 11
257.7273721234328
 21
145.336449609626
 31
0.0
  0
LINE
  5
258
330
6F
100
AcDbEntity
  8
KUTAI
  6
Continuous
100
AcDbLine
 10
256.1273721234328
 20
105.336449609626
 30
0.0
 11
257.7273721234328
 21
105.336449609626
 31
0.0
  0
LINE
  5
259
330
6F
100
AcDbEntity
  8
KUTAI
  6
Continuous
100
AcDbLine
 10
256.1273721234328
 20
97.93644960962595
 30
0.0
 11
256.1273721234328
 21
105.336449609626
 31
0.0
  0
LINE
  5
25A
330
6F
100
AcDbEntity
  8
KUTAI
  6
Continuous
100
AcDbLine
 10
256.1273721234328
 20
145.336449609626
 30
0.0
 11
256.1273721234328
 21
152.736449609626
 31
0.0
  0
LINE
  5
25B
330
6F
100
AcDbEntity
  8
KUTAI
  6
Continuous
100
AcDbLine
 10
257.7273721234328
 20
97.33644960962594
 30
0.0
 11
257.7273721234328
 21
105.336449609626
 31
0.0
  0
LINE
  5
25C
330
6F
100
AcDbEntity
  8
KUTAI
  6
Continuous
100
AcDbLine
 10
257.7273721234328
 20
145.336449609626
 30
0.0
 11
257.7273721234328
 21
153.336449609626
 31
0.0
  0
ARC
  5
25D
330
6F
100
AcDbEntity
  8
KUTAI
  6
Continuous
100
AcDbCircle
 10
255.7273721234328
 20
153.336449609626
 30
0.0
 40
2.0
100
AcDbArc
 50
0.0
 51
90.0
  0
ARC
  5
25E
330
6F
100
AcDbEntity
  8
KUTAI
  6
Continuous
100
AcDbCircle
 10
229.7273721234328
 20
153.336449609626
 30
0.0
 40
2.0
100
AcDbArc
 50
90.0
 51
180.0
  0
ARC
  5
25F
330
6F
100
AcDbEntity
  8
KUTAI
  6
Continuous
100
AcDbCircle
 10
229.7273721234328
 20
97.33644960962594
 30
0.0
 40
2.0
100
AcDbArc
 50
180.0
 51
270.0
  0
ARC
  5
260
330
6F
100
AcDbEntity
  8
KUTAI
  6
Continuous
100
AcDbCircle
 10
255.7273721234328
 20
97.33644960962594
 30
0.0
 40
2.0
100
AcDbArc
 50
270.0
 51
0.0
  0
ARC
  5
261
330
6F
100
AcDbEntity
  8
KUTAI
  6
Continuous
100
AcDbCircle
 10
255.1273721234329
 20
97.93644960962595
 30
0.0
 40
1.0
100
AcDbArc
 50
270.0
 51
0.0
  0
ARC
  5
262
330
6F
100
AcDbEntity
  8
KUTAI
  6
Continuous
100
AcDbCircle
 10
255.1273721234328
 20
152.736449609626
 30
0.0
 40
1.0
100
AcDbArc
 50
0.0
 51
90.0
  0
ARC
  5
263
330
6F
100
AcDbEntity
  8
KUTAI
  6
Continuous
100
AcDbCircle
 10
230.3273721234328
 20
152.736449609626
 30
0.0
 40
1.0
100
AcDbArc
 50
90.0
 51
180.0
  0
ARC
  5
264
330
6F
100
AcDbEntity
  8
KUTAI
  6
Continuous
100
AcDbCircle
 10
230.3273721234328
 20
97.93644960962595
 30
0.0
 40
1.0
100
AcDbArc
 50
180.0
 51
270.0
  0
LINE
  5
265
330
6F
100
AcDbEntity
  8
KUTAI
  6
Continuous
100
AcDbLine
 10
132.4720475945935
 20
155.336449609626
 30
0.0
 11
334.6456117066339
 21
155.336449609626
 31
0.0
  0
INSERT
  5
266
330
6F
100
AcDbEntity
  8
KUTAI
  6
Continuous
100
AcDbBlockReference
  2
*X0
 10
0.0
 20
0.0
 30
0.0
  0
TEXT
  5
267
330
6F
100
AcDbEntity
  8
COMMENT
  6
Continuous
100
AcDbText
 10
349.9418172490461
 20
322.2594101746117
 30
0.0
 40
6.0
  1
RC納まり図
  7
KNJYOKO
100
AcDbText
  0
LINE
  5
268
330
6F
100
AcDbEntity
  8
COMMENT
  6
Continuous
100
AcDbLine
 10
343.7194436660042
 20
316.0977062953458
 30
0.0
 11
393.4272863119038
 21
316.0977062953458
 31
0.0
  0
LINE
  5
269
330
6F
100
AcDbEntity
  8
COMMENT
  6
Continuous
100
AcDbLine
 10
393.4272863119038
 20
316.0977062953458
 30
0.0
 11
393.4272863119038
 21
332.4572886387153
 31
0.0
  0
LINE
  5
26A
330
6F
100
AcDbEntity
  8
COMMENT
  6
Continuous
100
AcDbLine
 10
393.4272863119038
 20
332.4572886387153
 30
0.0
 11
343.7194436660042
 21
332.4572886387153
 31
0.0
  0
LINE
  5
26B
330
6F
100
AcDbEntity
  8
COMMENT
  6
Continuous
100
AcDbLine
 10
343.7194436660042
 20
332.4572886387153
 30
0.0
 11
343.7194436660042
 21
316.0977062953458
 31
0.0
  0
TEXT
  5
26C
330
6F
100
AcDbEntity
  8
COMMENT
  6
Continuous
100
AcDbText
 10
727.6557351031138
 20
321.7013496810606
 30
0.0
 40
6.0
  1
ALC納まり図
  7
KNJYOKO
100
AcDbText
  0
LINE
  5
26D
330
6F
100
AcDbEntity
  8
COMMENT
  6
Continuous
100
AcDbLine
 10
723.8888328008928
 20
316.0977062953458
 30
0.0
 11
773.5966754467924
 21
316.0977062953458
 31
0.0
  0
LINE
  5
26E
330
6F
100
AcDbEntity
  8
COMMENT
  6
Continuous
100
AcDbLine
 10
773.5966754467924
 20
316.0977062953458
 30
0.0
 11
773.5966754467924
 21
332.4572886387153
 31
0.0
  0
LINE
  5
26F
330
6F
100
AcDbEntity
  8
COMMENT
  6
Continuous
100
AcDbLine
 10
773.5966754467924
 20
332.4572886387153
 30
0.0
 11
723.8888328008928
 21
332.4572886387153
 31
0.0
  0
LINE
  5
270
330
6F
100
AcDbEntity
  8
COMMENT
  6
Continuous
100
AcDbLine
 10
723.8888328008928
 20
332.4572886387153
 30
0.0
 11
723.8888328008928
 21
316.0977062953458
 31
0.0
  0
TEXT
  5
271
330
6F
100
AcDbEntity
  8
COMMENT
  6
Continuous
100
AcDbText
 10
727.6696757584102
 20
53.68204903107908
 30
0.0
 40
6.0
  1
ECP納まり図
  7
KNJYOKO
100
AcDbText
  0
LINE
  5
272
330
6F
100
AcDbEntity
  8
COMMENT
  6
Continuous
100
AcDbLine
 10
723.8888328008928
 20
47.52034515181315
 30
0.0
 11
773.5966754467924
 21
47.52034515181315
 31
0.0
  0
LINE
  5
273
330
6F
100
AcDbEntity
  8
COMMENT
  6
Continuous
100
AcDbLine
 10
773.5966754467924
 20
47.52034515181315
 30
0.0
 11
773.5966754467924
 21
63.87992749518264
 31
0.0
  0
LINE
  5
274
330
6F
100
AcDbEntity
  8
COMMENT
  6
Continuous
100
AcDbLine
 10
773.5966754467924
 20
63.87992749518264
 30
0.0
 11
723.8888328008928
 21
63.87992749518264
 31
0.0
  0
LINE
  5
275
330
6F
100
AcDbEntity
  8
COMMENT
  6
Continuous
100
AcDbLine
 10
723.8888328008928
 20
63.87992749518264
 30
0.0
 11
723.8888328008928
 21
47.52034515181315
 31
0.0
  0
TEXT
  5
276
330
6F
100
AcDbEntity
  8
COMMENT
  6
Continuous
100
AcDbText
 10
349.941817249046
 20
53.68204903107908
 30
0.0
 40
6.0
  1
鉄骨納まり図
  7
KNJYOKO
100
AcDbText
  0
LINE
  5
277
330
6F
100
AcDbEntity
  8
COMMENT
  6
Continuous
100
AcDbLine
 10
343.7194436660041
 20
47.52034515181315
 30
0.0
 11
393.4272863119038
 21
47.52034515181315
 31
0.0
  0
LINE
  5
278
330
6F
100
AcDbEntity
  8
COMMENT
  6
Continuous
100
AcDbLine
 10
393.4272863119038
 20
47.52034515181315
 30
0.0
 11
393.4272863119038
 21
63.87992749518264
 31
0.0
  0
LINE
  5
279
330
6F
100
AcDbEntity
  8
COMMENT
  6
Continuous
100
AcDbLine
 10
393.4272863119038
 20
63.87992749518264
 30
0.0
 11
343.7194436660041
 21
63.87992749518264
 31
0.0
  0
LINE
  5
27A
330
6F
100
AcDbEntity
  8
COMMENT
  6
Continuous
100
AcDbLine
 10
343.7194436660041
 20
63.87992749518264
 30
0.0
 11
343.7194436660041
 21
47.52034515181315
 31
0.0
  0
LINE
  5
27B
330
6F
100
AcDbEntity
  8
WAKU
  6
Continuous
100
AcDbLine
 10
33.25789717601344
 20
27.52034515181316
 30
0.0
 11
793.5966754467925
 21
27.52034515181316
 31
0.0
  0
LINE
  5
27C
330
6F
100
AcDbEntity
  8
WAKU
  6
Continuous
100
AcDbLine
 10
793.5966754467925
 20
27.52034515181316
 30
0.0
 11
793.5966754467925
 21
574.6750674359869
 31
0.0
  0
LINE
  5
27D
330
6F
100
AcDbEntity
  8
WAKU
  6
Continuous
100
AcDbLine
 10
33.25789717601344
 20
574.6750674359869
 30
0.0
 11
33.25789717601344
 21
27.52034515181316
 31
0.0
  0
LINE
  5
27E
330
6F
100
AcDbEntity
  8
WAKU
  6
Continuous
100
AcDbLine
 10
793.5966754467925
 20
296.0977062953458
 30
0.0
 11
33.25789717601344
 21
296.0977062953458
 31
0.0
  0
LINE
  5
27F
330
6F
100
AcDbEntity
  8
WAKU
  6
Continuous
100
AcDbLine
 10
413.4272863119038
 20
27.52034515181315
 30
0.0
 11
413.4272863119038
 21
549.6750674359869
 31
0.0
  0
LINE
  5
280
330
6F
100
AcDbEntity
  8
WAKU
  6
Continuous
100
AcDbLine
 10
793.5966754467925
 20
574.6750674359869
 30
0.0
 11
33.25789717601344
 21
574.6750674359869
 31
0.0
  0
LINE
  5
281
330
6F
100
AcDbEntity
  8
WAKU
  6
Continuous
100
AcDbLine
 10
793.5966754467925
 20
549.6750674359869
 30
0.0
 11
33.25789717601344
 21
549.6750674359869
 31
0.0
  0
LINE
  5
282
330
6F
100
AcDbEntity
  8
UKEZAI
  6
Continuous
100
AcDbLine
 10
224.5273721244798
 20
410.7555691123014
 30
0.0
 11
260.9273721245829
 21
410.7555691123014
 31
0.0
  0
LINE
  5
283
330
6F
100
AcDbEntity
  8
COMMENT
  6
Continuous
100
AcDbLine
 10
588.7412277081292
 20
410.7555691123014
 30
0.0
 11
573.0691716296142
 21
410.7555691123014
 31
0.0
  0
LINE
  5
284
330
6F
100
AcDbEntity
  8
COMMENT
  6
Continuous
100
AcDbLine
 10
588.7412277081292
 20
410.7555691123014
 30
0.0
 11
580.6895603646681
 21
410.7555691123014
 31
0.0
  0
LINE
  5
285
330
6F
100
AcDbEntity
  8
ANCHOR
  6
CENTER
100
AcDbLine
 10
607.7412277190031
 20
349.5441334540211
 30
0.0
 11
607.7412277190031
 21
428.3511387659604
 31
0.0
  0
LINE
  5
286
330
6F
100
AcDbEntity
  8
WASHER
  6
Continuous
100
AcDbLine
 10
592.7412277190032
 20
414.2555691123014
 30
0.0
 11
622.7412277190031
 21
414.2555691123014
 31
0.0
  0
LINE
  5
287
330
6F
100
AcDbEntity
  8
WASHER
  6
Continuous
100
AcDbLine
 10
622.7412277190031
 20
412.2555691123014
 30
0.0
 11
622.7412277190031
 21
414.2555691123014
 31
0.0
  0
LINE
  5
288
330
6F
100
AcDbEntity
  8
WASHER
  6
Continuous
100
AcDbLine
 10
592.7412277190032
 20
412.2555691123014
 30
0.0
 11
592.7412277190032
 21
414.2555691123014
 31
0.0
  0
LINE
  5
289
330
6F
100
AcDbEntity
  8
ANCHOR
  6
Continuous
100
AcDbLine
 10
602.7412277189593
 20
418.2555691123012
 30
0.0
 11
612.7412277189592
 21
418.2555691123012
 31
0.0
  0
LINE
  5
28A
330
6F
100
AcDbEntity
  8
ANCHOR
  6
Continuous
100
AcDbLine
 10
613.5147304108556
 20
417.8089871249161
 30
0.0
 11
613.5147304108556
 21
414.2555691123014
 31
0.0
  0
LINE
  5
28B
330
6F
100
AcDbEntity
  8
ANCHOR
  6
Continuous
100
AcDbLine
 10
601.9677250270631
 20
417.8089871249161
 30
0.0
 11
601.9677250270631
 21
414.2555691123014
 31
0.0
  0
LINE
  5
28C
330
6F
100
AcDbEntity
  8
ANCHOR
  6
Continuous
100
AcDbLine
 10
604.8544763730108
 20
417.7040143486999
 30
0.0
 11
604.8544763730108
 21
414.2555691123014
 31
0.0
  0
LINE
  5
28D
330
6F
100
AcDbEntity
  8
ANCHOR
  6
Continuous
100
AcDbLine
 10
610.6279790649071
 20
417.7040143486999
 30
0.0
 11
610.6279790649071
 21
414.2555691123014
 31
0.0
  0
LINE
  5
28E
330
6F
100
AcDbEntity
  8
ANCHOR
  6
Continuous
100
AcDbLine
 10
613.5147304108555
 20
417.8089871249166
 30
0.0
 11
612.741227718959
 21
418.2555691123019
 31
0.0
  0
LINE
  5
28F
330
6F
100
AcDbEntity
  8
ANCHOR
  6
Continuous
100
AcDbLine
 10
601.9677250270628
 20
417.8089871249159
 30
0.0
 11
602.7412277189593
 21
418.2555691123011
 31
0.0
  0
ARC
  5
290
330
6F
100
AcDbEntity
  8
ANCHOR
  6
Continuous
100
AcDbCircle
 10
607.7412277189589
 20
410.4253892638075
 30
0.0
 40
7.830179848493714
100
AcDbArc
 50
68.36639223264487
 51
111.6336077673514
  0
ARC
  5
291
330
6F
100
AcDbEntity
  8
ANCHOR
  6
Continuous
100
AcDbCircle
 10
603.4111007000369
 20
416.0911911138279
 30
0.0
 40
2.164377998473439
100
AcDbArc
 50
48.17345191046694
 51
89.99999999942552
  0
ARC
  5
292
330
6F
100
AcDbEntity
  8
ANCHOR
  6
Continuous
100
AcDbCircle
 10
612.0713547378813
 20
416.0911911138266
 30
0.0
 40
2.164377998474711
100
AcDbArc
 50
89.99999999942552
 51
131.8265480895158
  0
LINE
  5
293
330
6F
100
AcDbEntity
  8
ANCHOR
  6
Continuous
100
AcDbLine
 10
601.9677250270631
 20
414.2555691123014
 30
0.0
 11
613.5147304108556
 21
414.2555691123014
 31
0.0
  0
LINE
  5
294
330
6F
100
AcDbEntity
  8
KUTAI
  6
Continuous
100
AcDbLine
 10
517.4856009406731
 20
410.7555691123014
 30
0.0
 11
692.665189448772
 21
410.7555691123014
 31
0.0
  0
ARC
  5
295
330
6F
100
AcDbEntity
  8
ANCHOR
  6
HIDDEN
100
AcDbCircle
 10
615.1912277190031
 20
410.3555691123011
 30
0.0
 40
0.3
100
AcDbArc
 50
270.0
 51
0.0
  0
LINE
  5
296
330
6F
100
AcDbEntity
  8
ANCHOR
  6
HIDDEN
100
AcDbLine
 10
615.4912277190027
 20
410.3555691123013
 30
0.0
 11
615.4912277190027
 21
410.7555691123014
 31
0.0
  0
LINE
  5
297
330
6F
100
AcDbEntity
  8
ANCHOR
  6
HIDDEN
100
AcDbLine
 10
618.2412277190027
 20
410.7555691123014
 30
0.0
 11
618.2412277190027
 21
402.7555691123014
 31
0.0
  0
LINE
  5
298
330
6F
100
AcDbEntity
  8
ANCHOR
  6
HIDDEN
100
AcDbLine
 10
606.835506704211
 20
409.055569112302
 30
0.0
 11
607.7412277190031
 21
402.7555691123021
 31
0.0
  0
LINE
  5
299
330
6F
100
AcDbEntity
  8
ANCHOR
  6
HIDDEN
100
AcDbLine
 10
607.7412277190034
 20
410.0555691123011
 30
0.0
 11
607.7412277190027
 21
402.7555691123046
 31
0.0
  0
ARC
  5
29A
330
6F
100
AcDbEntity
  8
ANCHOR
  6
HIDDEN
100
AcDbCircle
 10
607.4652741066792
 20
408.8954668481942
 30
0.0
 40
1.192471240466957
100
AcDbArc
 50
7.715883603285383
 51
76.61971166401229
  0
LINE
  5
29B
330
6F
100
AcDbEntity
  8
ANCHOR
  6
HIDDEN
100
AcDbLine
 10
608.646948733795
 20
409.0555691123008
 30
0.0
 11
607.7412277190022
 21
402.755569112301
 31
0.0
  0
ARC
  5
29C
330
6F
100
AcDbEntity
  8
ANCHOR
  6
HIDDEN
100
AcDbCircle
 10
608.0171813313263
 20
408.8954668481942
 30
0.0
 40
1.192471240466957
100
AcDbArc
 50
103.3802883359746
 51
172.2841163967017
  0
LINE
  5
29D
330
6F
100
AcDbEntity
  8
ANCHOR
  6
HIDDEN
100
AcDbLine
 10
608.6469487337948
 20
409.0555691123013
 30
0.0
 11
613.7412277190027
 21
409.0555691123003
 31
0.0
  0
LINE
  5
29E
330
6F
100
AcDbEntity
  8
ANCHOR
  6
HIDDEN
100
AcDbLine
 10
599.9912277190027
 20
410.3555691123013
 30
0.0
 11
599.9912277190027
 21
410.7555691123014
 31
0.0
  0
ARC
  5
29F
330
6F
100
AcDbEntity
  8
ANCHOR
  6
HIDDEN
100
AcDbCircle
 10
600.7412277190027
 20
409.0555691123013
 30
0.0
 40
1.0
100
AcDbArc
 50
0.0
 51
90.0
  0
LINE
  5
2A0
330
6F
100
AcDbEntity
  8
ANCHOR
  6
HIDDEN
100
AcDbLine
 10
597.2412277190036
 20
410.7555691123013
 30
0.0
 11
597.2412277190027
 21
402.7555691123013
 31
0.0
  0
ARC
  5
2A1
330
6F
100
AcDbEntity
  8
ANCHOR
  6
HIDDEN
100
AcDbCircle
 10
600.291227719003
 20
410.3555691123011
 30
0.0
 40
0.3
100
AcDbArc
 50
180.0
 51
270.0
  0
LINE
  5
2A2
330
6F
100
AcDbEntity
  8
ANCHOR
  6
HIDDEN
100
AcDbLine
 10
606.8355067042106
 20
409.0555691123011
 30
0.0
 11
601.7412277190027
 21
409.0555691123011
 31
0.0
  0
LINE
  5
2A3
330
6F
100
AcDbEntity
  8
ANCHOR
  6
HIDDEN
100
AcDbLine
 10
597.2412277190036
 20
410.7555691123014
 30
0.0
 11
618.2412277190027
 21
410.7555691123014
 31
0.0
  0
ARC
  5
2A4
330
6F
100
AcDbEntity
  8
ANCHOR
  6
HIDDEN
100
AcDbCircle
 10
614.7412277190027
 20
409.0555691123013
 30
0.0
 40
1.0
100
AcDbArc
 50
90.0
 51
180.0
  0
LINE
  5
2A5
330
6F
100
AcDbEntity
  8
ANCHOR
  6
HIDDEN
100
AcDbLine
 10
600.2912277190027
 20
410.055569112302
 30
0.0
 11
615.191227719003
 21
410.0555691123001
 31
0.0
  0
LINE
  5
2A6
330
6F
100
AcDbEntity
  8
ANCHOR
  6
HIDDEN
100
AcDbLine
 10
613.9805777024335
 20
370.8623028133493
 30
0.0
 11
617.0805777024336
 21
365.4929453098861
 31
0.0
  0
LINE
  5
2A7
330
6F
100
AcDbEntity
  8
ANCHOR
  6
HIDDEN
100
AcDbLine
 10
616.0421196708518
 20
364.8933912858096
 30
0.0
 11
617.080577702433
 21
365.4929453098856
 31
0.0
  0
LINE
  5
2A8
330
6F
100
AcDbEntity
  8
ANCHOR
  6
HIDDEN
100
AcDbLine
 10
617.1027041099626
 20
386.03404099899
 30
0.0
 11
614.2851055676681
 21
380.3201175062492
 31
0.0
  0
ARC
  5
2A9
330
6F
100
AcDbEntity
  8
ANCHOR
  6
HIDDEN
100
AcDbCircle
 10
600.3627507548399
 20
399.991693621243
 30
0.0
 40
14.09781378264538
100
AcDbArc
 50
261.9139567489959
 51
286.0860432509978
  0
LINE
  5
2AA
330
6F
100
AcDbEntity
  8
ANCHOR
  6
HIDDEN
100
AcDbLine
 10
611.340038142834
 20
364.8933912858098
 30
0.0
 11
611.340038142834
 21
370.9555691123011
 31
0.0
  0
LINE
  5
2AB
330
6F
100
AcDbEntity
  8
ANCHOR
  6
HIDDEN
100
AcDbLine
 10
604.1424172951714
 20
364.8933912858098
 30
0.0
 11
604.1424172951714
 21
370.9555691123011
 31
0.0
  0
LINE
  5
2AC
330
6F
100
AcDbEntity
  8
ANCHOR
  6
HIDDEN
100
AcDbLine
 10
602.2412277190027
 20
366.7555691123013
 30
0.0
 11
604.1424172951714
 21
366.7555691123013
 31
0.0
  0
LINE
  5
2AD
330
6F
100
AcDbEntity
  8
ANCHOR
  6
HIDDEN
100
AcDbLine
 10
613.2412277190027
 20
366.7555691123013
 30
0.0
 11
611.340038142834
 21
366.7555691123013
 31
0.0
  0
LINE
  5
2AE
330
6F
100
AcDbEntity
  8
ANCHOR
  6
HIDDEN
100
AcDbLine
 10
604.1424172951714
 20
370.9555691123011
 30
0.0
 11
602.9403357671543
 21
370.9555691123011
 31
0.0
  0
LINE
  5
2AF
330
6F
100
AcDbEntity
  8
ANCHOR
  6
HIDDEN
100
AcDbLine
 10
602.2412277190039
 20
380.0634744676819
 30
0.0
 11
602.2412277190034
 21
379.2555691123018
 31
0.0
  0
LINE
  5
2B0
330
6F
100
AcDbEntity
  8
ANCHOR
  6
HIDDEN
100
AcDbLine
 10
612.9452349220048
 20
371.6555691123007
 30
0.0
 11
613.5475650005412
 21
370.6123028133487
 31
0.0
  0
LINE
  5
2B1
330
6F
100
AcDbEntity
  8
ANCHOR
  6
HIDDEN
100
AcDbLine
 10
613.2412277190027
 20
380.0634744676817
 30
0.0
 11
613.2412277190027
 21
379.2555691123014
 31
0.0
  0
LINE
  5
2B2
330
6F
100
AcDbEntity
  8
ANCHOR
  6
HIDDEN
100
AcDbLine
 10
613.7412277190027
 20
379.2555691123014
 30
0.0
 11
613.7412277190027
 21
371.655569112301
 31
0.0
  0
LINE
  5
2B3
330
6F
100
AcDbEntity
  8
ANCHOR
  6
HIDDEN
100
AcDbLine
 10
606.8912277190036
 20
379.9555691123015
 30
0.0
 11
608.5912277190034
 21
379.9555691123014
 31
0.0
  0
LINE
  5
2B4
330
6F
100
AcDbEntity
  8
ANCHOR
  6
HIDDEN
100
AcDbLine
 10
611.340038142834
 20
370.9555691123011
 30
0.0
 11
612.5421196708511
 21
370.9555691123011
 31
0.0
  0
LINE
  5
2B5
330
6F
100
AcDbEntity
  8
ANCHOR
  6
HIDDEN
100
AcDbLine
 10
604.1424172951718
 20
370.862302813349
 30
0.0
 11
611.340038142834
 21
370.862302813349
 31
0.0
  0
LINE
  5
2B6
330
6F
100
AcDbEntity
  8
ANCHOR
  6
HIDDEN
100
AcDbLine
 10
604.1424172951714
 20
364.8933912858098
 30
0.0
 11
611.340038142834
 21
364.8933912858098
 31
0.0
  0
LINE
  5
2B7
330
6F
100
AcDbEntity
  8
ANCHOR
  6
HIDDEN
100
AcDbLine
 10
601.5018777355726
 20
370.8623028133495
 30
0.0
 11
598.4018777355727
 21
365.4929453098863
 31
0.0
  0
LINE
  5
2B8
330
6F
100
AcDbEntity
  8
ANCHOR
  6
HIDDEN
100
AcDbLine
 10
599.440335767155
 20
364.8933912858101
 30
0.0
 11
598.4018777355733
 21
365.4929453098861
 31
0.0
  0
LINE
  5
2B9
330
6F
100
AcDbEntity
  8
ANCHOR
  6
HIDDEN
100
AcDbLine
 10
600.8324523097509
 20
365.7864447411873
 30
0.0
 11
599.4403357671544
 21
364.8933912858093
 31
0.0
  0
LINE
  5
2BA
330
6F
100
AcDbEntity
  8
ANCHOR
  6
HIDDEN
100
AcDbLine
 10
601.7412277190027
 20
379.2555691123014
 30
0.0
 11
601.7412277190027
 21
371.655569112301
 31
0.0
  0
LINE
  5
2BB
330
6F
100
AcDbEntity
  8
ANCHOR
  6
HIDDEN
100
AcDbLine
 10
600.8324523097511
 20
365.7864447411878
 30
0.0
 11
603.8168476568877
 21
370.9555691123006
 31
0.0
  0
LINE
  5
2BC
330
6F
100
AcDbEntity
  8
ANCHOR
  6
HIDDEN
100
AcDbLine
 10
599.4403357671548
 20
364.89339128581
 30
0.0
 11
602.9403357671547
 21
370.9555691123012
 31
0.0
  0
ARC
  5
2BD
330
6F
100
AcDbEntity
  8
ANCHOR
  6
HIDDEN
100
AcDbCircle
 10
603.4300332413833
 20
387.1501309669957
 30
0.0
 40
7.185677345199168
100
AcDbArc
 50
251.8977955235752
 51
296.102204476418
  0
LINE
  5
2BE
330
6F
100
AcDbEntity
  8
ANCHOR
  6
HIDDEN
100
AcDbLine
 10
602.540335767154
 20
370.2627487892734
 30
0.0
 11
601.5018777355723
 21
370.862302813349
 31
0.0
  0
LINE
  5
2BF
330
6F
100
AcDbEntity
  8
ANCHOR
  6
HIDDEN
100
AcDbLine
 10
602.5372205160011
 20
371.6555691123019
 30
0.0
 11
601.9348904374651
 21
370.6123028133496
 31
0.0
  0
LINE
  5
2C0
330
6F
100
AcDbEntity
  8
ANCHOR
  6
HIDDEN
100
AcDbLine
 10
601.7412277190027
 20
371.655569112301
 30
0.0
 11
613.7412277190027
 21
371.655569112301
 31
0.0
  0
LINE
  5
2C1
330
6F
100
AcDbEntity
  8
ANCHOR
  6
HIDDEN
100
AcDbLine
 10
601.7412277190032
 20
379.2555691123019
 30
0.0
 11
613.7412277190032
 21
379.2555691123019
 31
0.0
  0
LINE
  5
2C2
330
6F
100
AcDbEntity
  8
ANCHOR
  6
HIDDEN
100
AcDbLine
 10
604.2689815650917
 20
386.4458560942689
 30
0.0
 11
606.8912277190032
 21
379.9555691123014
 31
0.0
  0
LINE
  5
2C3
330
6F
100
AcDbEntity
  8
ANCHOR
  6
HIDDEN
100
AcDbLine
 10
611.213473872915
 20
386.4458560942698
 30
0.0
 11
608.5912277190035
 21
379.9555691123024
 31
0.0
  0
LINE
  5
2C4
330
6F
100
AcDbEntity
  8
ANCHOR
  6
HIDDEN
100
AcDbLine
 10
598.3797513280424
 20
386.0340409989909
 30
0.0
 11
601.1973498703375
 21
380.32011750625
 31
0.0
  0
ARC
  5
2C5
330
6F
100
AcDbEntity
  8
ANCHOR
  6
HIDDEN
100
AcDbCircle
 10
615.1197046831661
 20
399.991693621243
 30
0.0
 40
14.09781378264538
100
AcDbArc
 50
253.9139567490022
 51
278.086043251004
  0
LINE
  5
2C6
330
6F
100
AcDbEntity
  8
ANCHOR
  6
HIDDEN
100
AcDbLine
 10
616.0421196708518
 20
364.8933912858105
 30
0.0
 11
612.5421196708515
 21
370.9555691123018
 31
0.0
  0
LINE
  5
2C7
330
6F
100
AcDbEntity
  8
ANCHOR
  6
HIDDEN
100
AcDbLine
 10
612.9421196708504
 20
370.262748789274
 30
0.0
 11
613.9805777024322
 21
370.8623028133496
 31
0.0
  0
ARC
  5
2C8
330
6F
100
AcDbEntity
  8
ANCHOR
  6
HIDDEN
100
AcDbCircle
 10
612.0524221966234
 20
387.1501309669957
 30
0.0
 40
7.185677345199168
100
AcDbArc
 50
243.897795523582
 51
288.1022044764124
  0
LINE
  5
2C9
330
6F
100
AcDbEntity
  8
ANCHOR
  6
HIDDEN
100
AcDbLine
 10
614.7465357453567
 20
385.8988195923594
 30
0.0
 11
618.2412277190027
 21
402.7555691123017
 31
0.0
  0
LINE
  5
2CA
330
6F
100
AcDbEntity
  8
ANCHOR
  6
HIDDEN
100
AcDbLine
 10
613.7412277190027
 20
409.0555691123011
 30
0.0
 11
613.7412277190027
 21
385.9614350808805
 31
0.0
  0
LINE
  5
2CB
330
6F
100
AcDbEntity
  8
ANCHOR
  6
HIDDEN
100
AcDbLine
 10
600.7359196926497
 20
385.8988195923587
 30
0.0
 11
597.2412277190027
 21
402.7555691123015
 31
0.0
  0
LINE
  5
2CC
330
6F
100
AcDbEntity
  8
ANCHOR
  6
HIDDEN
100
AcDbLine
 10
601.7412277190027
 20
409.0555691123011
 30
0.0
 11
601.7412277190027
 21
385.9614350808805
 31
0.0
  0
ARC
  5
2CD
330
6F
100
AcDbEntity
  8
ANCHOR
  6
HIDDEN
100
AcDbCircle
 10
602.2412277190027
 20
367.2555691123017
 30
0.0
 40
0.5
100
AcDbArc
 50
180.0
 51
270.0
  0
ARC
  5
2CE
330
6F
100
AcDbEntity
  8
ANCHOR
  6
HIDDEN
100
AcDbCircle
 10
613.2412277190027
 20
367.2555691123017
 30
0.0
 40
0.5
100
AcDbArc
 50
270.0
 51
0.0
  0
LINE
  5
2CF
330
6F
100
AcDbEntity
  8
ANCHOR
  6
HIDDEN
100
AcDbLine
 10
614.6500031282548
 20
365.7864447411879
 30
0.0
 11
611.665607781118
 21
370.9555691123015
 31
0.0
  0
LINE
  5
2D0
330
6F
100
AcDbEntity
  8
ANCHOR
  6
HIDDEN
100
AcDbLine
 10
614.6500031282546
 20
365.7864447411878
 30
0.0
 11
616.0421196708512
 21
364.8933912858098
 31
0.0
  0
LINE
  5
2D1
330
6F
100
AcDbEntity
  8
WASHER
  6
Continuous
100
AcDbLine
 10
592.7412277190032
 20
412.2555691123014
 30
0.0
 11
622.7412277190031
 21
412.2555691123014
 31
0.0
  0
TEXT
  5
2D2
330
6F
100
AcDbEntity
  8
WAKU
  6
Continuous
100
AcDbText
 10
38.64675006063919
 20
555.4024753726626
 30
0.0
 40
12.0
  1
外装ルーバー　スカイフィット　直付タイプ
  7
KNJYOKO
100
AcDbText
  0
LINE
  5
2D3
330
6F
100
AcDbEntity
  8
ANCHOR
  6
CENTER
100
AcDbLine
 10
242.7273721234328
 20
349.5441334540212
 30
0.0
 11
242.7273721234328
 21
424.1898308268227
 31
0.0
  0
LINE
  5
2D4
330
6F
100
AcDbEntity
  8
KUTAI
  6
Continuous
100
AcDbLine
 10
335.1307796053935
 20
410.7555691123014
 30
0.0
 11
132.957215493353
 21
410.7555691123014
 31
0.0
  0
LINE
  5
2D5
330
6F
100
AcDbEntity
  8
ANCHOR
  6
CENTER
100
AcDbLine
 10
231.7877330592127
 20
420.7555691122906
 30
0.0
 11
213.3387701986398
 21
420.7555691123124
 31
0.0
  0
LINE
  5
2D6
330
6F
100
AcDbEntity
  8
ANCHOR
  6
HIDDEN
100
AcDbLine
 10
227.2273721245831
 20
422.7555691124165
 30
0.0
 11
217.7273721232543
 21
422.7555691124569
 31
0.0
  0
LINE
  5
2D7
330
6F
100
AcDbEntity
  8
ANCHOR
  6
HIDDEN
100
AcDbLine
 10
227.2273721251381
 20
418.7555691124165
 30
0.0
 11
217.7273721232387
 21
418.7555691124569
 31
0.0
  0
LINE
  5
2D8
330
6F
100
AcDbEntity
  8
ANCHOR
  6
HIDDEN
100
AcDbLine
 10
230.1500218553486
 20
421.7555691124252
 30
0.0
 11
228.2273721245938
 21
421.7555691124212
 31
0.0
  0
LINE
  5
2D9
330
6F
100
AcDbEntity
  8
ANCHOR
  6
HIDDEN
100
AcDbLine
 10
230.1500218555444
 20
419.7555691124253
 30
0.0
 11
228.2273721251317
 21
419.7555691124213
 31
0.0
  0
LINE
  5
2DA
330
6F
100
AcDbEntity
  8
ANCHOR
  6
HIDDEN
100
AcDbLine
 10
230.7273721246359
 20
420.755569112265
 30
0.0
 11
230.1500218553484
 21
421.7555691124259
 31
0.0
  0
LINE
  5
2DB
330
6F
100
AcDbEntity
  8
ANCHOR
  6
HIDDEN
100
AcDbLine
 10
230.1500218555452
 20
419.7555691124269
 30
0.0
 11
230.7273721246368
 21
420.7555691122657
 31
0.0
  0
ARC
  5
2DC
330
6F
100
AcDbEntity
  8
ANCHOR
  6
HIDDEN
100
AcDbCircle
 10
228.7273721251411
 20
420.7555691124238
 30
0.0
 40
0.5
100
AcDbArc
 50
97.20679386168658
 51
262.7932061387912
  0
LINE
  5
2DD
330
6F
100
AcDbEntity
  8
ANCHOR
  6
HIDDEN
100
AcDbLine
 10
228.6646466886761
 20
420.2595191959628
 30
0.0
 11
230.1500218555444
 21
419.7555691124251
 31
0.0
  0
LINE
  5
2DE
330
6F
100
AcDbEntity
  8
ANCHOR
  6
HIDDEN
100
AcDbLine
 10
228.6646466886726
 20
421.2516190288839
 30
0.0
 11
230.1500218553484
 21
421.7555691124259
 31
0.0
  0
LINE
  5
2DF
330
6F
100
AcDbEntity
  8
ANCHOR
  6
HIDDEN
100
AcDbLine
 10
228.2273721245922
 20
421.7555691124208
 30
0.0
 11
227.2273721245828
 21
422.7555691124181
 31
0.0
  0
LINE
  5
2E0
330
6F
100
AcDbEntity
  8
ANCHOR
  6
HIDDEN
100
AcDbLine
 10
227.2273721251386
 20
418.7555691124205
 30
0.0
 11
228.2273721251311
 21
419.7555691124206
 31
0.0
  0
LINE
  5
2E1
330
6F
100
AcDbEntity
  8
ANCHOR
  6
HIDDEN
100
AcDbLine
 10
227.2273721248696
 20
418.7555691124191
 30
0.0
 11
227.2273721248548
 21
422.7555691124191
 31
0.0
  0
LINE
  5
2E2
330
6F
100
AcDbEntity
  8
ANCHOR
  6
HIDDEN
100
AcDbLine
 10
228.2273721246356
 20
419.7555691124193
 30
0.0
 11
228.2273721246263
 21
421.7555691124194
 31
0.0
  0
LINE
  5
2E3
330
6F
100
AcDbEntity
  8
ANCHOR
  6
HIDDEN
100
AcDbLine
 10
228.0273721251333
 20
419.5555691124193
 30
0.0
 11
217.7273721232427
 21
419.5555691124605
 31
0.0
  0
LINE
  5
2E4
330
6F
100
AcDbEntity
  8
ANCHOR
  6
HIDDEN
100
AcDbLine
 10
228.0273721245922
 20
421.9555691124191
 30
0.0
 11
217.7273721232519
 21
421.9555691124603
 31
0.0
  0
LINE
  5
2E5
330
6F
100
AcDbEntity
  8
ANCHOR
  6
Continuous
100
AcDbLine
 10
215.7050615421047
 20
421.2537673600494
 30
0.0
 11
215.7050615421052
 21
420.2573708645673
 31
0.0
  0
LINE
  5
2E6
330
6F
100
AcDbEntity
  8
ANCHOR
  6
Continuous
100
AcDbLine
 10
215.7050615421045
 20
421.2537673600498
 30
0.0
 11
215.2273721234301
 21
421.2537673600498
 31
0.0
  0
LINE
  5
2E7
330
6F
100
AcDbEntity
  8
ANCHOR
  6
Continuous
100
AcDbLine
 10
215.7050615421049
 20
420.2573708645674
 30
0.0
 11
215.2273721234306
 21
420.2573708645674
 31
0.0
  0
LINE
  5
2E8
330
6F
100
AcDbEntity
  8
ANCHOR
  6
Continuous
100
AcDbLine
 10
217.2273721234471
 20
416.0555691123065
 30
0.0
 11
217.7273721234471
 21
416.0555691123069
 31
0.0
  0
ARC
  5
2E9
330
6F
100
AcDbEntity
  8
ANCHOR
  6
Continuous
100
AcDbCircle
 10
221.3188375177531
 20
420.5799376789913
 30
0.0
 40
6.099999999999999
100
AcDbArc
 50
183.0312034848472
 51
227.876411461438
  0
LINE
  5
2EA
330
6F
100
AcDbEntity
  8
ANCHOR
  6
Continuous
100
AcDbLine
 10
217.2273721234131
 20
425.4555691123086
 30
0.0
 11
217.2273721234479
 21
416.0555691123071
 31
0.0
  0
ARC
  5
2EB
330
6F
100
AcDbEntity
  8
ANCHOR
  6
Continuous
100
AcDbCircle
 10
221.3188375177531
 20
420.9312005456289
 30
0.0
 40
6.099999999999999
100
AcDbArc
 50
132.1235885386251
 51
176.9687965152159
  0
LINE
  5
2EC
330
6F
100
AcDbEntity
  8
ANCHOR
  6
Continuous
100
AcDbLine
 10
217.7273721234137
 20
425.4555691123099
 30
0.0
 11
217.7273721234484
 21
416.0555691123084
 31
0.0
  0
LINE
  5
2ED
330
6F
100
AcDbEntity
  8
ANCHOR
  6
Continuous
100
AcDbLine
 10
217.2273721234426
 20
425.4555691123082
 30
0.0
 11
217.7273721234426
 21
425.4555691123086
 31
0.0
  0
LINE
  5
2EE
330
6F
100
AcDbEntity
  8
ANCHOR
  6
HIDDEN
100
AcDbLine
 10
242.7273721234749
 20
403.7555691123123
 30
0.0
 11
243.0273721234833
 21
403.7555691123123
 31
0.0
  0
LINE
  5
2EF
330
6F
100
AcDbEntity
  8
ANCHOR
  6
HIDDEN
100
AcDbLine
 10
243.0273721235101
 20
378.2555691123125
 30
0.0
 11
243.0273721234819
 21
403.7555691123126
 31
0.0
  0
LINE
  5
2F0
330
6F
100
AcDbEntity
  8
ANCHOR
  6
HIDDEN
100
AcDbLine
 10
241.0689159441696
 20
370.4272652920454
 30
0.0
 11
238.6982166493243
 21
370.6863360534823
 31
0.0
  0
LINE
  5
2F1
330
6F
100
AcDbEntity
  8
ANCHOR
  6
HIDDEN
100
AcDbLine
 10
238.7273721234806
 20
405.7555691123033
 30
0.0
 11
238.0273721234752
 21
410.7555691123014
 31
0.0
  0
LINE
  5
2F2
330
6F
100
AcDbEntity
  8
ANCHOR
  6
HIDDEN
100
AcDbLine
 10
242.7273721234893
 20
403.7555691123116
 30
0.0
 11
242.4273721234827
 21
403.7555691123108
 31
0.0
  0
LINE
  5
2F3
330
6F
100
AcDbEntity
  8
ANCHOR
  6
HIDDEN
100
AcDbLine
 10
242.4273721235109
 20
378.2555691123109
 30
0.0
 11
242.4273721234825
 21
403.7555691123113
 31
0.0
  0
LINE
  5
2F4
330
6F
100
AcDbEntity
  8
ANCHOR
  6
HIDDEN
100
AcDbLine
 10
238.7273721234866
 20
400.2555691123031
 30
0.0
 11
239.7273721234865
 21
399.7555691123056
 31
0.0
  0
LINE
  5
2F5
330
6F
100
AcDbEntity
  8
ANCHOR
  6
HIDDEN
100
AcDbLine
 10
239.7273721234872
 20
399.755569112306
 30
0.0
 11
239.9773721234958
 21
391.7555691123066
 31
0.0
  0
LINE
  5
2F6
330
6F
100
AcDbEntity
  8
ANCHOR
  6
HIDDEN
100
AcDbLine
 10
238.7273721234875
 20
400.2555691123034
 30
0.0
 11
238.7273721234759
 21
410.7555691123034
 31
0.0
  0
LINE
  5
2F7
330
6F
100
AcDbEntity
  8
ANCHOR
  6
HIDDEN
100
AcDbLine
 10
241.8918576058291
 20
373.3551940858354
 30
0.0
 11
237.6324027755069
 21
373.8206686437424
 31
0.0
  0
LINE
  5
2F8
330
6F
100
AcDbEntity
  8
ANCHOR
  6
HIDDEN
100
AcDbLine
 10
242.0004911829198
 20
374.3492759466138
 30
0.0
 11
238.3871895621033
 21
374.7441386794126
 31
0.0
  0
LINE
  5
2F9
330
6F
100
AcDbEntity
  8
ANCHOR
  6
HIDDEN
100
AcDbLine
 10
238.6982166493257
 20
370.6863360534812
 30
0.0
 11
237.6324027755076
 21
373.8206686437419
 31
0.0
  0
LINE
  5
2FA
330
6F
100
AcDbEntity
  8
ANCHOR
  6
HIDDEN
100
AcDbLine
 10
237.6324027755062
 20
373.8206686437414
 30
0.0
 11
238.3871895621033
 21
374.7441386794122
 31
0.0
  0
LINE
  5
2FB
330
6F
100
AcDbEntity
  8
ANCHOR
  6
HIDDEN
100
AcDbLine
 10
242.1091247600114
 20
375.3433578073914
 30
0.0
 11
237.8496699296875
 21
375.8088323652984
 31
0.0
  0
LINE
  5
2FC
330
6F
100
AcDbEntity
  8
ANCHOR
  6
HIDDEN
100
AcDbLine
 10
238.387189562104
 20
374.7441386794113
 30
0.0
 11
237.8496699296886
 21
375.8088323652977
 31
0.0
  0
LINE
  5
2FD
330
6F
100
AcDbEntity
  8
ANCHOR
  6
HIDDEN
100
AcDbLine
 10
242.2720751256486
 20
376.8344805985589
 30
0.0
 11
238.0126202953246
 21
377.299955156466
 31
0.0
  0
LINE
  5
2FE
330
6F
100
AcDbEntity
  8
ANCHOR
  6
HIDDEN
100
AcDbLine
 10
237.8496699296879
 20
375.8088323652984
 30
0.0
 11
238.0126202953238
 21
377.2999551564657
 31
0.0
  0
LINE
  5
2FF
330
6F
100
AcDbEntity
  8
ANCHOR
  6
HIDDEN
100
AcDbLine
 10
238.1918656975243
 20
378.9401902267448
 30
0.0
 11
238.4471546036877
 21
381.2762825995788
 31
0.0
  0
LINE
  5
300
330
6F
100
AcDbEntity
  8
ANCHOR
  6
HIDDEN
100
AcDbLine
 10
242.3263919141914
 20
377.3315215289493
 30
0.0
 11
238.7130902933712
 21
377.7263842617482
 31
0.0
  0
LINE
  5
301
330
6F
100
AcDbEntity
  8
ANCHOR
  6
HIDDEN
100
AcDbLine
 10
242.380708702738
 20
377.8285624593377
 30
0.0
 11
238.7674070819161
 21
378.2234251921368
 31
0.0
  0
LINE
  5
302
330
6F
100
AcDbEntity
  8
ANCHOR
  6
HIDDEN
100
AcDbLine
 10
238.713090293372
 20
377.7263842617474
 30
0.0
 11
238.0126202953234
 21
377.2999551564657
 31
0.0
  0
LINE
  5
303
330
6F
100
AcDbEntity
  8
ANCHOR
  6
HIDDEN
100
AcDbLine
 10
238.7130902933732
 20
377.7263842617471
 30
0.0
 11
238.7674070819173
 21
378.2234251921363
 31
0.0
  0
LINE
  5
304
330
6F
100
AcDbEntity
  8
ANCHOR
  6
HIDDEN
100
AcDbLine
 10
238.7674070819151
 20
378.223425192137
 30
0.0
 11
238.1918656975218
 21
378.9401902267453
 31
0.0
  0
LINE
  5
305
330
6F
100
AcDbEntity
  8
ANCHOR
  6
HIDDEN
100
AcDbLine
 10
242.0258493024886
 20
380.8852017220568
 30
0.0
 11
238.4471546036859
 21
381.2762825995792
 31
0.0
  0
LINE
  5
306
330
6F
100
AcDbEntity
  8
ANCHOR
  6
HIDDEN
100
AcDbLine
 10
239.0933078131907
 20
381.2056707744711
 30
0.0
 11
239.1476246017349
 21
381.70271170486
 31
0.0
  0
LINE
  5
307
330
6F
100
AcDbEntity
  8
ANCHOR
  6
HIDDEN
100
AcDbLine
 10
242.0801660910341
 20
381.3822426524466
 30
0.0
 11
239.1476246017333
 21
381.7027117048613
 31
0.0
  0
LINE
  5
308
330
6F
100
AcDbEntity
  8
ANCHOR
  6
HIDDEN
100
AcDbLine
 10
239.1476246017321
 20
381.702711704859
 30
0.0
 11
238.5720832173386
 21
382.4194767394674
 31
0.0
  0
LINE
  5
309
330
6F
100
AcDbEntity
  8
ANCHOR
  6
HIDDEN
100
AcDbLine
 10
238.8273721235076
 20
382.4055691122989
 30
0.0
 11
238.8273721235049
 21
384.7555691123039
 31
0.0
  0
LINE
  5
30A
330
6F
100
AcDbEntity
  8
ANCHOR
  6
HIDDEN
100
AcDbLine
 10
242.4273721235044
 20
384.7555691123111
 30
0.0
 11
238.8273721235041
 21
384.7555691123032
 31
0.0
  0
LINE
  5
30B
330
6F
100
AcDbEntity
  8
ANCHOR
  6
HIDDEN
100
AcDbLine
 10
239.4773721234997
 20
384.7555691123043
 30
0.0
 11
239.477372123498
 21
385.2555691123043
 31
0.0
  0
LINE
  5
30C
330
6F
100
AcDbEntity
  8
ANCHOR
  6
HIDDEN
100
AcDbLine
 10
242.4273721235045
 20
385.2555691123116
 30
0.0
 11
239.4773721234983
 21
385.255569112305
 31
0.0
  0
LINE
  5
30D
330
6F
100
AcDbEntity
  8
ANCHOR
  6
HIDDEN
100
AcDbLine
 10
239.4773721234978
 20
385.2555691123055
 30
0.0
 11
238.8273721235016
 21
385.9055691122989
 31
0.0
  0
LINE
  5
30E
330
6F
100
AcDbEntity
  8
ANCHOR
  6
HIDDEN
100
AcDbLine
 10
238.8273721235035
 20
385.9055691122987
 30
0.0
 11
238.8273721235008
 21
388.2555691123037
 31
0.0
  0
LINE
  5
30F
330
6F
100
AcDbEntity
  8
ANCHOR
  6
HIDDEN
100
AcDbLine
 10
242.427372123501
 20
388.2555691123121
 30
0.0
 11
238.8273721235007
 21
388.255569112304
 31
0.0
  0
LINE
  5
310
330
6F
100
AcDbEntity
  8
ANCHOR
  6
HIDDEN
100
AcDbLine
 10
239.4773721234977
 20
388.2555691123051
 30
0.0
 11
239.4773721234961
 21
388.7555691123051
 31
0.0
  0
LINE
  5
311
330
6F
100
AcDbEntity
  8
ANCHOR
  6
HIDDEN
100
AcDbLine
 10
242.4273721235005
 20
388.7555691123121
 30
0.0
 11
239.4773721234961
 21
388.7555691123055
 31
0.0
  0
LINE
  5
312
330
6F
100
AcDbEntity
  8
ANCHOR
  6
HIDDEN
100
AcDbLine
 10
239.4773721234947
 20
388.7555691123048
 30
0.0
 11
238.8273721234982
 21
389.4055691122983
 31
0.0
  0
LINE
  5
313
330
6F
100
AcDbEntity
  8
ANCHOR
  6
HIDDEN
100
AcDbLine
 10
238.8273721235006
 20
388.2555691123037
 30
0.0
 11
238.8273721234967
 21
391.7555691123041
 31
0.0
  0
LINE
  5
314
330
6F
100
AcDbEntity
  8
ANCHOR
  6
HIDDEN
100
AcDbLine
 10
242.4273721234962
 20
391.7555691123116
 30
0.0
 11
238.7273721233555
 21
391.7555691123034
 31
0.0
  0
LINE
  5
315
330
6F
100
AcDbEntity
  8
ANCHOR
  6
HIDDEN
100
AcDbLine
 10
242.4273721234953
 20
392.2555691123118
 30
0.0
 11
239.9617471234946
 21
392.2555691123063
 31
0.0
  0
LINE
  5
316
330
6F
100
AcDbEntity
  8
ANCHOR
  6
HIDDEN
100
AcDbLine
 10
242.4273721234893
 20
395.2555691123123
 30
0.0
 11
239.8679971234922
 21
395.2555691123066
 31
0.0
  0
LINE
  5
317
330
6F
100
AcDbEntity
  8
ANCHOR
  6
HIDDEN
100
AcDbLine
 10
242.4273721234866
 20
395.7555691123118
 30
0.0
 11
239.8523721234913
 21
395.7555691123062
 31
0.0
  0
LINE
  5
318
330
6F
100
AcDbEntity
  8
ANCHOR
  6
HIDDEN
100
AcDbLine
 10
242.4273721234815
 20
398.7555691123114
 30
0.0
 11
239.758622123488
 21
398.7555691123055
 31
0.0
  0
LINE
  5
319
330
6F
100
AcDbEntity
  8
ANCHOR
  6
HIDDEN
100
AcDbLine
 10
242.4273721234794
 20
399.2555691123118
 30
0.0
 11
239.7429971234878
 21
399.2555691123059
 31
0.0
  0
LINE
  5
31A
330
6F
100
AcDbEntity
  8
ANCHOR
  6
HIDDEN
100
AcDbLine
 10
242.4273721235093
 20
378.2555691122993
 30
0.0
 11
241.6202736631017
 21
370.8699894338886
 31
0.0
  0
ARC
  5
31B
330
6F
100
AcDbEntity
  8
ANCHOR
  6
HIDDEN
100
AcDbCircle
 10
241.123232732715
 20
370.9243062224343
 30
0.0
 40
0.5
100
AcDbArc
 50
263.7634467283077
 51
353.7634467282444
  0
LINE
  5
31C
330
6F
100
AcDbEntity
  8
ANCHOR
  6
HIDDEN
100
AcDbLine
 10
242.7273720779525
 20
403.7555691123126
 30
0.0
 11
242.4273720779441
 21
403.7555691123101
 31
0.0
  0
LINE
  5
31D
330
6F
100
AcDbEntity
  8
ANCHOR
  6
HIDDEN
100
AcDbLine
 10
242.4273720781444
 20
378.2555691123097
 30
0.0
 11
242.4273720779464
 21
403.7555691123096
 31
0.0
  0
LINE
  5
31E
330
6F
100
AcDbEntity
  8
ANCHOR
  6
HIDDEN
100
AcDbLine
 10
244.3858282575542
 20
370.4272652920598
 30
0.0
 11
246.7565275523972
 21
370.6863360535178
 31
0.0
  0
LINE
  5
31F
330
6F
100
AcDbEntity
  8
ANCHOR
  6
HIDDEN
100
AcDbLine
 10
246.7273720779321
 20
405.7555691123386
 30
0.0
 11
247.4273720778932
 21
410.7555691123436
 31
0.0
  0
LINE
  5
320
330
6F
100
AcDbEntity
  8
ANCHOR
  6
HIDDEN
100
AcDbLine
 10
242.7273720779369
 20
403.7555691123117
 30
0.0
 11
243.0273720779452
 21
403.7555691123138
 31
0.0
  0
LINE
  5
321
330
6F
100
AcDbEntity
  8
ANCHOR
  6
HIDDEN
100
AcDbLine
 10
243.0273720781441
 20
378.2555691123138
 30
0.0
 11
243.0273720779462
 21
403.7555691123138
 31
0.0
  0
LINE
  5
322
330
6F
100
AcDbEntity
  8
ANCHOR
  6
HIDDEN
100
AcDbLine
 10
246.7273720779745
 20
400.2555691123391
 30
0.0
 11
245.7273720779772
 21
399.7555691123321
 31
0.0
  0
LINE
  5
323
330
6F
100
AcDbEntity
  8
ANCHOR
  6
HIDDEN
100
AcDbLine
 10
245.7273720779773
 20
399.755569112332
 30
0.0
 11
245.4773720780397
 21
391.7555691123305
 31
0.0
  0
LINE
  5
324
330
6F
100
AcDbEntity
  8
ANCHOR
  6
HIDDEN
100
AcDbLine
 10
246.727372077972
 20
400.2555691123393
 30
0.0
 11
246.7273720778905
 21
410.7555691123393
 31
0.0
  0
LINE
  5
325
330
6F
100
AcDbEntity
  8
ANCHOR
  6
HIDDEN
100
AcDbLine
 10
243.5628865958693
 20
373.3551940858422
 30
0.0
 11
247.8223414261872
 21
373.820668643787
 31
0.0
  0
LINE
  5
326
330
6F
100
AcDbEntity
  8
ANCHOR
  6
HIDDEN
100
AcDbLine
 10
243.4542530187665
 20
374.3492759466191
 30
0.0
 11
247.0675546395795
 21
374.7441386794499
 31
0.0
  0
LINE
  5
327
330
6F
100
AcDbEntity
  8
ANCHOR
  6
HIDDEN
100
AcDbLine
 10
246.7565275523973
 20
370.6863360535178
 30
0.0
 11
247.8223414261875
 21
373.8206686437874
 31
0.0
  0
LINE
  5
328
330
6F
100
AcDbEntity
  8
ANCHOR
  6
HIDDEN
100
AcDbLine
 10
247.8223414261859
 20
373.8206686437875
 30
0.0
 11
247.0675546395811
 21
374.7441386794509
 31
0.0
  0
LINE
  5
329
330
6F
100
AcDbEntity
  8
ANCHOR
  6
HIDDEN
100
AcDbLine
 10
243.3456194416708
 20
375.3433578073973
 30
0.0
 11
247.6050742719883
 21
375.8088323653418
 31
0.0
  0
LINE
  5
32A
330
6F
100
AcDbEntity
  8
ANCHOR
  6
HIDDEN
100
AcDbLine
 10
247.0675546395805
 20
374.7441386794515
 30
0.0
 11
247.6050742719866
 21
375.8088323653429
 31
0.0
  0
LINE
  5
32B
330
6F
100
AcDbEntity
  8
ANCHOR
  6
HIDDEN
100
AcDbLine
 10
243.1826690760211
 20
376.8344805985625
 30
0.0
 11
247.442123906341
 21
377.2999551565072
 31
0.0
  0
LINE
  5
32C
330
6F
100
AcDbEntity
  8
ANCHOR
  6
HIDDEN
100
AcDbLine
 10
247.6050742719885
 20
375.8088323653418
 30
0.0
 11
247.4421239063395
 21
377.2999551565078
 31
0.0
  0
LINE
  5
32D
330
6F
100
AcDbEntity
  8
ANCHOR
  6
HIDDEN
100
AcDbLine
 10
247.2628785041254
 20
378.940190226785
 30
0.0
 11
247.0075895979412
 21
381.2762825996169
 31
0.0
  0
LINE
  5
32E
330
6F
100
AcDbEntity
  8
ANCHOR
  6
HIDDEN
100
AcDbLine
 10
243.1283522874705
 20
377.3315215289524
 30
0.0
 11
246.7416539082872
 21
377.7263842617834
 31
0.0
  0
LINE
  5
32F
330
6F
100
AcDbEntity
  8
ANCHOR
  6
HIDDEN
100
AcDbLine
 10
243.0740354989202
 20
377.8285624593409
 30
0.0
 11
246.6873371197386
 21
378.2234251921723
 31
0.0
  0
LINE
  5
330
330
6F
100
AcDbEntity
  8
ANCHOR
  6
HIDDEN
100
AcDbLine
 10
246.7416539082858
 20
377.7263842617834
 30
0.0
 11
247.4421239063381
 21
377.299955156508
 31
0.0
  0
LINE
  5
331
330
6F
100
AcDbEntity
  8
ANCHOR
  6
HIDDEN
100
AcDbLine
 10
246.7416539082867
 20
377.7263842617828
 30
0.0
 11
246.687337119738
 21
378.2234251921719
 31
0.0
  0
LINE
  5
332
330
6F
100
AcDbEntity
  8
ANCHOR
  6
HIDDEN
100
AcDbLine
 10
246.6873371197379
 20
378.2234251921718
 30
0.0
 11
247.2628785041248
 21
378.9401902267852
 31
0.0
  0
LINE
  5
333
330
6F
100
AcDbEntity
  8
ANCHOR
  6
HIDDEN
100
AcDbLine
 10
243.4288948991427
 20
380.885201722063
 30
0.0
 11
247.007589597942
 21
381.2762825996168
 31
0.0
  0
LINE
  5
334
330
6F
100
AcDbEntity
  8
ANCHOR
  6
HIDDEN
100
AcDbLine
 10
246.3614363884375
 20
381.2056707745029
 30
0.0
 11
246.3071195998888
 21
381.7027117048919
 31
0.0
  0
LINE
  5
335
330
6F
100
AcDbEntity
  8
ANCHOR
  6
HIDDEN
100
AcDbLine
 10
243.3745781105925
 20
381.3822426524522
 30
0.0
 11
246.3071195998905
 21
381.7027117048929
 31
0.0
  0
LINE
  5
336
330
6F
100
AcDbEntity
  8
ANCHOR
  6
HIDDEN
100
AcDbLine
 10
246.3071195998911
 20
381.7027117048919
 30
0.0
 11
246.8826609842781
 21
382.4194767395053
 31
0.0
  0
LINE
  5
337
330
6F
100
AcDbEntity
  8
ANCHOR
  6
HIDDEN
100
AcDbLine
 10
246.6273720781127
 20
382.4055691123328
 30
0.0
 11
246.6273720780944
 21
384.7555691123378
 31
0.0
  0
LINE
  5
338
330
6F
100
AcDbEntity
  8
ANCHOR
  6
HIDDEN
100
AcDbLine
 10
243.027372078093
 20
384.7555691123138
 30
0.0
 11
246.6273720780934
 21
384.7555691123378
 31
0.0
  0
LINE
  5
339
330
6F
100
AcDbEntity
  8
ANCHOR
  6
HIDDEN
100
AcDbLine
 10
245.977372078096
 20
384.7555691123339
 30
0.0
 11
245.9773720780933
 21
385.2555691123339
 31
0.0
  0
LINE
  5
33A
330
6F
100
AcDbEntity
  8
ANCHOR
  6
HIDDEN
100
AcDbLine
 10
243.0273720780882
 20
385.255569112315
 30
0.0
 11
245.9773720780926
 21
385.2555691123346
 31
0.0
  0
LINE
  5
33B
330
6F
100
AcDbEntity
  8
ANCHOR
  6
HIDDEN
100
AcDbLine
 10
245.9773720780936
 20
385.255569112332
 30
0.0
 11
246.627372078084
 21
385.9055691123312
 31
0.0
  0
LINE
  5
33C
330
6F
100
AcDbEntity
  8
ANCHOR
  6
HIDDEN
100
AcDbLine
 10
246.6273720780855
 20
385.9055691123328
 30
0.0
 11
246.6273720780672
 21
388.2555691123378
 31
0.0
  0
LINE
  5
33D
330
6F
100
AcDbEntity
  8
ANCHOR
  6
HIDDEN
100
AcDbLine
 10
243.0273720780668
 20
388.2555691123138
 30
0.0
 11
246.6273720780671
 21
388.2555691123378
 31
0.0
  0
LINE
  5
33E
330
6F
100
AcDbEntity
  8
ANCHOR
  6
HIDDEN
100
AcDbLine
 10
245.9773720780699
 20
388.2555691123334
 30
0.0
 11
245.9773720780672
 21
388.7555691123334
 31
0.0
  0
LINE
  5
33F
330
6F
100
AcDbEntity
  8
ANCHOR
  6
HIDDEN
100
AcDbLine
 10
243.0273720780612
 20
388.7555691123147
 30
0.0
 11
245.9773720780656
 21
388.7555691123343
 31
0.0
  0
LINE
  5
340
330
6F
100
AcDbEntity
  8
ANCHOR
  6
HIDDEN
100
AcDbLine
 10
245.9773720780664
 20
388.7555691123337
 30
0.0
 11
246.627372078057
 21
389.405569112333
 31
0.0
  0
LINE
  5
341
330
6F
100
AcDbEntity
  8
ANCHOR
  6
HIDDEN
100
AcDbLine
 10
246.6273720780676
 20
388.2555691123384
 30
0.0
 11
246.6273720780405
 21
391.7555691123388
 31
0.0
  0
LINE
  5
342
330
6F
100
AcDbEntity
  8
ANCHOR
  6
HIDDEN
100
AcDbLine
 10
243.0273720780384
 20
391.7555691123145
 30
0.0
 11
246.727372078181
 21
391.7555691123391
 31
0.0
  0
LINE
  5
343
330
6F
100
AcDbEntity
  8
ANCHOR
  6
HIDDEN
100
AcDbLine
 10
243.0273720780355
 20
392.2555691123142
 30
0.0
 11
245.4929970780345
 21
392.2555691123307
 31
0.0
  0
LINE
  5
344
330
6F
100
AcDbEntity
  8
ANCHOR
  6
HIDDEN
100
AcDbLine
 10
243.0273720780167
 20
395.2555691123147
 30
0.0
 11
245.586747078012
 21
395.2555691123318
 31
0.0
  0
LINE
  5
345
330
6F
100
AcDbEntity
  8
ANCHOR
  6
HIDDEN
100
AcDbLine
 10
243.027372078013
 20
395.7555691123138
 30
0.0
 11
245.6023720780082
 21
395.755569112331
 31
0.0
  0
LINE
  5
346
330
6F
100
AcDbEntity
  8
ANCHOR
  6
HIDDEN
100
AcDbLine
 10
243.0273720779926
 20
398.7555691123137
 30
0.0
 11
245.6961220779842
 21
398.7555691123314
 31
0.0
  0
LINE
  5
347
330
6F
100
AcDbEntity
  8
ANCHOR
  6
HIDDEN
100
AcDbLine
 10
243.0273720779903
 20
399.255569112314
 30
0.0
 11
245.7117470779819
 21
399.2555691123318
 31
0.0
  0
LINE
  5
348
330
6F
100
AcDbEntity
  8
ANCHOR
  6
HIDDEN
100
AcDbLine
 10
243.0273720781426
 20
378.2555691123027
 30
0.0
 11
243.8344705386157
 21
370.8699894338989
 31
0.0
  0
ARC
  5
349
330
6F
100
AcDbEntity
  8
ANCHOR
  6
HIDDEN
100
AcDbCircle
 10
244.3315114690056
 20
370.9243062224484
 30
0.0
 40
0.5
100
AcDbArc
 50
186.2365532722638
 51
276.2365532722005
  0
LINE
  5
34A
330
6F
100
AcDbEntity
  8
ANCHOR
  6
HIDDEN
100
AcDbLine
 10
238.727372123356
 20
391.755569112304
 30
0.0
 11
237.1158880971461
 21
399.5915833560878
 31
0.0
  0
LINE
  5
34B
330
6F
100
AcDbEntity
  8
ANCHOR
  6
HIDDEN
100
AcDbLine
 10
238.2116887197266
 20
399.2275032425847
 30
0.0
 11
237.1158880971752
 21
399.5915833559481
 31
0.0
  0
LINE
  5
34C
330
6F
100
AcDbEntity
  8
ANCHOR
  6
HIDDEN
100
AcDbLine
 10
239.7482993129742
 20
391.7555691123058
 30
0.0
 11
238.2116887197267
 21
399.2275032425848
 31
0.0
  0
LINE
  5
34D
330
6F
100
AcDbEntity
  8
ANCHOR
  6
HIDDEN
100
AcDbLine
 10
246.7273720781786
 20
391.7555691123098
 30
0.0
 11
248.3388561043711
 21
399.5915833560975
 31
0.0
  0
LINE
  5
34E
330
6F
100
AcDbEntity
  8
ANCHOR
  6
HIDDEN
100
AcDbLine
 10
247.2430554817933
 20
399.2275032425915
 30
0.0
 11
248.338856104344
 21
399.5915833559574
 31
0.0
  0
LINE
  5
34F
330
6F
100
AcDbEntity
  8
ANCHOR
  6
HIDDEN
100
AcDbLine
 10
245.7064448885615
 20
391.755569112309
 30
0.0
 11
247.2430554817922
 21
399.2275032425911
 31
0.0
  0
LINE
  5
350
330
6F
100
AcDbEntity
  8
ANCHOR
  6
HIDDEN
100
AcDbLine
 10
242.7273721689338
 20
358.7555691123113
 30
0.0
 11
239.9773721344775
 21
369.0187089614263
 31
0.0
  0
LINE
  5
351
330
6F
100
AcDbEntity
  8
ANCHOR
  6
HIDDEN
100
AcDbLine
 10
242.7273721234753
 20
358.755569112311
 30
0.0
 11
245.4773721342489
 21
369.0187088734047
 31
0.0
  0
LINE
  5
352
330
6F
100
AcDbEntity
  8
ANCHOR
  6
HIDDEN
100
AcDbLine
 10
239.977372134479
 20
369.0187089614267
 30
0.0
 11
239.9773721339327
 21
370.5465495414959
 31
0.0
  0
LINE
  5
353
330
6F
100
AcDbEntity
  8
ANCHOR
  6
HIDDEN
100
AcDbLine
 10
245.477372134249
 20
369.0187088734045
 30
0.0
 11
245.4773721338875
 21
370.5465495487437
 31
0.0
  0
ARC
  5
354
330
6F
100
AcDbEntity
  8
ANCHOR
  6
Continuous
100
AcDbCircle
 10
242.727372123424
 20
404.1555691123021
 30
0.0
 40
14.0
100
AcDbArc
 50
74.63751496329646
 51
105.3624850364064
  0
LINE
  5
355
330
6F
100
AcDbEntity
  8
ANCHOR
  6
Continuous
100
AcDbLine
 10
237.4773721234012
 20
414.855569112291
 30
0.0
 11
237.485713432094
 21
414.9179062927615
 31
0.0
  0
LINE
  5
356
330
6F
100
AcDbEntity
  8
ANCHOR
  6
Continuous
100
AcDbLine
 10
247.977372123405
 20
414.8555691123132
 30
0.0
 11
247.8257322491112
 21
415.9888208066532
 31
0.0
  0
ARC
  5
357
330
6F
100
AcDbEntity
  8
ANCHOR
  6
Continuous
100
AcDbCircle
 10
245.9329623227175
 20
415.8232248953987
 30
0.0
 40
1.9
100
AcDbArc
 50
5.000000000119887
 51
74.63751496329646
  0
LINE
  5
358
330
6F
100
AcDbEntity
  8
ANCHOR
  6
Continuous
100
AcDbLine
 10
249.2273721234341
 20
414.8555691123152
 30
0.0
 11
236.2273721234414
 21
414.8555691122879
 31
0.0
  0
LINE
  5
359
330
6F
100
AcDbEntity
  8
ANCHOR
  6
Continuous
100
AcDbLine
 10
236.2273721234336
 20
414.2555691122892
 30
0.0
 11
236.2273721234337
 21
414.2899579990402
 31
0.0
  0
LINE
  5
35A
330
6F
100
AcDbEntity
  8
ANCHOR
  6
Continuous
100
AcDbLine
 10
249.2273721234325
 20
414.2555691123162
 30
0.0
 11
249.227372123433
 21
414.8555691123161
 31
0.0
  0
LINE
  5
35B
330
6F
100
AcDbEntity
  8
ANCHOR
  6
HIDDEN
100
AcDbLine
 10
245.4773721246137
 20
409.2555691121237
 30
0.0
 11
245.4773721234311
 21
414.2555691123079
 31
0.0
  0
LINE
  5
35C
330
6F
100
AcDbEntity
  8
ANCHOR
  6
HIDDEN
100
AcDbLine
 10
239.9773721252206
 20
409.255569112138
 30
0.0
 11
239.9773721234328
 21
414.2555691122966
 31
0.0
  0
LINE
  5
35D
330
6F
100
AcDbEntity
  8
ANCHOR
  6
Continuous
100
AcDbLine
 10
249.2273721234336
 20
414.255569112315
 30
0.0
 11
236.2273721234336
 21
414.2555691122876
 31
0.0
  0
LINE
  5
35E
330
6F
100
AcDbEntity
  8
ANCHOR
  6
Continuous
100
AcDbLine
 10
237.4773721234735
 20
414.8555691123847
 30
0.0
 11
237.6290119977819
 21
415.9888208067217
 31
0.0
  0
ARC
  5
35F
330
6F
100
AcDbEntity
  8
ANCHOR
  6
Continuous
100
AcDbCircle
 10
239.5217819241686
 20
415.8232248954422
 30
0.0
 40
1.9
100
AcDbArc
 50
105.3624850359274
 51
174.999999999104
  0
LINE
  5
360
330
6F
100
AcDbEntity
  8
ANCHOR
  6
Continuous
100
AcDbLine
 10
236.2273721234348
 20
414.2555691124042
 30
0.0
 11
236.2273721234426
 21
414.8555691124041
 31
0.0
  0
LINE
  5
361
330
6F
100
AcDbEntity
  8
KUTAI
  6
Continuous
100
AcDbLine
 10
632.7412277187526
 20
142.8364496096263
 30
0.0
 11
582.7412277187526
 21
142.8364496096263
 31
0.0
  0
LINE
  5
362
330
6F
100
AcDbEntity
  8
KUTAI
  6
Continuous
100
AcDbLine
 10
635.7412277187527
 20
113.8364496096263
 30
0.0
 11
635.7412277187527
 21
139.8364496096263
 31
0.0
  0
LINE
  5
363
330
6F
100
AcDbEntity
  8
KUTAI
  6
Continuous
100
AcDbLine
 10
579.7412277187527
 20
139.8364496096263
 30
0.0
 11
579.7412277187527
 21
113.8364496096263
 31
0.0
  0
LINE
  5
364
330
6F
100
AcDbEntity
  8
KUTAI
  6
Continuous
100
AcDbLine
 10
582.7412277187526
 20
110.8364496096263
 30
0.0
 11
632.7412277187526
 21
110.8364496096263
 31
0.0
  0
LINE
  5
365
330
6F
100
AcDbEntity
  8
KUTAI
  6
Continuous
100
AcDbLine
 10
518.9620800525037
 20
142.8364496096263
 30
0.0
 11
562.7412277187528
 21
142.8364496096263
 31
0.0
  0
LINE
  5
366
330
6F
100
AcDbEntity
  8
KUTAI
  6
Continuous
100
AcDbLine
 10
565.7412277187527
 20
113.8364496096263
 30
0.0
 11
565.7412277187527
 21
139.8364496096263
 31
0.0
  0
LINE
  5
367
330
6F
100
AcDbEntity
  8
KUTAI
  6
Continuous
100
AcDbLine
 10
518.9620800525037
 20
110.8364496096263
 30
0.0
 11
562.7412277187528
 21
110.8364496096263
 31
0.0
  0
LINE
  5
368
330
6F
100
AcDbEntity
  8
KUTAI
  6
Continuous
100
AcDbLine
 10
652.7412277187527
 20
142.8364496096263
 30
0.0
 11
694.1524096246031
 21
142.8364496096263
 31
0.0
  0
LINE
  5
369
330
6F
100
AcDbEntity
  8
KUTAI
  6
Continuous
100
AcDbLine
 10
649.7412277187527
 20
139.8364496096263
 30
0.0
 11
649.7412277187527
 21
113.8364496096263
 31
0.0
  0
LINE
  5
36A
330
6F
100
AcDbEntity
  8
KUTAI
  6
Continuous
100
AcDbLine
 10
652.7412277187527
 20
110.8364496096263
 30
0.0
 11
694.1524096246031
 21
110.8364496096263
 31
0.0
  0
LINE
  5
36B
330
6F
100
AcDbEntity
  8
KUTAI
  6
Continuous
100
AcDbLine
 10
518.9620800525037
 20
156.8364496096263
 30
0.0
 11
694.1524096246031
 21
156.8364496096263
 31
0.0
  0
LINE
  5
36C
330
6F
100
AcDbEntity
  8
KUTAI
  6
Continuous
100
AcDbLine
 10
518.9620800525037
 20
96.83644960962631
 30
0.0
 11
694.1524096246031
 21
96.83644960962631
 31
0.0
  0
ARC
  5
36D
330
6F
100
AcDbEntity
  8
KUTAI
  6
Continuous
100
AcDbCircle
 10
632.7412277187526
 20
139.8364496096263
 30
0.0
 40
3.000000191249999
100
AcDbArc
 50
0.0
 51
90.0
  0
ARC
  5
36E
330
6F
100
AcDbEntity
  8
KUTAI
  6
Continuous
100
AcDbCircle
 10
582.7412277187526
 20
139.8364496096263
 30
0.0
 40
3.000000191249999
100
AcDbArc
 50
90.0
 51
180.0
  0
ARC
  5
36F
330
6F
100
AcDbEntity
  8
KUTAI
  6
Continuous
100
AcDbCircle
 10
632.7412277187526
 20
113.8364496096263
 30
0.0
 40
3.000000191249999
100
AcDbArc
 50
270.0
 51
0.0
  0
ARC
  5
370
330
6F
100
AcDbEntity
  8
KUTAI
  6
Continuous
100
AcDbCircle
 10
582.7412277187526
 20
113.8364496096263
 30
0.0
 40
3.000000191249999
100
AcDbArc
 50
180.0
 51
270.0
  0
ARC
  5
371
330
6F
100
AcDbEntity
  8
KUTAI
  6
Continuous
100
AcDbCircle
 10
562.7412277187528
 20
139.8364496096263
 30
0.0
 40
3.000000191249999
100
AcDbArc
 50
0.0
 51
90.0
  0
ARC
  5
372
330
6F
100
AcDbEntity
  8
KUTAI
  6
Continuous
100
AcDbCircle
 10
562.7412277187528
 20
113.8364496096263
 30
0.0
 40
3.000000191249999
100
AcDbArc
 50
270.0
 51
0.0
  0
ARC
  5
373
330
6F
100
AcDbEntity
  8
KUTAI
  6
Continuous
100
AcDbCircle
 10
652.7412277187527
 20
139.8364496096263
 30
0.0
 40
3.000000191249999
100
AcDbArc
 50
90.0
 51
180.0
  0
ARC
  5
374
330
6F
100
AcDbEntity
  8
KUTAI
  6
Continuous
100
AcDbCircle
 10
652.7412277187527
 20
113.8364496096263
 30
0.0
 40
3.000000191249999
100
AcDbArc
 50
180.0
 51
270.0
  0
LINE
  5
375
330
6F
100
AcDbEntity
  8
ANCHOR
  6
HIDDEN
100
AcDbLine
 10
611.2412277190035
 20
160.3364496094666
 30
0.0
 11
610.1812277190032
 21
159.2764496094666
 31
0.0
  0
LINE
  5
376
330
6F
100
AcDbEntity
  8
ANCHOR
  6
HIDDEN
100
AcDbLine
 10
605.7412277190032
 20
129.8364496094668
 30
0.0
 11
605.7412277190032
 21
127.3364496094665
 31
0.0
  0
LINE
  5
377
330
6F
100
AcDbEntity
  8
ANCHOR
  6
HIDDEN
100
AcDbLine
 10
609.7412277190032
 20
129.8364496094668
 30
0.0
 11
609.7412277190032
 21
127.3364496094665
 31
0.0
  0
LINE
  5
378
330
6F
100
AcDbEntity
  8
ANCHOR
  6
Continuous
100
AcDbLine
 10
611.9912277190032
 20
162.7364496094666
 30
0.0
 11
603.4912277190032
 21
162.7364496094666
 31
0.0
  0
LINE
  5
379
330
6F
100
AcDbEntity
  8
ANCHOR
  6
HIDDEN
100
AcDbLine
 10
609.8912277190033
 20
131.3364496094668
 30
0.0
 11
605.5912277190032
 21
131.3364496094668
 31
0.0
  0
LINE
  5
37A
330
6F
100
AcDbEntity
  8
ANCHOR
  6
HIDDEN
100
AcDbLine
 10
609.7412277190032
 20
127.3364496094665
 30
0.0
 11
605.7412277190032
 21
127.3364496094665
 31
0.0
  0
LINE
  5
37B
330
6F
100
AcDbEntity
  8
ANCHOR
  6
HIDDEN
100
AcDbLine
 10
609.7412277190032
 20
129.8364496094668
 30
0.0
 11
605.7412277190032
 21
129.8364496094668
 31
0.0
  0
LINE
  5
37C
330
6F
100
AcDbEntity
  8
ANCHOR
  6
HIDDEN
100
AcDbLine
 10
609.7412277190032
 20
129.8364496094667
 30
0.0
 11
609.8912277190033
 21
131.3364496094667
 31
0.0
  0
LINE
  5
37D
330
6F
100
AcDbEntity
  8
ANCHOR
  6
HIDDEN
100
AcDbLine
 10
605.7412277190032
 20
129.8364496094667
 30
0.0
 11
605.5912277190032
 21
131.3364496094667
 31
0.0
  0
LINE
  5
37E
330
6F
100
AcDbEntity
  8
ANCHOR
  6
HIDDEN
100
AcDbLine
 10
604.2412277190031
 20
160.3364496094665
 30
0.0
 11
605.3012277190029
 21
159.2764496094666
 31
0.0
  0
LINE
  5
37F
330
6F
100
AcDbEntity
  8
ANCHOR
  6
HIDDEN
100
AcDbLine
 10
610.1812277190032
 20
159.2764496094666
 30
0.0
 11
605.3012277190033
 21
159.2764496094666
 31
0.0
  0
LINE
  5
380
330
6F
100
AcDbEntity
  8
ANCHOR
  6
HIDDEN
100
AcDbLine
 10
610.3912277190033
 20
143.8574496095208
 30
0.0
 11
609.8912277190033
 21
143.5687744749257
 31
0.0
  0
LINE
  5
381
330
6F
100
AcDbEntity
  8
ANCHOR
  6
HIDDEN
100
AcDbLine
 10
604.5412277190028
 20
143.8574496095206
 30
0.0
 11
605.5912277190032
 21
143.576102957468
 31
0.0
  0
LINE
  5
382
330
6F
100
AcDbEntity
  8
ANCHOR
  6
HIDDEN
100
AcDbLine
 10
610.9412277190037
 20
145.6714496095205
 30
0.0
 11
609.8912277190037
 21
145.9527962615731
 31
0.0
  0
LINE
  5
383
330
6F
100
AcDbEntity
  8
ANCHOR
  6
HIDDEN
100
AcDbLine
 10
610.3912277190034
 20
143.8574496095208
 30
0.0
 11
609.8912277190033
 21
144.1461247441157
 31
0.0
  0
LINE
  5
384
330
6F
100
AcDbEntity
  8
ANCHOR
  6
HIDDEN
100
AcDbLine
 10
605.0912277190034
 20
142.0434496095208
 30
0.0
 11
605.5912277190038
 21
142.3321247441154
 31
0.0
  0
LINE
  5
385
330
6F
100
AcDbEntity
  8
ANCHOR
  6
HIDDEN
100
AcDbLine
 10
605.0912277190032
 20
142.0434496095205
 30
0.0
 11
605.5912277190034
 21
141.7547744749256
 31
0.0
  0
LINE
  5
386
330
6F
100
AcDbEntity
  8
ANCHOR
  6
HIDDEN
100
AcDbLine
 10
610.9412277190032
 20
145.6714496095206
 30
0.0
 11
604.5412277190031
 21
143.8574496095206
 31
0.0
  0
LINE
  5
387
330
6F
100
AcDbEntity
  8
ANCHOR
  6
HIDDEN
100
AcDbLine
 10
605.5912277190032
 20
143.576102957468
 30
0.0
 11
610.9412277190032
 21
145.6714496095207
 31
0.0
  0
LINE
  5
388
330
6F
100
AcDbEntity
  8
ANCHOR
  6
HIDDEN
100
AcDbLine
 10
609.8912277190033
 20
145.952796261573
 30
0.0
 11
604.5412277190032
 21
143.8574496095205
 31
0.0
  0
LINE
  5
389
330
6F
100
AcDbEntity
  8
ANCHOR
  6
HIDDEN
100
AcDbLine
 10
609.8912277190028
 20
144.1461247441155
 30
0.0
 11
605.5912277190032
 21
142.3321247441154
 31
0.0
  0
LINE
  5
38A
330
6F
100
AcDbEntity
  8
ANCHOR
  6
HIDDEN
100
AcDbLine
 10
605.0912277190032
 20
142.0434496095206
 30
0.0
 11
610.3912277190032
 21
143.8574496095205
 31
0.0
  0
LINE
  5
38B
330
6F
100
AcDbEntity
  8
ANCHOR
  6
HIDDEN
100
AcDbLine
 10
605.5912277190032
 20
141.754774474926
 30
0.0
 11
609.891227719003
 21
143.5687744749258
 31
0.0
  0
LINE
  5
38C
330
6F
100
AcDbEntity
  8
ANCHOR
  6
HIDDEN
100
AcDbLine
 10
610.3912277190032
 20
140.2294496095344
 30
0.0
 11
609.891227719003
 21
139.9407744749393
 31
0.0
  0
LINE
  5
38D
330
6F
100
AcDbEntity
  8
ANCHOR
  6
HIDDEN
100
AcDbLine
 10
604.5412277190031
 20
140.229449609534
 30
0.0
 11
605.5912277190032
 21
139.9481029574815
 31
0.0
  0
LINE
  5
38E
330
6F
100
AcDbEntity
  8
ANCHOR
  6
HIDDEN
100
AcDbLine
 10
610.9412277190036
 20
142.0434496095345
 30
0.0
 11
609.8912277190033
 21
142.3247962615871
 31
0.0
  0
LINE
  5
38F
330
6F
100
AcDbEntity
  8
ANCHOR
  6
HIDDEN
100
AcDbLine
 10
610.3912277190033
 20
140.229449609534
 30
0.0
 11
609.8912277190033
 21
140.518124744129
 31
0.0
  0
LINE
  5
390
330
6F
100
AcDbEntity
  8
ANCHOR
  6
HIDDEN
100
AcDbLine
 10
605.0912277190032
 20
138.4154496095342
 30
0.0
 11
605.5912277190032
 21
138.7041247441289
 31
0.0
  0
LINE
  5
391
330
6F
100
AcDbEntity
  8
ANCHOR
  6
HIDDEN
100
AcDbLine
 10
605.0912277190032
 20
138.415449609534
 30
0.0
 11
605.591227719003
 21
138.1267744749392
 31
0.0
  0
LINE
  5
392
330
6F
100
AcDbEntity
  8
ANCHOR
  6
HIDDEN
100
AcDbLine
 10
610.9412277190036
 20
142.0434496095343
 30
0.0
 11
604.5412277190036
 21
140.2294496095342
 31
0.0
  0
LINE
  5
393
330
6F
100
AcDbEntity
  8
ANCHOR
  6
HIDDEN
100
AcDbLine
 10
605.5912277190032
 20
139.9481029574812
 30
0.0
 11
610.9412277190031
 21
142.0434496095339
 31
0.0
  0
LINE
  5
394
330
6F
100
AcDbEntity
  8
ANCHOR
  6
HIDDEN
100
AcDbLine
 10
609.8912277190033
 20
142.3247962615868
 30
0.0
 11
604.5412277190032
 21
140.2294496095341
 31
0.0
  0
LINE
  5
395
330
6F
100
AcDbEntity
  8
ANCHOR
  6
HIDDEN
100
AcDbLine
 10
609.8912277190028
 20
140.5181247441291
 30
0.0
 11
605.5912277190032
 21
138.704124744129
 31
0.0
  0
LINE
  5
396
330
6F
100
AcDbEntity
  8
ANCHOR
  6
HIDDEN
100
AcDbLine
 10
605.0912277190032
 20
138.4154496095341
 30
0.0
 11
610.3912277190032
 21
140.2294496095341
 31
0.0
  0
LINE
  5
397
330
6F
100
AcDbEntity
  8
ANCHOR
  6
HIDDEN
100
AcDbLine
 10
605.5912277190035
 20
138.1267744749394
 30
0.0
 11
609.8912277190033
 21
139.9407744749394
 31
0.0
  0
LINE
  5
398
330
6F
100
AcDbEntity
  8
ANCHOR
  6
HIDDEN
100
AcDbLine
 10
609.8912277190033
 20
140.5181247441291
 30
0.0
 11
609.8912277190033
 21
141.63221335072
 31
0.0
  0
LINE
  5
399
330
6F
100
AcDbEntity
  8
ANCHOR
  6
HIDDEN
100
AcDbLine
 10
609.8912277190033
 20
142.3247962615868
 30
0.0
 11
609.8912277190033
 21
143.5687744749256
 31
0.0
  0
LINE
  5
39A
330
6F
100
AcDbEntity
  8
ANCHOR
  6
HIDDEN
100
AcDbLine
 10
609.8912277190033
 20
144.1461247441156
 30
0.0
 11
609.8912277190033
 21
145.2602133507066
 31
0.0
  0
LINE
  5
39B
330
6F
100
AcDbEntity
  8
ANCHOR
  6
HIDDEN
100
AcDbLine
 10
605.5912277190032
 20
143.576102957468
 30
0.0
 11
605.5912277190032
 21
142.3321247441155
 31
0.0
  0
LINE
  5
39C
330
6F
100
AcDbEntity
  8
ANCHOR
  6
HIDDEN
100
AcDbLine
 10
605.5912277190032
 20
141.7547744749258
 30
0.0
 11
605.5912277190032
 21
140.6406858683482
 31
0.0
  0
LINE
  5
39D
330
6F
100
AcDbEntity
  8
ANCHOR
  6
HIDDEN
100
AcDbLine
 10
605.5912277190032
 20
139.9481029574816
 30
0.0
 11
605.5912277190032
 21
138.7041247441292
 31
0.0
  0
LINE
  5
39E
330
6F
100
AcDbEntity
  8
ANCHOR
  6
HIDDEN
100
AcDbLine
 10
610.3912277190032
 20
147.4854496095068
 30
0.0
 11
609.8912277190033
 21
147.196774474912
 31
0.0
  0
LINE
  5
39F
330
6F
100
AcDbEntity
  8
ANCHOR
  6
HIDDEN
100
AcDbLine
 10
604.5412277190028
 20
147.4854496095066
 30
0.0
 11
605.5912277190027
 21
147.204102957454
 31
0.0
  0
LINE
  5
3A0
330
6F
100
AcDbEntity
  8
ANCHOR
  6
HIDDEN
100
AcDbLine
 10
610.9412277190029
 20
149.2994496095071
 30
0.0
 11
609.891227719003
 21
149.5807962615597
 31
0.0
  0
LINE
  5
3A1
330
6F
100
AcDbEntity
  8
ANCHOR
  6
HIDDEN
100
AcDbLine
 10
610.3912277190032
 20
147.4854496095071
 30
0.0
 11
609.8912277190033
 21
147.774124744102
 31
0.0
  0
LINE
  5
3A2
330
6F
100
AcDbEntity
  8
ANCHOR
  6
HIDDEN
100
AcDbLine
 10
605.0912277190032
 20
145.6714496095071
 30
0.0
 11
605.5912277190032
 21
145.9601247441018
 31
0.0
  0
LINE
  5
3A3
330
6F
100
AcDbEntity
  8
ANCHOR
  6
HIDDEN
100
AcDbLine
 10
605.0912277190029
 20
145.6714496095072
 30
0.0
 11
605.5912277190027
 21
145.3827744749123
 31
0.0
  0
LINE
  5
3A4
330
6F
100
AcDbEntity
  8
ANCHOR
  6
HIDDEN
100
AcDbLine
 10
610.9412277190031
 20
149.299449609507
 30
0.0
 11
604.5412277190032
 21
147.485449609507
 31
0.0
  0
LINE
  5
3A5
330
6F
100
AcDbEntity
  8
ANCHOR
  6
HIDDEN
100
AcDbLine
 10
605.5912277190032
 20
147.2041029574546
 30
0.0
 11
610.9412277190031
 21
149.2994496095073
 31
0.0
  0
LINE
  5
3A6
330
6F
100
AcDbEntity
  8
ANCHOR
  6
HIDDEN
100
AcDbLine
 10
609.8912277190028
 20
149.5807962615597
 30
0.0
 11
604.5412277190028
 21
147.4854496095071
 31
0.0
  0
LINE
  5
3A7
330
6F
100
AcDbEntity
  8
ANCHOR
  6
HIDDEN
100
AcDbLine
 10
609.8912277190033
 20
147.774124744102
 30
0.0
 11
605.5912277190034
 21
145.9601247441019
 31
0.0
  0
LINE
  5
3A8
330
6F
100
AcDbEntity
  8
ANCHOR
  6
HIDDEN
100
AcDbLine
 10
605.0912277190032
 20
145.6714496095071
 30
0.0
 11
610.3912277190032
 21
147.4854496095069
 31
0.0
  0
LINE
  5
3A9
330
6F
100
AcDbEntity
  8
ANCHOR
  6
HIDDEN
100
AcDbLine
 10
605.591227719003
 20
145.3827744749122
 30
0.0
 11
609.8912277190028
 21
147.1967744749122
 31
0.0
  0
LINE
  5
3AA
330
6F
100
AcDbEntity
  8
ANCHOR
  6
HIDDEN
100
AcDbLine
 10
609.8912277190033
 20
145.9527962615731
 30
0.0
 11
609.8912277190033
 21
147.1967744749121
 31
0.0
  0
LINE
  5
3AB
330
6F
100
AcDbEntity
  8
ANCHOR
  6
HIDDEN
100
AcDbLine
 10
609.8912277190033
 20
147.7741247441021
 30
0.0
 11
609.8912277190033
 21
148.8882133506931
 31
0.0
  0
LINE
  5
3AC
330
6F
100
AcDbEntity
  8
ANCHOR
  6
HIDDEN
100
AcDbLine
 10
605.5912277190032
 20
147.2041029574544
 30
0.0
 11
605.5912277190032
 21
145.9601247441019
 31
0.0
  0
LINE
  5
3AD
330
6F
100
AcDbEntity
  8
ANCHOR
  6
HIDDEN
100
AcDbLine
 10
605.5912277190032
 20
145.3827744749123
 30
0.0
 11
605.5912277190032
 21
144.2686858683348
 31
0.0
  0
LINE
  5
3AE
330
6F
100
AcDbEntity
  8
ANCHOR
  6
HIDDEN
100
AcDbLine
 10
610.3912277190028
 20
151.1134496094936
 30
0.0
 11
609.891227719003
 21
150.8247744748988
 31
0.0
  0
LINE
  5
3AF
330
6F
100
AcDbEntity
  8
ANCHOR
  6
HIDDEN
100
AcDbLine
 10
604.5412277190035
 20
151.1134496094934
 30
0.0
 11
605.5912277190035
 21
150.8321029574406
 31
0.0
  0
LINE
  5
3B0
330
6F
100
AcDbEntity
  8
ANCHOR
  6
HIDDEN
100
AcDbLine
 10
610.9412277190032
 20
152.9274496094933
 30
0.0
 11
609.8912277190033
 21
153.208796261546
 31
0.0
  0
LINE
  5
3B1
330
6F
100
AcDbEntity
  8
ANCHOR
  6
HIDDEN
100
AcDbLine
 10
610.3912277190034
 20
151.1134496094935
 30
0.0
 11
609.8912277190033
 21
151.4021247440883
 31
0.0
  0
LINE
  5
3B2
330
6F
100
AcDbEntity
  8
ANCHOR
  6
HIDDEN
100
AcDbLine
 10
605.0912277190032
 20
149.2994496094933
 30
0.0
 11
605.5912277190032
 21
149.5881247440882
 31
0.0
  0
LINE
  5
3B3
330
6F
100
AcDbEntity
  8
ANCHOR
  6
HIDDEN
100
AcDbLine
 10
605.0912277190029
 20
149.2994496094933
 30
0.0
 11
605.5912277190032
 21
149.0107744748984
 31
0.0
  0
LINE
  5
3B4
330
6F
100
AcDbEntity
  8
ANCHOR
  6
HIDDEN
100
AcDbLine
 10
610.9412277190032
 20
152.9274496094936
 30
0.0
 11
604.5412277190031
 21
151.1134496094935
 31
0.0
  0
LINE
  5
3B5
330
6F
100
AcDbEntity
  8
ANCHOR
  6
HIDDEN
100
AcDbLine
 10
605.5912277190032
 20
150.8321029574408
 30
0.0
 11
610.9412277190031
 21
152.9274496094936
 31
0.0
  0
LINE
  5
3B6
330
6F
100
AcDbEntity
  8
ANCHOR
  6
HIDDEN
100
AcDbLine
 10
609.8912277190034
 20
153.2087962615464
 30
0.0
 11
604.5412277190036
 21
151.1134496094937
 31
0.0
  0
LINE
  5
3B7
330
6F
100
AcDbEntity
  8
ANCHOR
  6
HIDDEN
100
AcDbLine
 10
609.8912277190028
 20
151.4021247440883
 30
0.0
 11
605.5912277190032
 21
149.5881247440884
 31
0.0
  0
LINE
  5
3B8
330
6F
100
AcDbEntity
  8
ANCHOR
  6
HIDDEN
100
AcDbLine
 10
605.0912277190029
 20
149.2994496094935
 30
0.0
 11
610.3912277190028
 21
151.1134496094934
 31
0.0
  0
LINE
  5
3B9
330
6F
100
AcDbEntity
  8
ANCHOR
  6
HIDDEN
100
AcDbLine
 10
605.5912277190032
 20
149.010774474899
 30
0.0
 11
609.8912277190033
 21
150.824774474899
 31
0.0
  0
LINE
  5
3BA
330
6F
100
AcDbEntity
  8
ANCHOR
  6
HIDDEN
100
AcDbLine
 10
609.8912277190033
 20
149.5807962615596
 30
0.0
 11
609.8912277190033
 21
150.8247744748989
 31
0.0
  0
LINE
  5
3BB
330
6F
100
AcDbEntity
  8
ANCHOR
  6
HIDDEN
100
AcDbLine
 10
609.8912277190033
 20
151.4021247440884
 30
0.0
 11
609.8912277190033
 21
152.5162133506795
 31
0.0
  0
LINE
  5
3BC
330
6F
100
AcDbEntity
  8
ANCHOR
  6
HIDDEN
100
AcDbLine
 10
605.5912277190032
 20
150.8321029574408
 30
0.0
 11
605.5912277190032
 21
149.5881247440886
 31
0.0
  0
LINE
  5
3BD
330
6F
100
AcDbEntity
  8
ANCHOR
  6
HIDDEN
100
AcDbLine
 10
605.5912277190032
 20
149.0107744748988
 30
0.0
 11
605.5912277190032
 21
147.8966858683213
 31
0.0
  0
LINE
  5
3BE
330
6F
100
AcDbEntity
  8
ANCHOR
  6
HIDDEN
100
AcDbLine
 10
610.391227719003
 20
154.7414496094801
 30
0.0
 11
609.8912277190033
 21
154.4527744748851
 31
0.0
  0
LINE
  5
3BF
330
6F
100
AcDbEntity
  8
ANCHOR
  6
HIDDEN
100
AcDbLine
 10
604.5412277190031
 20
154.7414496094799
 30
0.0
 11
605.5912277190028
 21
154.4601029574273
 31
0.0
  0
LINE
  5
3C0
330
6F
100
AcDbEntity
  8
ANCHOR
  6
HIDDEN
100
AcDbLine
 10
610.9412277190032
 20
156.5554496094799
 30
0.0
 11
609.8912277190033
 21
156.8367962615323
 31
0.0
  0
LINE
  5
3C1
330
6F
100
AcDbEntity
  8
ANCHOR
  6
HIDDEN
100
AcDbLine
 10
610.3912277190033
 20
154.74144960948
 30
0.0
 11
609.8912277190033
 21
155.0301247440749
 31
0.0
  0
LINE
  5
3C2
330
6F
100
AcDbEntity
  8
ANCHOR
  6
HIDDEN
100
AcDbLine
 10
605.0912277190029
 20
152.9274496094802
 30
0.0
 11
605.591227719003
 21
153.2161247440751
 31
0.0
  0
LINE
  5
3C3
330
6F
100
AcDbEntity
  8
ANCHOR
  6
HIDDEN
100
AcDbLine
 10
605.0912277190032
 20
152.9274496094803
 30
0.0
 11
605.5912277190028
 21
152.6387744748856
 31
0.0
  0
LINE
  5
3C4
330
6F
100
AcDbEntity
  8
ANCHOR
  6
HIDDEN
100
AcDbLine
 10
610.9412277190032
 20
156.5554496094801
 30
0.0
 11
604.5412277190032
 21
154.7414496094799
 31
0.0
  0
LINE
  5
3C5
330
6F
100
AcDbEntity
  8
ANCHOR
  6
HIDDEN
100
AcDbLine
 10
605.5912277190035
 20
154.4601029574274
 30
0.0
 11
610.9412277190036
 21
156.5554496094803
 31
0.0
  0
LINE
  5
3C6
330
6F
100
AcDbEntity
  8
ANCHOR
  6
HIDDEN
100
AcDbLine
 10
609.8912277190028
 20
156.8367962615326
 30
0.0
 11
604.5412277190028
 21
154.74144960948
 31
0.0
  0
LINE
  5
3C7
330
6F
100
AcDbEntity
  8
ANCHOR
  6
HIDDEN
100
AcDbLine
 10
609.8912277190033
 20
155.0301247440749
 30
0.0
 11
605.5912277190032
 21
153.216124744075
 31
0.0
  0
LINE
  5
3C8
330
6F
100
AcDbEntity
  8
ANCHOR
  6
HIDDEN
100
AcDbLine
 10
605.0912277190028
 20
152.9274496094799
 30
0.0
 11
610.3912277190028
 21
154.7414496094801
 31
0.0
  0
LINE
  5
3C9
330
6F
100
AcDbEntity
  8
ANCHOR
  6
HIDDEN
100
AcDbLine
 10
605.5912277190032
 20
152.6387744748854
 30
0.0
 11
609.8912277190033
 21
154.4527744748853
 31
0.0
  0
LINE
  5
3CA
330
6F
100
AcDbEntity
  8
ANCHOR
  6
HIDDEN
100
AcDbLine
 10
609.8912277190033
 20
153.2087962615464
 30
0.0
 11
609.8912277190033
 21
154.4527744748852
 31
0.0
  0
LINE
  5
3CB
330
6F
100
AcDbEntity
  8
ANCHOR
  6
HIDDEN
100
AcDbLine
 10
609.8912277190033
 20
155.0301247440749
 30
0.0
 11
609.8912277190033
 21
156.1442133506661
 31
0.0
  0
LINE
  5
3CC
330
6F
100
AcDbEntity
  8
ANCHOR
  6
HIDDEN
100
AcDbLine
 10
605.5912277190032
 20
154.4601029574275
 30
0.0
 11
605.5912277190032
 21
153.2161247440751
 31
0.0
  0
LINE
  5
3CD
330
6F
100
AcDbEntity
  8
ANCHOR
  6
HIDDEN
100
AcDbLine
 10
605.5912277190032
 20
152.6387744748853
 30
0.0
 11
605.5912277190032
 21
151.5246858683076
 31
0.0
  0
LINE
  5
3CE
330
6F
100
AcDbEntity
  8
ANCHOR
  6
HIDDEN
100
AcDbLine
 10
605.0912277190029
 20
156.5554496094665
 30
0.0
 11
605.5912277190032
 21
156.8441247440614
 31
0.0
  0
LINE
  5
3CF
330
6F
100
AcDbEntity
  8
ANCHOR
  6
HIDDEN
100
AcDbLine
 10
605.0912277190032
 20
156.5554496094665
 30
0.0
 11
605.5912277190034
 21
156.2667744748717
 31
0.0
  0
LINE
  5
3D0
330
6F
100
AcDbEntity
  8
ANCHOR
  6
HIDDEN
100
AcDbLine
 10
607.7412277190031
 20
159.2764496094666
 30
0.0
 11
604.9512277190033
 21
158.4856589844666
 31
0.0
  0
LINE
  5
3D1
330
6F
100
AcDbEntity
  8
ANCHOR
  6
HIDDEN
100
AcDbLine
 10
609.8912277190033
 20
156.8367962615327
 30
0.0
 11
609.8912277190033
 21
158.0807744748717
 31
0.0
  0
LINE
  5
3D2
330
6F
100
AcDbEntity
  8
ANCHOR
  6
HIDDEN
100
AcDbLine
 10
605.5912277190032
 20
158.3141715013107
 30
0.0
 11
605.5912277190032
 21
156.8441247440614
 31
0.0
  0
LINE
  5
3D3
330
6F
100
AcDbEntity
  8
ANCHOR
  6
HIDDEN
100
AcDbLine
 10
605.5912277190032
 20
156.2667744748718
 30
0.0
 11
605.5912277190032
 21
155.1526858682941
 31
0.0
  0
LINE
  5
3D4
330
6F
100
AcDbEntity
  8
ANCHOR
  6
HIDDEN
100
AcDbLine
 10
610.391227719003
 20
136.6014496095476
 30
0.0
 11
609.8912277190028
 21
136.3127744749526
 31
0.0
  0
LINE
  5
3D5
330
6F
100
AcDbEntity
  8
ANCHOR
  6
HIDDEN
100
AcDbLine
 10
604.5412277190035
 20
136.601449609548
 30
0.0
 11
605.5912277190034
 21
136.3201029574954
 31
0.0
  0
LINE
  5
3D6
330
6F
100
AcDbEntity
  8
ANCHOR
  6
HIDDEN
100
AcDbLine
 10
610.9412277190032
 20
138.4154496095479
 30
0.0
 11
609.8912277190033
 21
138.6967962616004
 31
0.0
  0
LINE
  5
3D7
330
6F
100
AcDbEntity
  8
ANCHOR
  6
HIDDEN
100
AcDbLine
 10
610.3912277190032
 20
136.6014496095479
 30
0.0
 11
609.8912277190028
 21
136.8901247441427
 31
0.0
  0
LINE
  5
3D8
330
6F
100
AcDbEntity
  8
ANCHOR
  6
HIDDEN
100
AcDbLine
 10
605.0912277190032
 20
134.7874496095475
 30
0.0
 11
605.5912277190032
 21
135.0761247441424
 31
0.0
  0
LINE
  5
3D9
330
6F
100
AcDbEntity
  8
ANCHOR
  6
HIDDEN
100
AcDbLine
 10
605.0912277190029
 20
134.7874496095478
 30
0.0
 11
605.5912277190032
 21
134.4987744749529
 31
0.0
  0
LINE
  5
3DA
330
6F
100
AcDbEntity
  8
ANCHOR
  6
HIDDEN
100
AcDbLine
 10
610.9412277190036
 20
138.4154496095479
 30
0.0
 11
604.5412277190032
 21
136.601449609548
 31
0.0
  0
LINE
  5
3DB
330
6F
100
AcDbEntity
  8
ANCHOR
  6
HIDDEN
100
AcDbLine
 10
605.5912277190032
 20
136.320102957495
 30
0.0
 11
610.9412277190032
 21
138.4154496095476
 31
0.0
  0
LINE
  5
3DC
330
6F
100
AcDbEntity
  8
ANCHOR
  6
HIDDEN
100
AcDbLine
 10
609.8912277190033
 20
138.6967962616003
 30
0.0
 11
604.5412277190031
 21
136.6014496095478
 31
0.0
  0
LINE
  5
3DD
330
6F
100
AcDbEntity
  8
ANCHOR
  6
HIDDEN
100
AcDbLine
 10
609.8912277190028
 20
136.8901247441427
 30
0.0
 11
605.5912277190028
 21
135.0761247441427
 31
0.0
  0
LINE
  5
3DE
330
6F
100
AcDbEntity
  8
ANCHOR
  6
HIDDEN
100
AcDbLine
 10
605.0912277190032
 20
134.7874496095477
 30
0.0
 11
610.3912277190032
 21
136.6014496095477
 31
0.0
  0
LINE
  5
3DF
330
6F
100
AcDbEntity
  8
ANCHOR
  6
HIDDEN
100
AcDbLine
 10
605.5912277190026
 20
134.4987744749527
 30
0.0
 11
609.8912277190028
 21
136.3127744749526
 31
0.0
  0
LINE
  5
3E0
330
6F
100
AcDbEntity
  8
ANCHOR
  6
HIDDEN
100
AcDbLine
 10
609.8912277190033
 20
136.8901247441426
 30
0.0
 11
609.8912277190033
 21
138.0042133507338
 31
0.0
  0
LINE
  5
3E1
330
6F
100
AcDbEntity
  8
ANCHOR
  6
HIDDEN
100
AcDbLine
 10
609.8912277190033
 20
138.6967962616002
 30
0.0
 11
609.8912277190033
 21
139.9407744749395
 31
0.0
  0
LINE
  5
3E2
330
6F
100
AcDbEntity
  8
ANCHOR
  6
HIDDEN
100
AcDbLine
 10
605.5912277190032
 20
138.1267744749393
 30
0.0
 11
605.5912277190032
 21
137.012685868362
 31
0.0
  0
LINE
  5
3E3
330
6F
100
AcDbEntity
  8
ANCHOR
  6
HIDDEN
100
AcDbLine
 10
605.5912277190032
 20
136.3201029574952
 30
0.0
 11
605.5912277190032
 21
135.0761247441427
 31
0.0
  0
LINE
  5
3E4
330
6F
100
AcDbEntity
  8
ANCHOR
  6
HIDDEN
100
AcDbLine
 10
610.2912277190033
 20
132.939223194467
 30
0.0
 11
609.8912277190033
 21
132.7082830867911
 31
0.0
  0
LINE
  5
3E5
330
6F
100
AcDbEntity
  8
ANCHOR
  6
HIDDEN
100
AcDbLine
 10
604.5412277190028
 20
132.9734496095612
 30
0.0
 11
605.5912277190027
 21
132.6921029575085
 31
0.0
  0
LINE
  5
3E6
330
6F
100
AcDbEntity
  8
ANCHOR
  6
HIDDEN
100
AcDbLine
 10
610.9412277190028
 20
134.7874496095614
 30
0.0
 11
609.8912277190028
 21
135.068796261614
 31
0.0
  0
LINE
  5
3E7
330
6F
100
AcDbEntity
  8
ANCHOR
  6
HIDDEN
100
AcDbLine
 10
610.2912277190035
 20
132.939223194467
 30
0.0
 11
609.8912277190028
 21
133.1701633021434
 31
0.0
  0
LINE
  5
3E8
330
6F
100
AcDbEntity
  8
ANCHOR
  6
HIDDEN
100
AcDbLine
 10
610.9412277190031
 20
134.7874496095618
 30
0.0
 11
604.5412277190031
 21
132.9734496095618
 31
0.0
  0
LINE
  5
3E9
330
6F
100
AcDbEntity
  8
ANCHOR
  6
HIDDEN
100
AcDbLine
 10
605.591227719003
 20
132.6921029575089
 30
0.0
 11
610.9412277190029
 21
134.7874496095615
 31
0.0
  0
LINE
  5
3EA
330
6F
100
AcDbEntity
  8
ANCHOR
  6
HIDDEN
100
AcDbLine
 10
609.8912277190028
 20
135.0687962616141
 30
0.0
 11
604.541227719003
 21
132.9734496095615
 31
0.0
  0
LINE
  5
3EB
330
6F
100
AcDbEntity
  8
ANCHOR
  6
HIDDEN
100
AcDbLine
 10
605.6083721509207
 20
131.3364496094666
 30
0.0
 11
610.2912277190035
 21
132.939223194467
 31
0.0
  0
LINE
  5
3EC
330
6F
100
AcDbEntity
  8
ANCHOR
  6
HIDDEN
100
AcDbLine
 10
609.8912277190033
 20
133.1701633021434
 30
0.0
 11
609.8912277190033
 21
134.3762133507472
 31
0.0
  0
LINE
  5
3ED
330
6F
100
AcDbEntity
  8
ANCHOR
  6
HIDDEN
100
AcDbLine
 10
609.8912277190033
 20
135.068796261614
 30
0.0
 11
609.8912277190033
 21
136.3127744749528
 31
0.0
  0
LINE
  5
3EE
330
6F
100
AcDbEntity
  8
ANCHOR
  6
HIDDEN
100
AcDbLine
 10
605.5912277190032
 20
134.498774474953
 30
0.0
 11
605.5912277190032
 21
133.3846858683754
 31
0.0
  0
LINE
  5
3EF
330
6F
100
AcDbEntity
  8
ANCHOR
  6
HIDDEN
100
AcDbLine
 10
605.591227719003
 20
132.6921029575085
 30
0.0
 11
605.5912277190032
 21
131.3364496094667
 31
0.0
  0
LINE
  5
3F0
330
6F
100
AcDbEntity
  8
ANCHOR
  6
HIDDEN
100
AcDbLine
 10
609.8912277190033
 20
131.3364496094668
 30
0.0
 11
609.8912277190033
 21
132.7082830867911
 31
0.0
  0
LINE
  5
3F1
330
6F
100
AcDbEntity
  8
ANCHOR
  6
HIDDEN
100
AcDbLine
 10
609.891227719003
 20
133.1701633021433
 30
0.0
 11
605.6083721509202
 21
131.3364496094666
 31
0.0
  0
LINE
  5
3F2
330
6F
100
AcDbEntity
  8
ANCHOR
  6
HIDDEN
100
AcDbLine
 10
605.6083721509207
 20
131.3364496094667
 30
0.0
 11
609.8912277190033
 21
132.7082830867911
 31
0.0
  0
LINE
  5
3F3
330
6F
100
AcDbEntity
  8
ANCHOR
  6
HIDDEN
100
AcDbLine
 10
610.3912277190032
 20
158.3694496094667
 30
0.0
 11
609.8912277190034
 21
158.0807744748718
 31
0.0
  0
LINE
  5
3F4
330
6F
100
AcDbEntity
  8
ANCHOR
  6
HIDDEN
100
AcDbLine
 10
610.3912277190032
 20
158.3694496094668
 30
0.0
 11
610.0140585850756
 21
158.5872083104699
 31
0.0
  0
LINE
  5
3F5
330
6F
100
AcDbEntity
  8
ANCHOR
  6
HIDDEN
100
AcDbLine
 10
605.5912277190032
 20
156.2667744748716
 30
0.0
 11
609.891227719003
 21
158.0807744748717
 31
0.0
  0
LINE
  5
3F6
330
6F
100
AcDbEntity
  8
ANCHOR
  6
HIDDEN
100
AcDbLine
 10
610.3912277190034
 20
158.3694496094668
 30
0.0
 11
605.0912277190032
 21
156.5554496094667
 31
0.0
  0
LINE
  5
3F7
330
6F
100
AcDbEntity
  8
ANCHOR
  6
HIDDEN
100
AcDbLine
 10
610.1812277190028
 20
159.2764496094664
 30
0.0
 11
610.0140585850752
 21
158.5872083104695
 31
0.0
  0
LINE
  5
3F8
330
6F
100
AcDbEntity
  8
ANCHOR
  6
HIDDEN
100
AcDbLine
 10
610.0140585850755
 20
158.5872083104695
 30
0.0
 11
605.5912277190032
 21
156.8441247440613
 31
0.0
  0
LINE
  5
3F9
330
6F
100
AcDbEntity
  8
ANCHOR
  6
HIDDEN
100
AcDbLine
 10
605.3012277190031
 20
159.2764496094666
 30
0.0
 11
605.4460249435955
 21
158.6794480887647
 31
0.0
  0
LINE
  5
3FA
330
6F
100
AcDbEntity
  8
ANCHOR
  6
HIDDEN
100
AcDbLine
 10
604.9512277190032
 20
158.4856589844668
 30
0.0
 11
605.5912277190032
 21
158.3141715013109
 31
0.0
  0
LINE
  5
3FB
330
6F
100
AcDbEntity
  8
ANCHOR
  6
HIDDEN
100
AcDbLine
 10
605.4460249435955
 20
158.6794480887646
 30
0.0
 11
604.9512277190032
 21
158.4856589844666
 31
0.0
  0
LINE
  5
3FC
330
6F
100
AcDbEntity
  8
ANCHOR
  6
HIDDEN
100
AcDbLine
 10
605.5912277190034
 20
158.3141715013109
 30
0.0
 11
607.7412277190031
 21
159.2764496094666
 31
0.0
  0
LINE
  5
3FD
330
6F
100
AcDbEntity
  8
ANCHOR
  6
HIDDEN
100
AcDbLine
 10
611.2412277190031
 20
160.3364496094663
 30
0.0
 11
610.1812277190032
 21
159.2764496094663
 31
0.0
  0
LINE
  5
3FE
330
6F
100
AcDbEntity
  8
ANCHOR
  6
HIDDEN
100
AcDbLine
 10
604.2412277190031
 20
160.3364496094665
 30
0.0
 11
605.3012277190028
 21
159.2764496094664
 31
0.0
  0
LINE
  5
3FF
330
6F
100
AcDbEntity
  8
ANCHOR
  6
Continuous
100
AcDbLine
 10
614.5912277183184
 20
161.9364496094664
 30
0.0
 11
600.8912277196882
 21
161.9364496094665
 31
0.0
  0
LINE
  5
400
330
6F
100
AcDbEntity
  8
ANCHOR
  6
Continuous
100
AcDbLine
 10
614.5912277183182
 20
161.9364496094665
 30
0.0
 11
614.5912277183182
 21
160.3364496096266
 31
0.0
  0
LINE
  5
401
330
6F
100
AcDbEntity
  8
ANCHOR
  6
Continuous
100
AcDbLine
 10
614.5912277183184
 20
160.3364496096263
 30
0.0
 11
600.8912277196882
 21
160.3364496096264
 31
0.0
  0
LINE
  5
402
330
6F
100
AcDbEntity
  8
ANCHOR
  6
Continuous
100
AcDbLine
 10
600.8912277196882
 20
160.3364496096266
 30
0.0
 11
600.8912277196882
 21
161.9364496094666
 31
0.0
  0
LINE
  5
403
330
6F
100
AcDbEntity
  8
ANCHOR
  6
Continuous
100
AcDbLine
 10
603.4912277190032
 20
162.7364496094667
 30
0.0
 11
602.7412277190031
 21
161.9364496094666
 31
0.0
  0
LINE
  5
404
330
6F
100
AcDbEntity
  8
ANCHOR
  6
Continuous
100
AcDbLine
 10
611.9912277190033
 20
162.7364496094664
 30
0.0
 11
612.7412277190035
 21
161.9364496094664
 31
0.0
  0
LINE
  5
405
330
6F
100
AcDbEntity
  8
ANCHOR
  6
CENTER
100
AcDbLine
 10
596.8015886547846
 20
420.7555691122906
 30
0.0
 11
578.3526257942119
 21
420.7555691123121
 31
0.0
  0
LINE
  5
406
330
6F
100
AcDbEntity
  8
ANCHOR
  6
HIDDEN
100
AcDbLine
 10
592.2412277201547
 20
422.7555691124168
 30
0.0
 11
582.7412277188259
 21
422.7555691124571
 31
0.0
  0
LINE
  5
407
330
6F
100
AcDbEntity
  8
ANCHOR
  6
HIDDEN
100
AcDbLine
 10
592.2412277207097
 20
418.7555691124168
 30
0.0
 11
582.7412277188103
 21
418.7555691124571
 31
0.0
  0
LINE
  5
408
330
6F
100
AcDbEntity
  8
ANCHOR
  6
HIDDEN
100
AcDbLine
 10
595.1638774509202
 20
421.7555691124251
 30
0.0
 11
593.2412277201657
 21
421.7555691124212
 31
0.0
  0
LINE
  5
409
330
6F
100
AcDbEntity
  8
ANCHOR
  6
HIDDEN
100
AcDbLine
 10
595.1638774511162
 20
419.7555691124251
 30
0.0
 11
593.2412277207037
 21
419.7555691124213
 31
0.0
  0
LINE
  5
40A
330
6F
100
AcDbEntity
  8
ANCHOR
  6
HIDDEN
100
AcDbLine
 10
595.7412277202079
 20
420.7555691122649
 30
0.0
 11
595.1638774509204
 21
421.7555691124257
 31
0.0
  0
LINE
  5
40B
330
6F
100
AcDbEntity
  8
ANCHOR
  6
HIDDEN
100
AcDbLine
 10
595.163877451117
 20
419.7555691124265
 30
0.0
 11
595.7412277202087
 21
420.7555691122654
 31
0.0
  0
ARC
  5
40C
330
6F
100
AcDbEntity
  8
ANCHOR
  6
HIDDEN
100
AcDbCircle
 10
593.7412277207129
 20
420.7555691124234
 30
0.0
 40
0.5
100
AcDbArc
 50
97.20679386168658
 51
262.7932061387912
  0
LINE
  5
40D
330
6F
100
AcDbEntity
  8
ANCHOR
  6
HIDDEN
100
AcDbLine
 10
593.6785022842477
 20
420.2595191959622
 30
0.0
 11
595.163877451116
 21
419.7555691124246
 31
0.0
  0
LINE
  5
40E
330
6F
100
AcDbEntity
  8
ANCHOR
  6
HIDDEN
100
AcDbLine
 10
593.6785022842448
 20
421.2516190288835
 30
0.0
 11
595.1638774509202
 21
421.7555691124253
 31
0.0
  0
LINE
  5
40F
330
6F
100
AcDbEntity
  8
ANCHOR
  6
HIDDEN
100
AcDbLine
 10
593.2412277201636
 20
421.7555691124206
 30
0.0
 11
592.2412277201543
 21
422.7555691124179
 31
0.0
  0
LINE
  5
410
330
6F
100
AcDbEntity
  8
ANCHOR
  6
HIDDEN
100
AcDbLine
 10
592.2412277207102
 20
418.7555691124201
 30
0.0
 11
593.2412277207029
 21
419.7555691124201
 31
0.0
  0
LINE
  5
411
330
6F
100
AcDbEntity
  8
ANCHOR
  6
HIDDEN
100
AcDbLine
 10
592.2412277204418
 20
418.7555691124189
 30
0.0
 11
592.2412277204268
 21
422.7555691124189
 31
0.0
  0
LINE
  5
412
330
6F
100
AcDbEntity
  8
ANCHOR
  6
HIDDEN
100
AcDbLine
 10
593.241227720207
 20
419.755569112419
 30
0.0
 11
593.2412277201978
 21
421.7555691124189
 31
0.0
  0
LINE
  5
413
330
6F
100
AcDbEntity
  8
ANCHOR
  6
HIDDEN
100
AcDbLine
 10
593.0412277207055
 20
419.5555691124193
 30
0.0
 11
582.7412277188147
 21
419.5555691124603
 31
0.0
  0
LINE
  5
414
330
6F
100
AcDbEntity
  8
ANCHOR
  6
HIDDEN
100
AcDbLine
 10
593.0412277201642
 20
421.9555691124189
 30
0.0
 11
582.741227718824
 21
421.9555691124601
 31
0.0
  0
LINE
  5
415
330
6F
100
AcDbEntity
  8
ANCHOR
  6
Continuous
100
AcDbLine
 10
580.7189171376765
 20
421.2537673600493
 30
0.0
 11
580.7189171376771
 21
420.2573708645672
 31
0.0
  0
LINE
  5
416
330
6F
100
AcDbEntity
  8
ANCHOR
  6
Continuous
100
AcDbLine
 10
580.7189171376765
 20
421.2537673600498
 30
0.0
 11
580.2412277190022
 21
421.2537673600498
 31
0.0
  0
LINE
  5
417
330
6F
100
AcDbEntity
  8
ANCHOR
  6
Continuous
100
AcDbLine
 10
580.7189171376769
 20
420.2573708645674
 30
0.0
 11
580.2412277190025
 21
420.2573708645674
 31
0.0
  0
LINE
  5
418
330
6F
100
AcDbEntity
  8
ANCHOR
  6
Continuous
100
AcDbLine
 10
582.2412277190189
 20
416.0555691123063
 30
0.0
 11
582.7412277190189
 21
416.0555691123066
 31
0.0
  0
ARC
  5
419
330
6F
100
AcDbEntity
  8
ANCHOR
  6
Continuous
100
AcDbCircle
 10
586.3326931133249
 20
420.579937678991
 30
0.0
 40
6.099999999999999
100
AcDbArc
 50
183.0312034848472
 51
227.876411461438
  0
LINE
  5
41A
330
6F
100
AcDbEntity
  8
ANCHOR
  6
Continuous
100
AcDbLine
 10
582.2412277189851
 20
425.4555691123083
 30
0.0
 11
582.2412277190198
 21
416.0555691123068
 31
0.0
  0
ARC
  5
41B
330
6F
100
AcDbEntity
  8
ANCHOR
  6
Continuous
100
AcDbCircle
 10
586.3326931133249
 20
420.9312005456286
 30
0.0
 40
6.099999999999999
100
AcDbArc
 50
132.1235885386251
 51
176.9687965152159
  0
LINE
  5
41C
330
6F
100
AcDbEntity
  8
ANCHOR
  6
Continuous
100
AcDbLine
 10
582.7412277189857
 20
425.4555691123096
 30
0.0
 11
582.7412277190202
 21
416.0555691123081
 31
0.0
  0
LINE
  5
41D
330
6F
100
AcDbEntity
  8
ANCHOR
  6
Continuous
100
AcDbLine
 10
582.2412277190145
 20
425.4555691123079
 30
0.0
 11
582.7412277190145
 21
425.4555691123083
 31
0.0
  0
LINE
  5
41E
330
6F
100
AcDbEntity
  8
WASHER
  6
HIDDEN
100
AcDbLine
 10
245.9273721234329
 20
412.2555691123013
 30
0.0
 11
245.9273721234329
 21
414.2555691123079
 31
0.0
  0
LINE
  5
41F
330
6F
100
AcDbEntity
  8
WASHER
  6
HIDDEN
100
AcDbLine
 10
239.5273721234329
 20
412.2555691123013
 30
0.0
 11
239.5273721234329
 21
414.2555691122943
 31
0.0
  0
LINE
  5
420
330
6F
100
AcDbEntity
  8
WASHER
  6
Continuous
100
AcDbLine
 10
227.7273721234328
 20
414.2555691123014
 30
0.0
 11
257.7273721234328
 21
414.2555691123014
 31
0.0
  0
LINE
  5
421
330
6F
100
AcDbEntity
  8
WASHER
  6
Continuous
100
AcDbLine
 10
257.7273721234328
 20
412.2555691123014
 30
0.0
 11
257.7273721234328
 21
414.2555691123014
 31
0.0
  0
LINE
  5
422
330
6F
100
AcDbEntity
  8
WASHER
  6
Continuous
100
AcDbLine
 10
227.7273721234328
 20
412.2555691123014
 30
0.0
 11
227.7273721234328
 21
414.2555691123014
 31
0.0
  0
LINE
  5
423
330
6F
100
AcDbEntity
  8
ANCHOR
  6
Continuous
100
AcDbLine
 10
236.9538694314928
 20
414.2555691123014
 30
0.0
 11
248.5008748152853
 21
414.2555691123014
 31
0.0
  0
LINE
  5
424
330
6F
100
AcDbEntity
  8
WASHER
  6
Continuous
100
AcDbLine
 10
227.7273721234328
 20
412.2555691123014
 30
0.0
 11
257.7273721234328
 21
412.2555691123014
 31
0.0
  0
TEXT
  5
425
330
6F
100
AcDbEntity
  8
COMMENT
  6
Continuous
100
AcDbText
 10
279.5349195155806
 20
343.9290247515548
 30
0.0
 40
5.300000190734863
  1
※　　　　　部に凸凹デザイン有り。
  7
KNJYOKO
100
AcDbText
  0
LINE
  5
426
330
6F
100
AcDbEntity
  8
LOUVER
  6
DASHED
100
AcDbLine
 10
286.931526184872
 20
346.3547308493256
 30
0.0
 11
311.2154085230972
 21
346.3547308493256
 31
0.0
  0
TEXT
  5
427
330
6F
100
AcDbEntity
  8
COMMENT
  6
Continuous
100
AcDbText
 10
672.6172199144587
 20
338.6779228830929
 30
0.0
 40
5.300000190734863
  1
※　　　　　部に凸凹デザイン有り。
  7
KNJYOKO
100
AcDbText
  0
LINE
  5
428
330
6F
100
AcDbEntity
  8
LOUVER
  6
DASHED
100
AcDbLine
 10
680.0138265837501
 20
341.1036289808637
 30
0.0
 11
704.2977089219752
 21
341.1036289808637
 31
0.0
  0
TEXT
  5
429
330
6F
100
AcDbEntity
  8
COMMENT
  6
Continuous
100
AcDbText
 10
292.9742236959228
 20
71.96553029467577
 30
0.0
 40
5.300000190734863
  1
※　　　　　部に凸凹デザイン有り。
  7
KNJYOKO
100
AcDbText
  0
LINE
  5
42A
330
6F
100
AcDbEntity
  8
LOUVER
  6
DASHED
100
AcDbLine
 10
300.3708303652143
 20
74.3912363924465
 30
0.0
 11
324.6547127034394
 21
74.3912363924465
 31
0.0
  0
TEXT
  5
42B
330
6F
100
AcDbEntity
  8
COMMENT
  6
Continuous
100
AcDbText
 10
672.769261118298
 20
68.66072648198127
 30
0.0
 40
5.300000190734863
  1
※　　　　　部に凸凹デザイン有り。
  7
KNJYOKO
100
AcDbText
  0
LINE
  5
42C
330
6F
100
AcDbEntity
  8
LOUVER
  6
DASHED
100
AcDbLine
 10
680.1658677875896
 20
71.086432579752
 30
0.0
 11
704.4497501258148
 21
71.086432579752
 31
0.0
  0
LINE
  5
42D
330
6F
100
AcDbEntity
  8
LOUVER
  6
Continuous
100
AcDbLine
 10
265.2273721246769
 20
420.5555691122851
 30
0.0
 11
266.4273721240879
 21
420.5555691122851
 31
0.0
  0
LINE
  5
42E
330
6F
100
AcDbEntity
  8
LOUVER
  6
Continuous
100
AcDbLine
 10
265.9273721241421
 20
411.7555691123016
 30
0.0
 11
265.9273721241432
 21
416.7555691119889
 31
0.0
  0
LINE
  5
42F
330
6F
100
AcDbEntity
  8
LOUVER
  6
Continuous
100
AcDbLine
 10
265.9273721241425
 20
411.7555691123013
 30
0.0
 11
267.7273721243834
 21
411.7555691123013
 31
0.0
  0
LINE
  5
430
330
6F
100
AcDbEntity
  8
LOUVER
  6
Continuous
100
AcDbLine
 10
266.4273721240876
 20
425.755569112302
 30
0.0
 11
262.7273721240873
 21
425.7555691123031
 31
0.0
  0
LINE
  5
431
330
6F
100
AcDbEntity
  8
LOUVER
  6
Continuous
100
AcDbLine
 10
262.4273721240876
 20
426.0555691123029
 30
0.0
 11
262.4273721240876
 21
426.455569112303
 31
0.0
  0
LINE
  5
432
330
6F
100
AcDbEntity
  8
LOUVER
  6
Continuous
100
AcDbLine
 10
266.0273721240878
 20
451.0555691123023
 30
0.0
 11
246.1856954172453
 21
451.0555691123023
 31
0.0
  0
LINE
  5
433
330
6F
100
AcDbEntity
  8
LOUVER
  6
Continuous
100
AcDbLine
 10
265.4273721240879
 20
449.5555691123024
 30
0.0
 11
242.727372124088
 21
449.5555691123024
 31
0.0
  0
LINE
  5
434
330
6F
100
AcDbEntity
  8
LOUVER
  6
Continuous
100
AcDbLine
 10
220.2273721236753
 20
420.5555691122851
 30
0.0
 11
219.0273721240868
 21
420.5555691122851
 31
0.0
  0
LINE
  5
435
330
6F
100
AcDbEntity
  8
LOUVER
  6
Continuous
100
AcDbLine
 10
219.5273721240322
 20
411.7555691123014
 30
0.0
 11
219.527372124031
 21
416.7555691119895
 31
0.0
  0
LINE
  5
436
330
6F
100
AcDbEntity
  8
LOUVER
  6
Continuous
100
AcDbLine
 10
219.5273721240325
 20
411.7555691123013
 30
0.0
 11
217.7273721240869
 21
411.7555691123013
 31
0.0
  0
LINE
  5
437
330
6F
100
AcDbEntity
  8
LOUVER
  6
Continuous
100
AcDbLine
 10
219.0273721240869
 20
425.7555691123021
 30
0.0
 11
222.7273721240867
 21
425.7555691123035
 31
0.0
  0
LINE
  5
438
330
6F
100
AcDbEntity
  8
LOUVER
  6
Continuous
100
AcDbLine
 10
223.0273721240871
 20
426.0555691123028
 30
0.0
 11
223.0273721240871
 21
426.4555691123028
 31
0.0
  0
LINE
  5
439
330
6F
100
AcDbEntity
  8
LOUVER
  6
Continuous
100
AcDbLine
 10
219.427372124087
 20
451.0555691123023
 30
0.0
 11
239.269048830929
 21
451.0555691123023
 31
0.0
  0
LINE
  5
43A
330
6F
100
AcDbEntity
  8
LOUVER
  6
Continuous
100
AcDbLine
 10
220.0273721240869
 20
449.5555691123024
 30
0.0
 11
242.7273721240871
 21
449.5555691123024
 31
0.0
  0
LINE
  5
43B
330
6F
100
AcDbEntity
  8
UKEZAI
  6
Continuous
100
AcDbLine
 10
264.427372123433
 20
413.7555691123012
 30
0.0
 11
264.427372123433
 21
420.7555691123013
 31
0.0
  0
LINE
  5
43C
330
6F
100
AcDbEntity
  8
UKEZAI
  6
Continuous
100
AcDbLine
 10
265.9273721234872
 20
412.7555691120146
 30
0.0
 11
265.7398721234333
 21
413.7555691123017
 31
0.0
  0
LINE
  5
43D
330
6F
100
AcDbEntity
  8
UKEZAI
  6
Continuous
100
AcDbLine
 10
265.9273721234846
 20
410.7555691123011
 30
0.0
 11
265.9273721234868
 21
412.7555691120143
 31
0.0
  0
LINE
  5
43E
330
6F
100
AcDbEntity
  8
UKEZAI
  6
Continuous
100
AcDbLine
 10
262.927372123433
 20
412.2555691123013
 30
0.0
 11
262.927372123433
 21
425.0055691123013
 31
0.0
  0
LINE
  5
43F
330
6F
100
AcDbEntity
  8
UKEZAI
  6
Continuous
100
AcDbLine
 10
264.4273721234328
 20
420.7555691122557
 30
0.0
 11
265.7273721235323
 21
420.7555691122569
 31
0.0
  0
LINE
  5
440
330
6F
100
AcDbEntity
  8
UKEZAI
  6
Continuous
100
AcDbLine
 10
264.427372123433
 20
413.7555691123012
 30
0.0
 11
265.739872123433
 21
413.7555691123012
 31
0.0
  0
LINE
  5
441
330
6F
100
AcDbEntity
  8
UKEZAI
  6
Continuous
100
AcDbLine
 10
242.7273721234327
 20
410.7555691123014
 30
0.0
 11
265.9273721234844
 21
410.7555691123013
 31
0.0
  0
ARC
  5
442
330
6F
100
AcDbEntity
  8
UKEZAI
  6
Continuous
100
AcDbCircle
 10
242.7273721234326
 20
412.2555691123017
 30
0.0
 40
0.3
100
AcDbArc
 50
270.0
 51
0.0
  0
ARC
  5
443
330
6F
100
AcDbEntity
  8
UKEZAI
  6
Continuous
100
AcDbCircle
 10
263.6773721234331
 20
425.0055691123018
 30
0.0
 40
0.75
100
AcDbArc
 50
19.88796430577387
 51
180.0
  0
ARC
  5
444
330
6F
100
AcDbEntity
  8
LOUVER
  6
Continuous
100
AcDbCircle
 10
220.2273721236757
 20
420.3555691122853
 30
0.0
 40
0.2
100
AcDbArc
 50
345.8703295108744
 51
90.0
  0
ARC
  5
445
330
6F
100
AcDbEntity
  8
LOUVER
  6
Continuous
100
AcDbCircle
 10
265.227372124677
 20
420.3555691123167
 30
0.0
 40
0.2
100
AcDbArc
 50
90.00000000008069
 51
194.1296704863125
  0
ARC
  5
446
330
6F
100
AcDbEntity
  8
UKEZAI
  6
Continuous
100
AcDbCircle
 10
265.7273721235324
 20
420.9555691122575
 30
0.0
 40
0.2
100
AcDbArc
 50
270.0
 51
19.88796430577178
  0
LINE
  5
447
330
6F
100
AcDbEntity
  8
UKEZAI
  6
Continuous
100
AcDbLine
 10
265.9154440449801
 20
421.0236055169441
 30
0.0
 11
264.3826418288631
 21
425.2607056298794
 31
0.0
  0
POINT
  5
448
330
6F
100
AcDbEntity
  8
UKEZAI
  6
Continuous
100
AcDbPoint
 10
265.9273721235327
 20
420.7555691122577
 30
0.0
  0
ARC
  5
449
330
6F
100
AcDbEntity
  8
UKEZAI
  6
Continuous
100
AcDbCircle
 10
244.7273721234326
 20
412.2555691123017
 30
0.0
 40
0.3
100
AcDbArc
 50
0.0
 51
180.0
  0
LINE
  5
44A
330
6F
100
AcDbEntity
  8
UKEZAI
  6
Continuous
100
AcDbLine
 10
243.0273721234329
 20
412.2555691123013
 30
0.0
 11
244.427372123433
 21
412.2555691123013
 31
0.0
  0
LINE
  5
44B
330
6F
100
AcDbEntity
  8
UKEZAI
  6
Continuous
100
AcDbLine
 10
245.0273721234329
 20
412.2555691123013
 30
0.0
 11
262.927372123433
 21
412.2555691123013
 31
0.0
  0
LINE
  5
44C
330
6F
100
AcDbEntity
  8
UKEZAI
  6
Continuous
100
AcDbLine
 10
221.0273721234327
 20
413.7555691123012
 30
0.0
 11
221.0273721234327
 21
420.7555691123013
 31
0.0
  0
LINE
  5
44D
330
6F
100
AcDbEntity
  8
UKEZAI
  6
Continuous
100
AcDbLine
 10
219.5273721233795
 20
412.7555691120149
 30
0.0
 11
219.7148721234333
 21
413.7555691123017
 31
0.0
  0
LINE
  5
44E
330
6F
100
AcDbEntity
  8
UKEZAI
  6
Continuous
100
AcDbLine
 10
219.5273721233814
 20
410.7555691123014
 30
0.0
 11
219.5273721233792
 21
412.7555691120145
 31
0.0
  0
LINE
  5
44F
330
6F
100
AcDbEntity
  8
UKEZAI
  6
Continuous
100
AcDbLine
 10
222.5273721234327
 20
412.2555691123013
 30
0.0
 11
222.5273721234327
 21
425.0055691123013
 31
0.0
  0
LINE
  5
450
330
6F
100
AcDbEntity
  8
UKEZAI
  6
Continuous
100
AcDbLine
 10
221.0273721234329
 20
420.755569112256
 30
0.0
 11
219.7273721233334
 21
420.7555691122569
 31
0.0
  0
LINE
  5
451
330
6F
100
AcDbEntity
  8
UKEZAI
  6
Continuous
100
AcDbLine
 10
221.0273721234327
 20
413.7555691123012
 30
0.0
 11
219.7148721234327
 21
413.7555691123012
 31
0.0
  0
LINE
  5
452
330
6F
100
AcDbEntity
  8
UKEZAI
  6
Continuous
100
AcDbLine
 10
242.7273721234325
 20
410.7555691123018
 30
0.0
 11
219.5273721233808
 21
410.7555691123018
 31
0.0
  0
ARC
  5
453
330
6F
100
AcDbEntity
  8
UKEZAI
  6
Continuous
100
AcDbCircle
 10
221.777372123433
 20
425.0055691123018
 30
0.0
 40
0.75
100
AcDbArc
 50
0.0
 51
160.112035694226
  0
ARC
  5
454
330
6F
100
AcDbEntity
  8
UKEZAI
  6
Continuous
100
AcDbCircle
 10
219.7273721233337
 20
420.9555691122575
 30
0.0
 40
0.2
100
AcDbArc
 50
160.1120356942282
 51
270.0
  0
LINE
  5
455
330
6F
100
AcDbEntity
  8
UKEZAI
  6
Continuous
100
AcDbLine
 10
219.5393002018851
 20
421.0236055169444
 30
0.0
 11
221.0721024180019
 21
425.2607056298791
 31
0.0
  0
POINT
  5
456
330
6F
100
AcDbEntity
  8
UKEZAI
  6
Continuous
100
AcDbPoint
 10
219.5273721233334
 20
420.7555691122577
 30
0.0
  0
ARC
  5
457
330
6F
100
AcDbEntity
  8
UKEZAI
  6
Continuous
100
AcDbCircle
 10
240.7273721234326
 20
412.2555691123017
 30
0.0
 40
0.3
100
AcDbArc
 50
0.0
 51
180.0
  0
LINE
  5
458
330
6F
100
AcDbEntity
  8
UKEZAI
  6
Continuous
100
AcDbLine
 10
242.427372123433
 20
412.2555691123013
 30
0.0
 11
241.0273721234331
 21
412.2555691123013
 31
0.0
  0
LINE
  5
459
330
6F
100
AcDbEntity
  8
UKEZAI
  6
Continuous
100
AcDbLine
 10
240.427372123433
 20
412.2555691123013
 30
0.0
 11
222.5273721234327
 21
412.2555691123013
 31
0.0
  0
LINE
  5
45A
330
6F
100
AcDbEntity
  8
LOUVER
  6
Continuous
100
AcDbLine
 10
220.4213212696284
 20
420.3067456672628
 30
0.0
 11
219.5273721240311
 21
416.7555691119903
 31
0.0
  0
LINE
  5
45B
330
6F
100
AcDbEntity
  8
LOUVER
  6
Continuous
100
AcDbLine
 10
265.9273721241432
 20
416.7555691119877
 30
0.0
 11
265.0334229787211
 21
420.3067456673016
 31
0.0
  0
POINT
  5
45C
330
6F
100
AcDbEntity
  8
LOUVER
  6
Continuous
100
AcDbPoint
 10
265.9273721241418
 20
411.7555691123017
 30
0.0
  0
LINE
  5
45D
330
6F
100
AcDbEntity
  8
LOUVER
  6
Continuous
100
AcDbLine
 10
219.427372124087
 20
451.0555691123023
 30
0.0
 11
219.427372124087
 21
509.0555691122682
 31
0.0
  0
LINE
  5
45E
330
6F
100
AcDbEntity
  8
LOUVER
  6
Continuous
100
AcDbLine
 10
266.0273721240878
 20
451.0555691123023
 30
0.0
 11
266.0273721240878
 21
509.055569112301
 31
0.0
  0
LINE
  5
45F
330
6F
100
AcDbEntity
  8
LOUVER
  6
Continuous
100
AcDbLine
 10
266.4273721240879
 20
426.7555691123019
 30
0.0
 11
262.7273721240876
 21
426.7555691123031
 31
0.0
  0
LINE
  5
460
330
6F
100
AcDbEntity
  8
LOUVER
  6
Continuous
100
AcDbLine
 10
266.4273721240879
 20
426.7555691123017
 30
0.0
 11
266.4273721240879
 21
448.5555691123024
 31
0.0
  0
LINE
  5
461
330
6F
100
AcDbEntity
  8
LOUVER
  6
Continuous
100
AcDbLine
 10
266.4273721240879
 20
420.5555691122851
 30
0.0
 11
266.4273721240879
 21
425.7555691123021
 31
0.0
  0
LINE
  5
462
330
6F
100
AcDbEntity
  8
LOUVER
  6
Continuous
100
AcDbLine
 10
219.0273721240866
 20
426.7555691123021
 30
0.0
 11
222.7273721240869
 21
426.7555691123035
 31
0.0
  0
LINE
  5
463
330
6F
100
AcDbEntity
  8
LOUVER
  6
Continuous
100
AcDbLine
 10
219.0273721240868
 20
426.7555691123013
 30
0.0
 11
219.0273721240869
 21
448.5555691123024
 31
0.0
  0
LINE
  5
464
330
6F
100
AcDbEntity
  8
LOUVER
  6
Continuous
100
AcDbLine
 10
219.0273721240868
 20
420.5555691122851
 30
0.0
 11
219.0273721240868
 21
425.7555691123013
 31
0.0
  0
ARC
  5
465
330
6F
100
AcDbEntity
  8
LOUVER
  6
Continuous
100
AcDbCircle
 10
222.7273721240872
 20
426.0555691123033
 30
0.0
 40
0.3
100
AcDbArc
 50
270.0
 51
0.0
  0
ARC
  5
466
330
6F
100
AcDbEntity
  8
LOUVER
  6
Continuous
100
AcDbCircle
 10
222.7273721240872
 20
426.4555691123034
 30
0.0
 40
0.3
100
AcDbArc
 50
0.0
 51
90.0
  0
ARC
  5
467
330
6F
100
AcDbEntity
  8
LOUVER
  6
Continuous
100
AcDbCircle
 10
262.7273721240876
 20
426.4555691123034
 30
0.0
 40
0.3
100
AcDbArc
 50
90.0
 51
180.0
  0
ARC
  5
468
330
6F
100
AcDbEntity
  8
LOUVER
  6
Continuous
100
AcDbCircle
 10
262.7273721240876
 20
426.0555691123038
 30
0.0
 40
0.3
100
AcDbArc
 50
180.0
 51
270.0
  0
LINE
  5
469
330
6F
100
AcDbEntity
  8
LOUVER
  6
Continuous
100
AcDbLine
 10
266.0273721240878
 20
509.055569112301
 30
0.0
 11
252.7273721239535
 21
509.055569112301
 31
0.0
  0
LINE
  5
46A
330
6F
100
AcDbEntity
  8
LOUVER
  6
Continuous
100
AcDbLine
 10
219.4273721240872
 20
509.0555691122689
 30
0.0
 11
232.7273721242741
 21
509.0555691122875
 31
0.0
  0
LINE
  5
46B
330
6F
100
AcDbEntity
  8
LOUVER
  6
Continuous
100
AcDbLine
 10
246.1917412218331
 20
508.6008058372523
 30
0.0
 11
252.7273721239539
 21
509.055569112301
 31
0.0
  0
POINT
  5
46C
330
6F
100
AcDbEntity
  8
LOUVER
  6
Continuous
100
AcDbPoint
 10
265.9273721241418
 20
411.7555691123017
 30
0.0
  0
ARC
  5
46D
330
6F
100
AcDbEntity
  8
LOUVER
  6
Continuous
100
AcDbCircle
 10
220.0273721240869
 20
448.5555691123028
 30
0.0
 40
1.0
100
AcDbArc
 50
90.0
 51
180.0
  0
ARC
  5
46E
330
6F
100
AcDbEntity
  8
LOUVER
  6
Continuous
100
AcDbCircle
 10
265.4273721240879
 20
448.5555691123028
 30
0.0
 40
1.0
100
AcDbArc
 50
0.0
 51
90.0
  0
ARC
  5
46F
330
6F
100
AcDbEntity
  8
UKEZAI
  6
Continuous
100
AcDbCircle
 10
242.727372124931
 20
412.2555691123017
 30
0.0
 40
0.3
100
AcDbArc
 50
180.0000000000808
 51
270.0000000000807
  0
LINE
  5
470
330
6F
100
AcDbEntity
  8
LOUVER
  6
DASHED
100
AcDbLine
 10
267.7273721243834
 20
411.7555691123222
 30
0.0
 11
267.7273721243835
 21
510.7555691123008
 31
0.0
  0
LINE
  5
471
330
6F
100
AcDbEntity
  8
LOUVER
  6
DASHED
100
AcDbLine
 10
267.7273721240867
 20
510.7555691123011
 30
0.0
 11
217.727372124087
 21
510.7555691123011
 31
0.0
  0
LINE
  5
472
330
6F
100
AcDbEntity
  8
LOUVER
  6
DASHED
100
AcDbLine
 10
217.7273721240869
 20
510.7555691123013
 30
0.0
 11
217.7273721240869
 21
411.7555691123013
 31
0.0
  0
POINT
  5
473
330
6F
100
AcDbEntity
  8
LOUVER
  6
Continuous
100
AcDbPoint
 10
242.7273721240867
 20
507.2555691123017
 30
0.0
  0
POINT
  5
474
330
6F
100
AcDbEntity
  8
LOUVER
  6
Continuous
100
AcDbPoint
 10
242.7273721240867
 20
452.5555691123028
 30
0.0
  0
POINT
  5
475
330
6F
100
AcDbEntity
  8
LOUVER
  6
Continuous
100
AcDbPoint
 10
242.7273721240872
 20
507.2555691123017
 30
0.0
  0
POINT
  5
476
330
6F
100
AcDbEntity
  8
LOUVER
  6
Continuous
100
AcDbPoint
 10
242.7273721240867
 20
452.5555691123028
 30
0.0
  0
POINT
  5
477
330
6F
100
AcDbEntity
  8
LOUVER
  6
Continuous
100
AcDbPoint
 10
242.7273721240867
 20
507.2555691123017
 30
0.0
  0
POINT
  5
478
330
6F
100
AcDbEntity
  8
LOUVER
  6
Continuous
100
AcDbPoint
 10
242.7273721240867
 20
452.5555691123028
 30
0.0
  0
POINT
  5
479
330
6F
100
AcDbEntity
  8
LOUVER
  6
Continuous
100
AcDbPoint
 10
242.7273721240867
 20
452.5555691123028
 30
0.0
  0
ARC
  5
47A
330
6F
100
AcDbEntity
  8
LOUVER
  6
Continuous
100
AcDbCircle
 10
244.5273721242643
 20
454.2176461259702
 30
0.0
 40
0.6500000000000014
100
AcDbArc
 50
42.71864450827047
 51
222.7186445082705
  0
ARC
  5
47B
330
6F
100
AcDbEntity
  8
LOUVER
  6
Continuous
100
AcDbCircle
 10
240.9273721244504
 20
454.2176461265555
 30
0.0
 40
0.6500000000000048
100
AcDbArc
 50
317.2813554730932
 51
137.2813554730932
  0
ARC
  5
47C
330
6F
100
AcDbEntity
  8
LOUVER
  6
Continuous
100
AcDbCircle
 10
242.7273721240867
 20
452.5555691123028
 30
0.0
 40
3.1
100
AcDbArc
 50
137.2813554730942
 51
196.1276202131596
  0
ARC
  5
47D
330
6F
100
AcDbEntity
  8
LOUVER
  6
Continuous
100
AcDbCircle
 10
242.7273721240867
 20
452.5555691123028
 30
0.0
 40
3.1
100
AcDbArc
 50
343.8723797868403
 51
42.71864450826979
  0
POINT
  5
47E
330
6F
100
AcDbEntity
  8
LOUVER
  6
Continuous
100
AcDbPoint
 10
242.7273721240872
 20
507.2555691123017
 30
0.0
  0
ARC
  5
47F
330
6F
100
AcDbEntity
  8
LOUVER
  6
Continuous
100
AcDbCircle
 10
240.9273721239097
 20
505.593492098634
 30
0.0
 40
0.6500000000000014
100
AcDbArc
 50
222.7186445082704
 51
42.71864450827043
  0
ARC
  5
480
330
6F
100
AcDbEntity
  8
LOUVER
  6
Continuous
100
AcDbCircle
 10
244.5273721237236
 20
505.5934920980487
 30
0.0
 40
0.6500000000000048
100
AcDbArc
 50
137.2813554730932
 51
317.2813554730932
  0
ARC
  5
481
330
6F
100
AcDbEntity
  8
LOUVER
  6
Continuous
100
AcDbCircle
 10
242.7273721240872
 20
507.2555691123017
 30
0.0
 40
3.1
100
AcDbArc
 50
317.2813554730942
 51
13.598872759482
  0
ARC
  5
482
330
6F
100
AcDbEntity
  8
LOUVER
  6
Continuous
100
AcDbCircle
 10
242.7273721240872
 20
507.2555691123017
 30
0.0
 40
3.1
100
AcDbArc
 50
166.4011272405338
 51
222.71864450827
  0
ARC
  5
483
330
6F
100
AcDbEntity
  8
LOUVER
  6
Continuous
100
AcDbCircle
 10
246.1856954172449
 20
451.5555691123029
 30
0.0
 40
0.5
100
AcDbArc
 50
163.8723797868396
 51
270.0
  0
ARC
  5
484
330
6F
100
AcDbEntity
  8
LOUVER
  6
Continuous
100
AcDbCircle
 10
239.269048830929
 20
451.5555691123029
 30
0.0
 40
0.5
100
AcDbArc
 50
270.0
 51
16.1276202131604
  0
POINT
  5
485
330
6F
100
AcDbEntity
  8
LOUVER
  6
Continuous
100
AcDbPoint
 10
245.541621579981
 20
508.555569112302
 30
0.0
  0
POINT
  5
486
330
6F
100
AcDbEntity
  8
LOUVER
  6
Continuous
100
AcDbPoint
 10
239.913122668193
 20
508.555569112302
 30
0.0
  0
ARC
  5
487
330
6F
100
AcDbEntity
  8
LOUVER
  6
Continuous
100
AcDbCircle
 10
246.2264483798117
 20
508.1020118786039
 30
0.0
 40
0.5
100
AcDbArc
 50
93.98034816671135
 51
193.5988727594803
  0
ARC
  5
488
330
6F
100
AcDbEntity
  8
LOUVER
  6
Continuous
100
AcDbCircle
 10
239.2282958683622
 20
508.1020118786029
 30
0.0
 40
0.5
100
AcDbArc
 50
346.4011272405331
 51
86.0196518333703
  0
ARC
  5
489
330
6F
100
AcDbEntity
  8
LOUVER
  6
Continuous
100
AcDbCircle
 10
242.7273721240867
 20
452.5555691123028
 30
0.0
 40
1.800000000000112
100
AcDbArc
 50
137.2813554730984
 51
42.71864450826035
  0
ARC
  5
48A
330
6F
100
AcDbEntity
  8
LOUVER
  6
Continuous
100
AcDbCircle
 10
242.7273721240872
 20
507.2555691123017
 30
0.0
 40
1.799999999999875
100
AcDbArc
 50
317.281355473091
 51
222.7186445082684
  0
LINE
  5
48B
330
6F
100
AcDbEntity
  8
LOUVER
  6
Continuous
100
AcDbLine
 10
239.2630030263396
 20
508.6008058372526
 30
0.0
 11
232.7273721242735
 21
509.0555691122878
 31
0.0
  0
DIMENSION
  5
48C
330
6F
100
AcDbEntity
  8
DXF0
  6
Continuous
 62
     3
100
AcDbDimension
280
     0
  2
*D1
 10
196.4105681989201
 20
510.7555691123011
 30
0.0
 11
195.9105681989201
 21
460.7555691123013
 31
0.0
 71
     5
 42
-1.0
 73
     0
 74
     0
 75
     0
  3
Standard
100
AcDbAlignedDimension
 13
132.957215493353
 23
410.7555691123014
 33
0.0
 14
217.727372124087
 24
510.7555691123011
 34
0.0
 50
90.0
100
AcDbRotatedDimension
  0
DIMENSION
  5
48D
330
6F
100
AcDbEntity
  8
DXF0
  6
Continuous
 62
     3
100
AcDbDimension
280
     0
  2
*D2
 10
206.9996519533903
 20
410.7555691123014
 30
0.0
 11
206.4996519533903
 21
415.7555691123069
 31
0.0
 71
     5
 42
-1.0
 73
     0
 74
     0
 75
     0
  3
Standard
100
AcDbAlignedDimension
 13
213.3387701986398
 23
420.7555691123124
 33
0.0
 14
132.957215493353
 24
410.7555691123014
 34
0.0
 50
90.0
100
AcDbRotatedDimension
  0
DIMENSION
  5
48E
330
6F
100
AcDbEntity
  8
DXF0
  6
Continuous
 62
     3
100
AcDbDimension
280
     0
  2
*D3
 10
213.3971723608286
 20
410.7555691123014
 30
0.0
 11
212.8971723608286
 21
413.4710652662885
 31
0.0
 71
     5
 42
-1.0
 73
     0
 74
     0
 75
     0
  3
Standard
100
AcDbAlignedDimension
 13
217.7273721240869
 23
411.7555691123013
 33
0.0
 14
132.957215493353
 24
410.7555691123014
 34
0.0
 50
90.0
100
AcDbRotatedDimension
  0
DIMENSION
  5
48F
330
6F
100
AcDbEntity
  8
DXF0
  6
Continuous
 62
     3
100
AcDbDimension
280
     0
  2
*D4
 10
217.7273721240869
 20
523.7790716969634
 30
0.0
 11
242.7273721242352
 21
524.2790716969635
 31
0.0
 71
     5
 42
-1.0
 73
     0
 74
     0
 75
     0
  3
Standard
100
AcDbAlignedDimension
 13
267.7273721243835
 23
510.7555691123008
 33
0.0
 14
217.7273721240869
 24
510.7555691123013
 34
0.0
100
AcDbRotatedDimension
  0
DIMENSION
  5
490
330
6F
100
AcDbEntity
  8
DXF0
  6
Continuous
 62
     3
100
AcDbDimension
280
     0
  2
*D5
 10
217.7273721240869
 20
353.0798412058073
 30
0.0
 11
230.2273721237598
 21
353.5798412058073
 31
0.0
 71
     5
 42
-1.0
 73
     0
 74
     0
 75
     0
  3
Standard
100
AcDbAlignedDimension
 13
242.7273721234328
 23
424.1898308268227
 33
0.0
 14
217.7273721240869
 24
411.7555691123013
 34
0.0
100
AcDbRotatedDimension
  0
DIMENSION
  5
491
330
6F
100
AcDbEntity
  8
DXF0
  6
Continuous
 62
     3
100
AcDbDimension
280
     0
  2
*D6
 10
242.7273721234328
 20
353.0798412058073
 30
0.0
 11
255.2273721239081
 21
353.5798412058073
 31
0.0
 71
     5
 42
-1.0
 73
     0
 74
     0
 75
     0
  3
Standard
100
AcDbAlignedDimension
 13
267.7273721243834
 23
411.7555691123222
 33
0.0
 14
242.7273721234328
 24
424.1898308268227
 34
0.0
100
AcDbRotatedDimension
  0
LINE
  5
492
330
6F
100
AcDbEntity
  8
LOUVER
  6
Continuous
100
AcDbLine
 10
630.2412277202473
 20
420.5555691122851
 30
0.0
 11
631.4412277196582
 21
420.5555691122851
 31
0.0
  0
LINE
  5
493
330
6F
100
AcDbEntity
  8
LOUVER
  6
Continuous
100
AcDbLine
 10
630.9412277197123
 20
411.7555691123016
 30
0.0
 11
630.9412277197135
 21
416.7555691119889
 31
0.0
  0
LINE
  5
494
330
6F
100
AcDbEntity
  8
LOUVER
  6
Continuous
100
AcDbLine
 10
630.9412277197128
 20
411.7555691123013
 30
0.0
 11
632.7412277199536
 21
411.7555691123013
 31
0.0
  0
LINE
  5
495
330
6F
100
AcDbEntity
  8
LOUVER
  6
Continuous
100
AcDbLine
 10
631.4412277196577
 20
425.7555691123021
 30
0.0
 11
627.7412277196575
 21
425.7555691123033
 31
0.0
  0
LINE
  5
496
330
6F
100
AcDbEntity
  8
LOUVER
  6
Continuous
100
AcDbLine
 10
627.4412277196579
 20
426.0555691123029
 30
0.0
 11
627.4412277196579
 21
426.455569112303
 31
0.0
  0
LINE
  5
497
330
6F
100
AcDbEntity
  8
LOUVER
  6
Continuous
100
AcDbLine
 10
631.0412277196583
 20
451.0555691123023
 30
0.0
 11
611.1995510128157
 21
451.0555691123023
 31
0.0
  0
LINE
  5
498
330
6F
100
AcDbEntity
  8
LOUVER
  6
Continuous
100
AcDbLine
 10
630.4412277196583
 20
449.5555691123024
 30
0.0
 11
607.7412277196584
 21
449.5555691123024
 31
0.0
  0
LINE
  5
499
330
6F
100
AcDbEntity
  8
LOUVER
  6
Continuous
100
AcDbLine
 10
585.2412277192457
 20
420.5555691122851
 30
0.0
 11
584.0412277196572
 21
420.5555691122851
 31
0.0
  0
LINE
  5
49A
330
6F
100
AcDbEntity
  8
LOUVER
  6
Continuous
100
AcDbLine
 10
584.5412277196024
 20
411.7555691123014
 30
0.0
 11
584.5412277196013
 21
416.7555691119895
 31
0.0
  0
LINE
  5
49B
330
6F
100
AcDbEntity
  8
LOUVER
  6
Continuous
100
AcDbLine
 10
584.5412277196029
 20
411.7555691123013
 30
0.0
 11
582.7412277196573
 21
411.7555691123013
 31
0.0
  0
LINE
  5
49C
330
6F
100
AcDbEntity
  8
LOUVER
  6
Continuous
100
AcDbLine
 10
584.0412277196572
 20
425.7555691123021
 30
0.0
 11
587.7412277196571
 21
425.7555691123035
 31
0.0
  0
LINE
  5
49D
330
6F
100
AcDbEntity
  8
LOUVER
  6
Continuous
100
AcDbLine
 10
588.0412277196575
 20
426.0555691123029
 30
0.0
 11
588.0412277196575
 21
426.455569112303
 31
0.0
  0
LINE
  5
49E
330
6F
100
AcDbEntity
  8
LOUVER
  6
Continuous
100
AcDbLine
 10
584.4412277196574
 20
451.0555691123023
 30
0.0
 11
604.2829044264993
 21
451.0555691123023
 31
0.0
  0
LINE
  5
49F
330
6F
100
AcDbEntity
  8
LOUVER
  6
Continuous
100
AcDbLine
 10
585.0412277196572
 20
449.5555691123024
 30
0.0
 11
607.7412277196575
 21
449.5555691123024
 31
0.0
  0
LINE
  5
4A0
330
6F
100
AcDbEntity
  8
UKEZAI
  6
Continuous
100
AcDbLine
 10
629.4412277190035
 20
413.7555691123012
 30
0.0
 11
629.4412277190035
 21
420.7555691123013
 31
0.0
  0
LINE
  5
4A1
330
6F
100
AcDbEntity
  8
UKEZAI
  6
Continuous
100
AcDbLine
 10
630.9412277190574
 20
412.7555691120145
 30
0.0
 11
630.7537277190037
 21
413.7555691123017
 31
0.0
  0
LINE
  5
4A2
330
6F
100
AcDbEntity
  8
UKEZAI
  6
Continuous
100
AcDbLine
 10
630.9412277190546
 20
410.7555691123013
 30
0.0
 11
630.941227719057
 21
412.7555691120143
 31
0.0
  0
LINE
  5
4A3
330
6F
100
AcDbEntity
  8
UKEZAI
  6
Continuous
100
AcDbLine
 10
627.9412277190036
 20
412.2555691123013
 30
0.0
 11
627.9412277190036
 21
425.0055691123013
 31
0.0
  0
LINE
  5
4A4
330
6F
100
AcDbEntity
  8
UKEZAI
  6
Continuous
100
AcDbLine
 10
629.4412277190031
 20
420.7555691122558
 30
0.0
 11
630.7412277191027
 21
420.7555691122569
 31
0.0
  0
LINE
  5
4A5
330
6F
100
AcDbEntity
  8
UKEZAI
  6
Continuous
100
AcDbLine
 10
629.4412277190035
 20
413.7555691123012
 30
0.0
 11
630.7537277190036
 21
413.7555691123012
 31
0.0
  0
LINE
  5
4A6
330
6F
100
AcDbEntity
  8
UKEZAI
  6
Continuous
100
AcDbLine
 10
607.7412277190031
 20
410.7555691123014
 30
0.0
 11
630.9412277190546
 21
410.7555691123013
 31
0.0
  0
ARC
  5
4A7
330
6F
100
AcDbEntity
  8
UKEZAI
  6
Continuous
100
AcDbCircle
 10
607.7412277190028
 20
412.2555691123017
 30
0.0
 40
0.3
100
AcDbArc
 50
270.0
 51
0.0
  0
ARC
  5
4A8
330
6F
100
AcDbEntity
  8
UKEZAI
  6
Continuous
100
AcDbCircle
 10
628.6912277190035
 20
425.0055691123018
 30
0.0
 40
0.75
100
AcDbArc
 50
19.88796430577387
 51
180.0
  0
ARC
  5
4A9
330
6F
100
AcDbEntity
  8
LOUVER
  6
Continuous
100
AcDbCircle
 10
585.241227719246
 20
420.3555691122853
 30
0.0
 40
0.2
100
AcDbArc
 50
345.8703295108744
 51
90.0
  0
ARC
  5
4AA
330
6F
100
AcDbEntity
  8
LOUVER
  6
Continuous
100
AcDbCircle
 10
630.2412277202473
 20
420.3555691123167
 30
0.0
 40
0.2
100
AcDbArc
 50
90.00000000008069
 51
194.1296704863125
  0
ARC
  5
4AB
330
6F
100
AcDbEntity
  8
UKEZAI
  6
Continuous
100
AcDbCircle
 10
630.7412277191027
 20
420.9555691122575
 30
0.0
 40
0.2
100
AcDbArc
 50
270.0
 51
19.88796430577178
  0
LINE
  5
4AC
330
6F
100
AcDbEntity
  8
UKEZAI
  6
Continuous
100
AcDbLine
 10
630.9292996405504
 20
421.0236055169441
 30
0.0
 11
629.3964974244333
 21
425.2607056298792
 31
0.0
  0
POINT
  5
4AD
330
6F
100
AcDbEntity
  8
UKEZAI
  6
Continuous
100
AcDbPoint
 10
630.941227719103
 20
420.7555691122577
 30
0.0
  0
ARC
  5
4AE
330
6F
100
AcDbEntity
  8
UKEZAI
  6
Continuous
100
AcDbCircle
 10
609.7412277190028
 20
412.2555691123017
 30
0.0
 40
0.3
100
AcDbArc
 50
0.0
 51
180.0
  0
LINE
  5
4AF
330
6F
100
AcDbEntity
  8
UKEZAI
  6
Continuous
100
AcDbLine
 10
608.0412277190033
 20
412.2555691123013
 30
0.0
 11
609.4412277190035
 21
412.2555691123013
 31
0.0
  0
LINE
  5
4B0
330
6F
100
AcDbEntity
  8
UKEZAI
  6
Continuous
100
AcDbLine
 10
610.0412277190033
 20
412.2555691123013
 30
0.0
 11
627.9412277190036
 21
412.2555691123013
 31
0.0
  0
LINE
  5
4B1
330
6F
100
AcDbEntity
  8
UKEZAI
  6
Continuous
100
AcDbLine
 10
586.0412277190031
 20
413.7555691123012
 30
0.0
 11
586.0412277190031
 21
420.7555691123013
 31
0.0
  0
LINE
  5
4B2
330
6F
100
AcDbEntity
  8
UKEZAI
  6
Continuous
100
AcDbLine
 10
584.5412277189496
 20
412.7555691120151
 30
0.0
 11
584.7287277190035
 21
413.7555691123017
 31
0.0
  0
LINE
  5
4B3
330
6F
100
AcDbEntity
  8
UKEZAI
  6
Continuous
100
AcDbLine
 10
584.5412277189517
 20
410.7555691123014
 30
0.0
 11
584.5412277189494
 21
412.7555691120145
 31
0.0
  0
LINE
  5
4B4
330
6F
100
AcDbEntity
  8
UKEZAI
  6
Continuous
100
AcDbLine
 10
587.5412277190031
 20
412.2555691123013
 30
0.0
 11
587.5412277190031
 21
425.0055691123013
 31
0.0
  0
LINE
  5
4B5
330
6F
100
AcDbEntity
  8
UKEZAI
  6
Continuous
100
AcDbLine
 10
586.0412277190032
 20
420.755569112256
 30
0.0
 11
584.7412277189037
 21
420.7555691122569
 31
0.0
  0
LINE
  5
4B6
330
6F
100
AcDbEntity
  8
UKEZAI
  6
Continuous
100
AcDbLine
 10
586.0412277190031
 20
413.7555691123012
 30
0.0
 11
584.7287277190031
 21
413.7555691123012
 31
0.0
  0
LINE
  5
4B7
330
6F
100
AcDbEntity
  8
UKEZAI
  6
Continuous
100
AcDbLine
 10
607.7412277190027
 20
410.7555691123017
 30
0.0
 11
584.5412277189512
 21
410.7555691123017
 31
0.0
  0
ARC
  5
4B8
330
6F
100
AcDbEntity
  8
UKEZAI
  6
Continuous
100
AcDbCircle
 10
586.7912277190034
 20
425.0055691123018
 30
0.0
 40
0.75
100
AcDbArc
 50
0.0
 51
160.112035694226
  0
ARC
  5
4B9
330
6F
100
AcDbEntity
  8
UKEZAI
  6
Continuous
100
AcDbCircle
 10
584.741227718904
 20
420.9555691122575
 30
0.0
 40
0.2
100
AcDbArc
 50
160.1120356942282
 51
270.0
  0
LINE
  5
4BA
330
6F
100
AcDbEntity
  8
UKEZAI
  6
Continuous
100
AcDbLine
 10
584.5531557974552
 20
421.0236055169442
 30
0.0
 11
586.0859580135723
 21
425.2607056298791
 31
0.0
  0
POINT
  5
4BB
330
6F
100
AcDbEntity
  8
UKEZAI
  6
Continuous
100
AcDbPoint
 10
584.5412277189037
 20
420.7555691122577
 30
0.0
  0
ARC
  5
4BC
330
6F
100
AcDbEntity
  8
UKEZAI
  6
Continuous
100
AcDbCircle
 10
605.7412277190028
 20
412.2555691123017
 30
0.0
 40
0.3
100
AcDbArc
 50
0.0
 51
180.0
  0
LINE
  5
4BD
330
6F
100
AcDbEntity
  8
UKEZAI
  6
Continuous
100
AcDbLine
 10
607.4412277190035
 20
412.2555691123013
 30
0.0
 11
606.0412277190035
 21
412.2555691123013
 31
0.0
  0
LINE
  5
4BE
330
6F
100
AcDbEntity
  8
UKEZAI
  6
Continuous
100
AcDbLine
 10
605.4412277190035
 20
412.2555691123013
 30
0.0
 11
587.5412277190031
 21
412.2555691123013
 31
0.0
  0
LINE
  5
4BF
330
6F
100
AcDbEntity
  8
LOUVER
  6
Continuous
100
AcDbLine
 10
585.4351768651988
 20
420.3067456672628
 30
0.0
 11
584.5412277196015
 21
416.7555691119902
 31
0.0
  0
LINE
  5
4C0
330
6F
100
AcDbEntity
  8
LOUVER
  6
Continuous
100
AcDbLine
 10
630.9412277197132
 20
416.7555691119877
 30
0.0
 11
630.0472785742912
 21
420.3067456673016
 31
0.0
  0
POINT
  5
4C1
330
6F
100
AcDbEntity
  8
LOUVER
  6
Continuous
100
AcDbPoint
 10
630.9412277197122
 20
411.7555691123017
 30
0.0
  0
LINE
  5
4C2
330
6F
100
AcDbEntity
  8
LOUVER
  6
Continuous
100
AcDbLine
 10
584.4412277196574
 20
451.0555691123023
 30
0.0
 11
584.4412277196574
 21
509.0555691122682
 31
0.0
  0
LINE
  5
4C3
330
6F
100
AcDbEntity
  8
LOUVER
  6
Continuous
100
AcDbLine
 10
631.0412277196583
 20
451.0555691123023
 30
0.0
 11
631.0412277196583
 21
509.055569112301
 31
0.0
  0
LINE
  5
4C4
330
6F
100
AcDbEntity
  8
LOUVER
  6
Continuous
100
AcDbLine
 10
631.4412277196582
 20
426.755569112302
 30
0.0
 11
627.7412277196579
 21
426.7555691123033
 31
0.0
  0
LINE
  5
4C5
330
6F
100
AcDbEntity
  8
LOUVER
  6
Continuous
100
AcDbLine
 10
631.4412277196582
 20
426.7555691123017
 30
0.0
 11
631.4412277196582
 21
448.5555691123024
 31
0.0
  0
LINE
  5
4C6
330
6F
100
AcDbEntity
  8
LOUVER
  6
Continuous
100
AcDbLine
 10
631.4412277196582
 20
420.5555691122851
 30
0.0
 11
631.4412277196582
 21
425.7555691123021
 31
0.0
  0
LINE
  5
4C7
330
6F
100
AcDbEntity
  8
LOUVER
  6
Continuous
100
AcDbLine
 10
584.0412277196569
 20
426.7555691123021
 30
0.0
 11
587.7412277196573
 21
426.7555691123035
 31
0.0
  0
LINE
  5
4C8
330
6F
100
AcDbEntity
  8
LOUVER
  6
Continuous
100
AcDbLine
 10
584.0412277196572
 20
426.7555691123013
 30
0.0
 11
584.0412277196572
 21
448.5555691123024
 31
0.0
  0
LINE
  5
4C9
330
6F
100
AcDbEntity
  8
LOUVER
  6
Continuous
100
AcDbLine
 10
584.0412277196572
 20
420.5555691122851
 30
0.0
 11
584.0412277196572
 21
425.7555691123013
 31
0.0
  0
ARC
  5
4CA
330
6F
100
AcDbEntity
  8
LOUVER
  6
Continuous
100
AcDbCircle
 10
587.7412277196575
 20
426.0555691123033
 30
0.0
 40
0.3
100
AcDbArc
 50
270.0
 51
0.0
  0
ARC
  5
4CB
330
6F
100
AcDbEntity
  8
LOUVER
  6
Continuous
100
AcDbCircle
 10
587.7412277196575
 20
426.4555691123034
 30
0.0
 40
0.3
100
AcDbArc
 50
0.0
 51
90.0
  0
ARC
  5
4CC
330
6F
100
AcDbEntity
  8
LOUVER
  6
Continuous
100
AcDbCircle
 10
627.741227719658
 20
426.4555691123034
 30
0.0
 40
0.3
100
AcDbArc
 50
90.0
 51
180.0
  0
ARC
  5
4CD
330
6F
100
AcDbEntity
  8
LOUVER
  6
Continuous
100
AcDbCircle
 10
627.741227719658
 20
426.0555691123038
 30
0.0
 40
0.3
100
AcDbArc
 50
180.0
 51
270.0
  0
LINE
  5
4CE
330
6F
100
AcDbEntity
  8
LOUVER
  6
Continuous
100
AcDbLine
 10
631.0412277196583
 20
509.055569112301
 30
0.0
 11
617.7412277195238
 21
509.055569112301
 31
0.0
  0
LINE
  5
4CF
330
6F
100
AcDbEntity
  8
LOUVER
  6
Continuous
100
AcDbLine
 10
584.4412277196576
 20
509.0555691122689
 30
0.0
 11
597.7412277198444
 21
509.0555691122875
 31
0.0
  0
LINE
  5
4D0
330
6F
100
AcDbEntity
  8
LOUVER
  6
Continuous
100
AcDbLine
 10
611.2055968174034
 20
508.6008058372523
 30
0.0
 11
617.7412277195242
 21
509.055569112301
 31
0.0
  0
POINT
  5
4D1
330
6F
100
AcDbEntity
  8
LOUVER
  6
Continuous
100
AcDbPoint
 10
630.9412277197122
 20
411.7555691123017
 30
0.0
  0
ARC
  5
4D2
330
6F
100
AcDbEntity
  8
LOUVER
  6
Continuous
100
AcDbCircle
 10
585.0412277196572
 20
448.5555691123028
 30
0.0
 40
1.0
100
AcDbArc
 50
90.0
 51
180.0
  0
ARC
  5
4D3
330
6F
100
AcDbEntity
  8
LOUVER
  6
Continuous
100
AcDbCircle
 10
630.4412277196583
 20
448.5555691123028
 30
0.0
 40
1.0
100
AcDbArc
 50
0.0
 51
90.0
  0
ARC
  5
4D4
330
6F
100
AcDbEntity
  8
UKEZAI
  6
Continuous
100
AcDbCircle
 10
607.7412277205012
 20
412.2555691123017
 30
0.0
 40
0.3
100
AcDbArc
 50
180.0000000000808
 51
270.0000000000807
  0
LINE
  5
4D5
330
6F
100
AcDbEntity
  8
LOUVER
  6
DASHED
100
AcDbLine
 10
632.7412277199536
 20
411.7555691123222
 30
0.0
 11
632.7412277199536
 21
510.7555691123008
 31
0.0
  0
LINE
  5
4D6
330
6F
100
AcDbEntity
  8
LOUVER
  6
DASHED
100
AcDbLine
 10
632.7412277196571
 20
510.7555691123011
 30
0.0
 11
582.7412277196573
 21
510.7555691123011
 31
0.0
  0
LINE
  5
4D7
330
6F
100
AcDbEntity
  8
LOUVER
  6
DASHED
100
AcDbLine
 10
582.7412277196573
 20
510.7555691123013
 30
0.0
 11
582.7412277196573
 21
411.7555691123013
 31
0.0
  0
POINT
  5
4D8
330
6F
100
AcDbEntity
  8
LOUVER
  6
Continuous
100
AcDbPoint
 10
607.7412277196571
 20
507.2555691123017
 30
0.0
  0
POINT
  5
4D9
330
6F
100
AcDbEntity
  8
LOUVER
  6
Continuous
100
AcDbPoint
 10
607.7412277196571
 20
452.5555691123028
 30
0.0
  0
POINT
  5
4DA
330
6F
100
AcDbEntity
  8
LOUVER
  6
Continuous
100
AcDbPoint
 10
607.7412277196575
 20
507.2555691123017
 30
0.0
  0
POINT
  5
4DB
330
6F
100
AcDbEntity
  8
LOUVER
  6
Continuous
100
AcDbPoint
 10
607.7412277196571
 20
452.5555691123028
 30
0.0
  0
POINT
  5
4DC
330
6F
100
AcDbEntity
  8
LOUVER
  6
Continuous
100
AcDbPoint
 10
607.7412277196571
 20
507.2555691123017
 30
0.0
  0
POINT
  5
4DD
330
6F
100
AcDbEntity
  8
LOUVER
  6
Continuous
100
AcDbPoint
 10
607.7412277196571
 20
452.5555691123028
 30
0.0
  0
POINT
  5
4DE
330
6F
100
AcDbEntity
  8
LOUVER
  6
Continuous
100
AcDbPoint
 10
607.7412277196571
 20
452.5555691123028
 30
0.0
  0
ARC
  5
4DF
330
6F
100
AcDbEntity
  8
LOUVER
  6
Continuous
100
AcDbCircle
 10
609.5412277198346
 20
454.2176461259702
 30
0.0
 40
0.6500000000000014
100
AcDbArc
 50
42.71864450827047
 51
222.7186445082705
  0
ARC
  5
4E0
330
6F
100
AcDbEntity
  8
LOUVER
  6
Continuous
100
AcDbCircle
 10
605.9412277200207
 20
454.2176461265555
 30
0.0
 40
0.6500000000000048
100
AcDbArc
 50
317.2813554730932
 51
137.2813554730932
  0
ARC
  5
4E1
330
6F
100
AcDbEntity
  8
LOUVER
  6
Continuous
100
AcDbCircle
 10
607.7412277196571
 20
452.5555691123028
 30
0.0
 40
3.1
100
AcDbArc
 50
137.2813554730942
 51
196.1276202131596
  0
ARC
  5
4E2
330
6F
100
AcDbEntity
  8
LOUVER
  6
Continuous
100
AcDbCircle
 10
607.7412277196571
 20
452.5555691123028
 30
0.0
 40
3.1
100
AcDbArc
 50
343.8723797868403
 51
42.71864450826979
  0
POINT
  5
4E3
330
6F
100
AcDbEntity
  8
LOUVER
  6
Continuous
100
AcDbPoint
 10
607.7412277196575
 20
507.2555691123017
 30
0.0
  0
ARC
  5
4E4
330
6F
100
AcDbEntity
  8
LOUVER
  6
Continuous
100
AcDbCircle
 10
605.94122771948
 20
505.593492098634
 30
0.0
 40
0.6500000000000014
100
AcDbArc
 50
222.7186445082704
 51
42.71864450827043
  0
ARC
  5
4E5
330
6F
100
AcDbEntity
  8
LOUVER
  6
Continuous
100
AcDbCircle
 10
609.5412277192939
 20
505.5934920980487
 30
0.0
 40
0.6500000000000048
100
AcDbArc
 50
137.2813554730932
 51
317.2813554730932
  0
ARC
  5
4E6
330
6F
100
AcDbEntity
  8
LOUVER
  6
Continuous
100
AcDbCircle
 10
607.7412277196575
 20
507.2555691123017
 30
0.0
 40
3.1
100
AcDbArc
 50
317.2813554730942
 51
13.598872759482
  0
ARC
  5
4E7
330
6F
100
AcDbEntity
  8
LOUVER
  6
Continuous
100
AcDbCircle
 10
607.7412277196575
 20
507.2555691123017
 30
0.0
 40
3.1
100
AcDbArc
 50
166.4011272405338
 51
222.71864450827
  0
ARC
  5
4E8
330
6F
100
AcDbEntity
  8
LOUVER
  6
Continuous
100
AcDbCircle
 10
611.1995510128153
 20
451.5555691123029
 30
0.0
 40
0.5
100
AcDbArc
 50
163.8723797868396
 51
270.0
  0
ARC
  5
4E9
330
6F
100
AcDbEntity
  8
LOUVER
  6
Continuous
100
AcDbCircle
 10
604.2829044264993
 20
451.5555691123029
 30
0.0
 40
0.5
100
AcDbArc
 50
270.0
 51
16.1276202131604
  0
POINT
  5
4EA
330
6F
100
AcDbEntity
  8
LOUVER
  6
Continuous
100
AcDbPoint
 10
610.5554771755512
 20
508.555569112302
 30
0.0
  0
POINT
  5
4EB
330
6F
100
AcDbEntity
  8
LOUVER
  6
Continuous
100
AcDbPoint
 10
604.9269782637633
 20
508.555569112302
 30
0.0
  0
ARC
  5
4EC
330
6F
100
AcDbEntity
  8
LOUVER
  6
Continuous
100
AcDbCircle
 10
611.2403039753822
 20
508.1020118786039
 30
0.0
 40
0.5
100
AcDbArc
 50
93.98034816671135
 51
193.5988727594803
  0
ARC
  5
4ED
330
6F
100
AcDbEntity
  8
LOUVER
  6
Continuous
100
AcDbCircle
 10
604.2421514639325
 20
508.1020118786029
 30
0.0
 40
0.5
100
AcDbArc
 50
346.4011272405331
 51
86.0196518333703
  0
ARC
  5
4EE
330
6F
100
AcDbEntity
  8
LOUVER
  6
Continuous
100
AcDbCircle
 10
607.7412277196571
 20
452.5555691123028
 30
0.0
 40
1.800000000000112
100
AcDbArc
 50
137.2813554730984
 51
42.71864450826035
  0
ARC
  5
4EF
330
6F
100
AcDbEntity
  8
LOUVER
  6
Continuous
100
AcDbCircle
 10
607.7412277196575
 20
507.2555691123017
 30
0.0
 40
1.799999999999875
100
AcDbArc
 50
317.281355473091
 51
222.7186445082684
  0
LINE
  5
4F0
330
6F
100
AcDbEntity
  8
LOUVER
  6
Continuous
100
AcDbLine
 10
604.27685862191
 20
508.6008058372523
 30
0.0
 11
597.7412277198439
 21
509.0555691122877
 31
0.0
  0
POINT
  5
4F1
330
6F
100
AcDbEntity
  8
DXF0
  6
Continuous
 62
     3
100
AcDbPoint
 10
607.7412277190031
 20
410.7555691123014
 30
0.0
  0
LINE
  5
4F2
330
6F
100
AcDbEntity
  8
LOUVER
  6
Continuous
100
AcDbLine
 10
265.2273721246769
 20
168.1364496096097
 30
0.0
 11
266.4273721240879
 21
168.1364496096097
 31
0.0
  0
LINE
  5
4F3
330
6F
100
AcDbEntity
  8
LOUVER
  6
Continuous
100
AcDbLine
 10
265.9273721241421
 20
159.3364496096263
 30
0.0
 11
265.9273721241432
 21
164.3364496093137
 31
0.0
  0
LINE
  5
4F4
330
6F
100
AcDbEntity
  8
LOUVER
  6
Continuous
100
AcDbLine
 10
265.9273721241425
 20
159.3364496096259
 30
0.0
 11
267.7273721243834
 21
159.3364496096259
 31
0.0
  0
LINE
  5
4F5
330
6F
100
AcDbEntity
  8
LOUVER
  6
Continuous
100
AcDbLine
 10
266.4273721240875
 20
173.3364496096266
 30
0.0
 11
262.7273721240873
 21
173.3364496096279
 31
0.0
  0
LINE
  5
4F6
330
6F
100
AcDbEntity
  8
LOUVER
  6
Continuous
100
AcDbLine
 10
262.4273721240875
 20
173.6364496096275
 30
0.0
 11
262.4273721240876
 21
174.0364496096276
 31
0.0
  0
LINE
  5
4F7
330
6F
100
AcDbEntity
  8
LOUVER
  6
Continuous
100
AcDbLine
 10
266.0273721240878
 20
198.636449609627
 30
0.0
 11
246.1856954172453
 21
198.636449609627
 31
0.0
  0
LINE
  5
4F8
330
6F
100
AcDbEntity
  8
LOUVER
  6
Continuous
100
AcDbLine
 10
265.4273721240879
 20
197.136449609627
 30
0.0
 11
242.727372124088
 21
197.136449609627
 31
0.0
  0
LINE
  5
4F9
330
6F
100
AcDbEntity
  8
LOUVER
  6
Continuous
100
AcDbLine
 10
220.2273721236754
 20
168.1364496096097
 30
0.0
 11
219.0273721240869
 21
168.1364496096097
 31
0.0
  0
LINE
  5
4FA
330
6F
100
AcDbEntity
  8
LOUVER
  6
Continuous
100
AcDbLine
 10
219.5273721240322
 20
159.3364496096261
 30
0.0
 11
219.527372124031
 21
164.3364496093141
 31
0.0
  0
LINE
  5
4FB
330
6F
100
AcDbEntity
  8
LOUVER
  6
Continuous
100
AcDbLine
 10
219.5273721240325
 20
159.3364496096259
 30
0.0
 11
217.7273721240869
 21
159.3364496096259
 31
0.0
  0
LINE
  5
4FC
330
6F
100
AcDbEntity
  8
LOUVER
  6
Continuous
100
AcDbLine
 10
219.027372124087
 20
173.3364496096268
 30
0.0
 11
222.7273721240868
 21
173.3364496096281
 31
0.0
  0
LINE
  5
4FD
330
6F
100
AcDbEntity
  8
LOUVER
  6
Continuous
100
AcDbLine
 10
223.0273721240871
 20
173.6364496096274
 30
0.0
 11
223.0273721240871
 21
174.0364496096274
 31
0.0
  0
LINE
  5
4FE
330
6F
100
AcDbEntity
  8
LOUVER
  6
Continuous
100
AcDbLine
 10
219.427372124087
 20
198.636449609627
 30
0.0
 11
239.269048830929
 21
198.636449609627
 31
0.0
  0
LINE
  5
4FF
330
6F
100
AcDbEntity
  8
LOUVER
  6
Continuous
100
AcDbLine
 10
220.0273721240869
 20
197.136449609627
 30
0.0
 11
242.7273721240871
 21
197.136449609627
 31
0.0
  0
LINE
  5
500
330
6F
100
AcDbEntity
  8
UKEZAI
  6
Continuous
100
AcDbLine
 10
264.427372123433
 20
161.3364496096259
 30
0.0
 11
264.427372123433
 21
168.3364496096259
 31
0.0
  0
LINE
  5
501
330
6F
100
AcDbEntity
  8
UKEZAI
  6
Continuous
100
AcDbLine
 10
265.9273721234872
 20
160.3364496093393
 30
0.0
 11
265.7398721234334
 21
161.3364496096265
 31
0.0
  0
LINE
  5
502
330
6F
100
AcDbEntity
  8
UKEZAI
  6
Continuous
100
AcDbLine
 10
265.9273721234846
 20
158.3364496096258
 30
0.0
 11
265.9273721234868
 21
160.3364496093389
 31
0.0
  0
LINE
  5
503
330
6F
100
AcDbEntity
  8
UKEZAI
  6
Continuous
100
AcDbLine
 10
262.927372123433
 20
159.8364496096259
 30
0.0
 11
262.927372123433
 21
172.5864496096259
 31
0.0
  0
LINE
  5
504
330
6F
100
AcDbEntity
  8
UKEZAI
  6
Continuous
100
AcDbLine
 10
264.4273721234328
 20
168.3364496095805
 30
0.0
 11
265.7273721235323
 21
168.3364496095815
 31
0.0
  0
LINE
  5
505
330
6F
100
AcDbEntity
  8
UKEZAI
  6
Continuous
100
AcDbLine
 10
264.427372123433
 20
161.3364496096259
 30
0.0
 11
265.739872123433
 21
161.3364496096259
 31
0.0
  0
LINE
  5
506
330
6F
100
AcDbEntity
  8
UKEZAI
  6
Continuous
100
AcDbLine
 10
242.7273721234328
 20
158.336449609626
 30
0.0
 11
265.9273721234844
 21
158.3364496096259
 31
0.0
  0
ARC
  5
507
330
6F
100
AcDbEntity
  8
UKEZAI
  6
Continuous
100
AcDbCircle
 10
242.7273721234326
 20
159.8364496096264
 30
0.0
 40
0.3
100
AcDbArc
 50
270.0
 51
0.0
  0
ARC
  5
508
330
6F
100
AcDbEntity
  8
UKEZAI
  6
Continuous
100
AcDbCircle
 10
263.6773721234331
 20
172.5864496096264
 30
0.0
 40
0.75
100
AcDbArc
 50
19.88796430577387
 51
180.0
  0
ARC
  5
509
330
6F
100
AcDbEntity
  8
LOUVER
  6
Continuous
100
AcDbCircle
 10
220.2273721236757
 20
167.93644960961
 30
0.0
 40
0.2
100
AcDbArc
 50
345.8703295108744
 51
90.0
  0
ARC
  5
50A
330
6F
100
AcDbEntity
  8
LOUVER
  6
Continuous
100
AcDbCircle
 10
265.227372124677
 20
167.9364496096414
 30
0.0
 40
0.2
100
AcDbArc
 50
90.00000000008069
 51
194.1296704863125
  0
ARC
  5
50B
330
6F
100
AcDbEntity
  8
UKEZAI
  6
Continuous
100
AcDbCircle
 10
265.7273721235324
 20
168.5364496095821
 30
0.0
 40
0.2
100
AcDbArc
 50
270.0
 51
19.88796430577178
  0
LINE
  5
50C
330
6F
100
AcDbEntity
  8
UKEZAI
  6
Continuous
100
AcDbLine
 10
265.9154440449801
 20
168.6044860142686
 30
0.0
 11
264.3826418288631
 21
172.841586127204
 31
0.0
  0
POINT
  5
50D
330
6F
100
AcDbEntity
  8
UKEZAI
  6
Continuous
100
AcDbPoint
 10
265.9273721235327
 20
168.3364496095823
 30
0.0
  0
ARC
  5
50E
330
6F
100
AcDbEntity
  8
UKEZAI
  6
Continuous
100
AcDbCircle
 10
244.7273721234326
 20
159.8364496096264
 30
0.0
 40
0.3
100
AcDbArc
 50
0.0
 51
180.0
  0
LINE
  5
50F
330
6F
100
AcDbEntity
  8
UKEZAI
  6
Continuous
100
AcDbLine
 10
243.0273721234329
 20
159.8364496096259
 30
0.0
 11
244.427372123433
 21
159.8364496096259
 31
0.0
  0
LINE
  5
510
330
6F
100
AcDbEntity
  8
UKEZAI
  6
Continuous
100
AcDbLine
 10
245.0273721234329
 20
159.8364496096259
 30
0.0
 11
262.927372123433
 21
159.8364496096259
 31
0.0
  0
LINE
  5
511
330
6F
100
AcDbEntity
  8
UKEZAI
  6
Continuous
100
AcDbLine
 10
221.0273721234327
 20
161.3364496096259
 30
0.0
 11
221.0273721234327
 21
168.3364496096259
 31
0.0
  0
LINE
  5
512
330
6F
100
AcDbEntity
  8
UKEZAI
  6
Continuous
100
AcDbLine
 10
219.5273721233795
 20
160.3364496093396
 30
0.0
 11
219.7148721234333
 21
161.3364496096264
 31
0.0
  0
LINE
  5
513
330
6F
100
AcDbEntity
  8
UKEZAI
  6
Continuous
100
AcDbLine
 10
219.5273721233814
 20
158.336449609626
 30
0.0
 11
219.5273721233792
 21
160.3364496093391
 31
0.0
  0
LINE
  5
514
330
6F
100
AcDbEntity
  8
UKEZAI
  6
Continuous
100
AcDbLine
 10
222.5273721234327
 20
159.8364496096259
 30
0.0
 11
222.5273721234327
 21
172.5864496096259
 31
0.0
  0
LINE
  5
515
330
6F
100
AcDbEntity
  8
UKEZAI
  6
Continuous
100
AcDbLine
 10
221.0273721234329
 20
168.3364496095806
 30
0.0
 11
219.7273721233334
 21
168.3364496095816
 31
0.0
  0
LINE
  5
516
330
6F
100
AcDbEntity
  8
UKEZAI
  6
Continuous
100
AcDbLine
 10
221.0273721234327
 20
161.3364496096259
 30
0.0
 11
219.7148721234327
 21
161.3364496096259
 31
0.0
  0
LINE
  5
517
330
6F
100
AcDbEntity
  8
UKEZAI
  6
Continuous
100
AcDbLine
 10
242.7273721234325
 20
158.3364496096265
 30
0.0
 11
219.5273721233809
 21
158.3364496096265
 31
0.0
  0
ARC
  5
518
330
6F
100
AcDbEntity
  8
UKEZAI
  6
Continuous
100
AcDbCircle
 10
221.777372123433
 20
172.5864496096264
 30
0.0
 40
0.75
100
AcDbArc
 50
0.0
 51
160.112035694226
  0
ARC
  5
519
330
6F
100
AcDbEntity
  8
UKEZAI
  6
Continuous
100
AcDbCircle
 10
219.7273721233337
 20
168.5364496095821
 30
0.0
 40
0.2
100
AcDbArc
 50
160.1120356942282
 51
270.0
  0
LINE
  5
51A
330
6F
100
AcDbEntity
  8
UKEZAI
  6
Continuous
100
AcDbLine
 10
219.539300201885
 20
168.604486014269
 30
0.0
 11
221.0721024180019
 21
172.8415861272038
 31
0.0
  0
POINT
  5
51B
330
6F
100
AcDbEntity
  8
UKEZAI
  6
Continuous
100
AcDbPoint
 10
219.5273721233334
 20
168.3364496095823
 30
0.0
  0
ARC
  5
51C
330
6F
100
AcDbEntity
  8
UKEZAI
  6
Continuous
100
AcDbCircle
 10
240.7273721234326
 20
159.8364496096264
 30
0.0
 40
0.3
100
AcDbArc
 50
0.0
 51
180.0
  0
LINE
  5
51D
330
6F
100
AcDbEntity
  8
UKEZAI
  6
Continuous
100
AcDbLine
 10
242.427372123433
 20
159.8364496096259
 30
0.0
 11
241.0273721234331
 21
159.8364496096259
 31
0.0
  0
LINE
  5
51E
330
6F
100
AcDbEntity
  8
UKEZAI
  6
Continuous
100
AcDbLine
 10
240.427372123433
 20
159.8364496096259
 30
0.0
 11
222.5273721234327
 21
159.8364496096259
 31
0.0
  0
LINE
  5
51F
330
6F
100
AcDbEntity
  8
LOUVER
  6
Continuous
100
AcDbLine
 10
220.4213212696284
 20
167.8876261645876
 30
0.0
 11
219.5273721240311
 21
164.336449609315
 31
0.0
  0
LINE
  5
520
330
6F
100
AcDbEntity
  8
LOUVER
  6
Continuous
100
AcDbLine
 10
265.9273721241432
 20
164.3364496093125
 30
0.0
 11
265.0334229787211
 21
167.8876261646264
 31
0.0
  0
POINT
  5
521
330
6F
100
AcDbEntity
  8
LOUVER
  6
Continuous
100
AcDbPoint
 10
265.9273721241418
 20
159.3364496096264
 30
0.0
  0
LINE
  5
522
330
6F
100
AcDbEntity
  8
LOUVER
  6
Continuous
100
AcDbLine
 10
219.427372124087
 20
198.636449609627
 30
0.0
 11
219.427372124087
 21
256.6364496095929
 31
0.0
  0
LINE
  5
523
330
6F
100
AcDbEntity
  8
LOUVER
  6
Continuous
100
AcDbLine
 10
266.0273721240878
 20
198.636449609627
 30
0.0
 11
266.0273721240878
 21
256.6364496096256
 31
0.0
  0
LINE
  5
524
330
6F
100
AcDbEntity
  8
LOUVER
  6
Continuous
100
AcDbLine
 10
266.4273721240879
 20
174.3364496096266
 30
0.0
 11
262.7273721240876
 21
174.3364496096279
 31
0.0
  0
LINE
  5
525
330
6F
100
AcDbEntity
  8
LOUVER
  6
Continuous
100
AcDbLine
 10
266.4273721240879
 20
174.3364496096263
 30
0.0
 11
266.4273721240879
 21
196.136449609627
 31
0.0
  0
LINE
  5
526
330
6F
100
AcDbEntity
  8
LOUVER
  6
Continuous
100
AcDbLine
 10
266.4273721240879
 20
168.1364496096097
 30
0.0
 11
266.4273721240879
 21
173.3364496096268
 31
0.0
  0
LINE
  5
527
330
6F
100
AcDbEntity
  8
LOUVER
  6
Continuous
100
AcDbLine
 10
219.0273721240866
 20
174.3364496096268
 30
0.0
 11
222.7273721240869
 21
174.3364496096281
 31
0.0
  0
LINE
  5
528
330
6F
100
AcDbEntity
  8
LOUVER
  6
Continuous
100
AcDbLine
 10
219.0273721240869
 20
174.3364496096259
 30
0.0
 11
219.0273721240869
 21
196.136449609627
 31
0.0
  0
LINE
  5
529
330
6F
100
AcDbEntity
  8
LOUVER
  6
Continuous
100
AcDbLine
 10
219.0273721240869
 20
168.1364496096097
 30
0.0
 11
219.0273721240869
 21
173.3364496096259
 31
0.0
  0
ARC
  5
52A
330
6F
100
AcDbEntity
  8
LOUVER
  6
Continuous
100
AcDbCircle
 10
222.7273721240872
 20
173.636449609628
 30
0.0
 40
0.3
100
AcDbArc
 50
270.0
 51
0.0
  0
ARC
  5
52B
330
6F
100
AcDbEntity
  8
LOUVER
  6
Continuous
100
AcDbCircle
 10
222.7273721240872
 20
174.0364496096281
 30
0.0
 40
0.3
100
AcDbArc
 50
0.0
 51
90.0
  0
ARC
  5
52C
330
6F
100
AcDbEntity
  8
LOUVER
  6
Continuous
100
AcDbCircle
 10
262.7273721240876
 20
174.0364496096281
 30
0.0
 40
0.3
100
AcDbArc
 50
90.0
 51
180.0
  0
ARC
  5
52D
330
6F
100
AcDbEntity
  8
LOUVER
  6
Continuous
100
AcDbCircle
 10
262.7273721240876
 20
173.6364496096284
 30
0.0
 40
0.3
100
AcDbArc
 50
180.0
 51
270.0
  0
LINE
  5
52E
330
6F
100
AcDbEntity
  8
LOUVER
  6
Continuous
100
AcDbLine
 10
266.0273721240878
 20
256.6364496096256
 30
0.0
 11
252.7273721239535
 21
256.6364496096256
 31
0.0
  0
LINE
  5
52F
330
6F
100
AcDbEntity
  8
LOUVER
  6
Continuous
100
AcDbLine
 10
219.4273721240872
 20
256.6364496095935
 30
0.0
 11
232.7273721242741
 21
256.6364496096122
 31
0.0
  0
LINE
  5
530
330
6F
100
AcDbEntity
  8
LOUVER
  6
Continuous
100
AcDbLine
 10
246.1917412218332
 20
256.1816863345771
 30
0.0
 11
252.727372123954
 21
256.6364496096256
 31
0.0
  0
POINT
  5
531
330
6F
100
AcDbEntity
  8
LOUVER
  6
Continuous
100
AcDbPoint
 10
265.9273721241418
 20
159.3364496096264
 30
0.0
  0
ARC
  5
532
330
6F
100
AcDbEntity
  8
LOUVER
  6
Continuous
100
AcDbCircle
 10
220.0273721240869
 20
196.1364496096275
 30
0.0
 40
1.0
100
AcDbArc
 50
90.0
 51
180.0
  0
ARC
  5
533
330
6F
100
AcDbEntity
  8
LOUVER
  6
Continuous
100
AcDbCircle
 10
265.4273721240879
 20
196.1364496096275
 30
0.0
 40
1.0
100
AcDbArc
 50
0.0
 51
90.0
  0
ARC
  5
534
330
6F
100
AcDbEntity
  8
UKEZAI
  6
Continuous
100
AcDbCircle
 10
242.727372124931
 20
159.8364496096264
 30
0.0
 40
0.3
100
AcDbArc
 50
180.0000000000808
 51
270.0000000000807
  0
LINE
  5
535
330
6F
100
AcDbEntity
  8
LOUVER
  6
DASHED
100
AcDbLine
 10
267.7273721243834
 20
159.3364496096468
 30
0.0
 11
267.7273721243835
 21
258.3364496096254
 31
0.0
  0
LINE
  5
536
330
6F
100
AcDbEntity
  8
LOUVER
  6
DASHED
100
AcDbLine
 10
267.7273721240867
 20
258.3364496096258
 30
0.0
 11
217.727372124087
 21
258.3364496096258
 31
0.0
  0
LINE
  5
537
330
6F
100
AcDbEntity
  8
LOUVER
  6
DASHED
100
AcDbLine
 10
217.7273721240869
 20
258.3364496096259
 30
0.0
 11
217.7273721240869
 21
159.3364496096259
 31
0.0
  0
POINT
  5
538
330
6F
100
AcDbEntity
  8
LOUVER
  6
Continuous
100
AcDbPoint
 10
242.7273721240867
 20
254.8364496096264
 30
0.0
  0
POINT
  5
539
330
6F
100
AcDbEntity
  8
LOUVER
  6
Continuous
100
AcDbPoint
 10
242.7273721240867
 20
200.1364496096275
 30
0.0
  0
POINT
  5
53A
330
6F
100
AcDbEntity
  8
LOUVER
  6
Continuous
100
AcDbPoint
 10
242.7273721240872
 20
254.8364496096264
 30
0.0
  0
POINT
  5
53B
330
6F
100
AcDbEntity
  8
LOUVER
  6
Continuous
100
AcDbPoint
 10
242.7273721240867
 20
200.1364496096275
 30
0.0
  0
POINT
  5
53C
330
6F
100
AcDbEntity
  8
LOUVER
  6
Continuous
100
AcDbPoint
 10
242.7273721240867
 20
254.8364496096264
 30
0.0
  0
POINT
  5
53D
330
6F
100
AcDbEntity
  8
LOUVER
  6
Continuous
100
AcDbPoint
 10
242.7273721240867
 20
200.1364496096275
 30
0.0
  0
POINT
  5
53E
330
6F
100
AcDbEntity
  8
LOUVER
  6
Continuous
100
AcDbPoint
 10
242.7273721240867
 20
200.1364496096275
 30
0.0
  0
ARC
  5
53F
330
6F
100
AcDbEntity
  8
LOUVER
  6
Continuous
100
AcDbCircle
 10
244.5273721242643
 20
201.7985266232949
 30
0.0
 40
0.6500000000000014
100
AcDbArc
 50
42.71864450827047
 51
222.7186445082705
  0
ARC
  5
540
330
6F
100
AcDbEntity
  8
LOUVER
  6
Continuous
100
AcDbCircle
 10
240.9273721244504
 20
201.7985266238802
 30
0.0
 40
0.6500000000000048
100
AcDbArc
 50
317.2813554730932
 51
137.2813554730932
  0
ARC
  5
541
330
6F
100
AcDbEntity
  8
LOUVER
  6
Continuous
100
AcDbCircle
 10
242.7273721240867
 20
200.1364496096275
 30
0.0
 40
3.1
100
AcDbArc
 50
137.2813554730942
 51
196.1276202131596
  0
ARC
  5
542
330
6F
100
AcDbEntity
  8
LOUVER
  6
Continuous
100
AcDbCircle
 10
242.7273721240867
 20
200.1364496096275
 30
0.0
 40
3.1
100
AcDbArc
 50
343.8723797868403
 51
42.71864450826979
  0
POINT
  5
543
330
6F
100
AcDbEntity
  8
LOUVER
  6
Continuous
100
AcDbPoint
 10
242.7273721240872
 20
254.8364496096264
 30
0.0
  0
ARC
  5
544
330
6F
100
AcDbEntity
  8
LOUVER
  6
Continuous
100
AcDbCircle
 10
240.9273721239097
 20
253.1743725959586
 30
0.0
 40
0.6500000000000014
100
AcDbArc
 50
222.7186445082704
 51
42.71864450827043
  0
ARC
  5
545
330
6F
100
AcDbEntity
  8
LOUVER
  6
Continuous
100
AcDbCircle
 10
244.5273721237236
 20
253.1743725953733
 30
0.0
 40
0.6500000000000048
100
AcDbArc
 50
137.2813554730932
 51
317.2813554730932
  0
ARC
  5
546
330
6F
100
AcDbEntity
  8
LOUVER
  6
Continuous
100
AcDbCircle
 10
242.7273721240872
 20
254.8364496096264
 30
0.0
 40
3.1
100
AcDbArc
 50
317.2813554730942
 51
13.598872759482
  0
ARC
  5
547
330
6F
100
AcDbEntity
  8
LOUVER
  6
Continuous
100
AcDbCircle
 10
242.7273721240872
 20
254.8364496096264
 30
0.0
 40
3.1
100
AcDbArc
 50
166.4011272405338
 51
222.71864450827
  0
ARC
  5
548
330
6F
100
AcDbEntity
  8
LOUVER
  6
Continuous
100
AcDbCircle
 10
246.1856954172449
 20
199.1364496096275
 30
0.0
 40
0.5
100
AcDbArc
 50
163.8723797868396
 51
270.0
  0
ARC
  5
549
330
6F
100
AcDbEntity
  8
LOUVER
  6
Continuous
100
AcDbCircle
 10
239.269048830929
 20
199.1364496096275
 30
0.0
 40
0.5
100
AcDbArc
 50
270.0
 51
16.1276202131604
  0
POINT
  5
54A
330
6F
100
AcDbEntity
  8
LOUVER
  6
Continuous
100
AcDbPoint
 10
245.541621579981
 20
256.1364496096267
 30
0.0
  0
POINT
  5
54B
330
6F
100
AcDbEntity
  8
LOUVER
  6
Continuous
100
AcDbPoint
 10
239.913122668193
 20
256.1364496096267
 30
0.0
  0
ARC
  5
54C
330
6F
100
AcDbEntity
  8
LOUVER
  6
Continuous
100
AcDbCircle
 10
246.2264483798117
 20
255.6828923759285
 30
0.0
 40
0.5
100
AcDbArc
 50
93.98034816671135
 51
193.5988727594803
  0
ARC
  5
54D
330
6F
100
AcDbEntity
  8
LOUVER
  6
Continuous
100
AcDbCircle
 10
239.2282958683622
 20
255.6828923759276
 30
0.0
 40
0.5
100
AcDbArc
 50
346.4011272405331
 51
86.0196518333703
  0
ARC
  5
54E
330
6F
100
AcDbEntity
  8
LOUVER
  6
Continuous
100
AcDbCircle
 10
242.7273721240867
 20
200.1364496096275
 30
0.0
 40
1.800000000000112
100
AcDbArc
 50
137.2813554730984
 51
42.71864450826035
  0
ARC
  5
54F
330
6F
100
AcDbEntity
  8
LOUVER
  6
Continuous
100
AcDbCircle
 10
242.7273721240872
 20
254.8364496096264
 30
0.0
 40
1.799999999999875
100
AcDbArc
 50
317.281355473091
 51
222.7186445082684
  0
LINE
  5
550
330
6F
100
AcDbEntity
  8
LOUVER
  6
Continuous
100
AcDbLine
 10
239.2630030263396
 20
256.1816863345773
 30
0.0
 11
232.7273721242735
 21
256.6364496096125
 31
0.0
  0
POINT
  5
551
330
6F
100
AcDbEntity
  8
DXF0
  6
Continuous
 62
     3
100
AcDbPoint
 10
242.7273721234328
 20
158.336449609626
 30
0.0
  0
LINE
  5
552
330
6F
100
AcDbEntity
  8
LOUVER
  6
Continuous
100
AcDbLine
 10
630.2412277202473
 20
166.63644960961
 30
0.0
 11
631.4412277196582
 21
166.63644960961
 31
0.0
  0
LINE
  5
553
330
6F
100
AcDbEntity
  8
LOUVER
  6
Continuous
100
AcDbLine
 10
630.9412277197123
 20
157.8364496096266
 30
0.0
 11
630.9412277197135
 21
162.836449609314
 31
0.0
  0
LINE
  5
554
330
6F
100
AcDbEntity
  8
LOUVER
  6
Continuous
100
AcDbLine
 10
630.9412277197128
 20
157.8364496096262
 30
0.0
 11
632.7412277199536
 21
157.8364496096262
 31
0.0
  0
LINE
  5
555
330
6F
100
AcDbEntity
  8
LOUVER
  6
Continuous
100
AcDbLine
 10
631.4412277196579
 20
171.836449609627
 30
0.0
 11
627.7412277196577
 21
171.8364496096282
 31
0.0
  0
LINE
  5
556
330
6F
100
AcDbEntity
  8
LOUVER
  6
Continuous
100
AcDbLine
 10
627.4412277196577
 20
172.1364496096278
 30
0.0
 11
627.4412277196577
 21
172.5364496096279
 31
0.0
  0
LINE
  5
557
330
6F
100
AcDbEntity
  8
LOUVER
  6
Continuous
100
AcDbLine
 10
631.0412277196583
 20
197.1364496096273
 30
0.0
 11
611.1995510128157
 21
197.1364496096273
 31
0.0
  0
LINE
  5
558
330
6F
100
AcDbEntity
  8
LOUVER
  6
Continuous
100
AcDbLine
 10
630.4412277196583
 20
195.6364496096273
 30
0.0
 11
607.7412277196584
 21
195.6364496096273
 31
0.0
  0
LINE
  5
559
330
6F
100
AcDbEntity
  8
LOUVER
  6
Continuous
100
AcDbLine
 10
585.2412277192457
 20
166.63644960961
 30
0.0
 11
584.0412277196572
 21
166.63644960961
 31
0.0
  0
LINE
  5
55A
330
6F
100
AcDbEntity
  8
LOUVER
  6
Continuous
100
AcDbLine
 10
584.5412277196024
 20
157.8364496096264
 30
0.0
 11
584.5412277196013
 21
162.8364496093144
 31
0.0
  0
LINE
  5
55B
330
6F
100
AcDbEntity
  8
LOUVER
  6
Continuous
100
AcDbLine
 10
584.5412277196029
 20
157.8364496096262
 30
0.0
 11
582.7412277196573
 21
157.8364496096262
 31
0.0
  0
LINE
  5
55C
330
6F
100
AcDbEntity
  8
LOUVER
  6
Continuous
100
AcDbLine
 10
584.0412277196572
 20
171.8364496096272
 30
0.0
 11
587.7412277196571
 21
171.8364496096284
 31
0.0
  0
LINE
  5
55D
330
6F
100
AcDbEntity
  8
LOUVER
  6
Continuous
100
AcDbLine
 10
588.0412277196575
 20
172.1364496096278
 30
0.0
 11
588.0412277196575
 21
172.5364496096279
 31
0.0
  0
LINE
  5
55E
330
6F
100
AcDbEntity
  8
LOUVER
  6
Continuous
100
AcDbLine
 10
584.4412277196574
 20
197.1364496096273
 30
0.0
 11
604.2829044264993
 21
197.1364496096273
 31
0.0
  0
LINE
  5
55F
330
6F
100
AcDbEntity
  8
LOUVER
  6
Continuous
100
AcDbLine
 10
585.0412277196572
 20
195.6364496096273
 30
0.0
 11
607.7412277196575
 21
195.6364496096273
 31
0.0
  0
LINE
  5
560
330
6F
100
AcDbEntity
  8
UKEZAI
  6
Continuous
100
AcDbLine
 10
629.4412277190035
 20
159.8364496096262
 30
0.0
 11
629.4412277190035
 21
166.8364496096262
 31
0.0
  0
LINE
  5
561
330
6F
100
AcDbEntity
  8
UKEZAI
  6
Continuous
100
AcDbLine
 10
630.9412277190574
 20
158.8364496093395
 30
0.0
 11
630.7537277190036
 21
159.8364496096268
 31
0.0
  0
LINE
  5
562
330
6F
100
AcDbEntity
  8
UKEZAI
  6
Continuous
100
AcDbLine
 10
630.941227719055
 20
156.8364496096262
 30
0.0
 11
630.941227719057
 21
158.8364496093392
 31
0.0
  0
LINE
  5
563
330
6F
100
AcDbEntity
  8
UKEZAI
  6
Continuous
100
AcDbLine
 10
627.9412277190036
 20
158.3364496096262
 30
0.0
 11
627.9412277190036
 21
171.0864496096261
 31
0.0
  0
LINE
  5
564
330
6F
100
AcDbEntity
  8
UKEZAI
  6
Continuous
100
AcDbLine
 10
629.4412277190032
 20
166.8364496095808
 30
0.0
 11
630.7412277191027
 21
166.8364496095818
 31
0.0
  0
LINE
  5
565
330
6F
100
AcDbEntity
  8
UKEZAI
  6
Continuous
100
AcDbLine
 10
629.4412277190035
 20
159.8364496096262
 30
0.0
 11
630.7537277190036
 21
159.8364496096262
 31
0.0
  0
LINE
  5
566
330
6F
100
AcDbEntity
  8
UKEZAI
  6
Continuous
100
AcDbLine
 10
607.7412277190031
 20
156.8364496096263
 30
0.0
 11
630.9412277190546
 21
156.8364496096263
 31
0.0
  0
ARC
  5
567
330
6F
100
AcDbEntity
  8
UKEZAI
  6
Continuous
100
AcDbCircle
 10
607.7412277190028
 20
158.3364496096268
 30
0.0
 40
0.3
100
AcDbArc
 50
270.0
 51
0.0
  0
ARC
  5
568
330
6F
100
AcDbEntity
  8
UKEZAI
  6
Continuous
100
AcDbCircle
 10
628.6912277190035
 20
171.0864496096268
 30
0.0
 40
0.75
100
AcDbArc
 50
19.88796430577387
 51
180.0
  0
ARC
  5
569
330
6F
100
AcDbEntity
  8
LOUVER
  6
Continuous
100
AcDbCircle
 10
585.241227719246
 20
166.4364496096103
 30
0.0
 40
0.2
100
AcDbArc
 50
345.8703295108744
 51
90.0
  0
ARC
  5
56A
330
6F
100
AcDbEntity
  8
LOUVER
  6
Continuous
100
AcDbCircle
 10
630.2412277202473
 20
166.4364496096417
 30
0.0
 40
0.2
100
AcDbArc
 50
90.00000000008069
 51
194.1296704863125
  0
ARC
  5
56B
330
6F
100
AcDbEntity
  8
UKEZAI
  6
Continuous
100
AcDbCircle
 10
630.7412277191027
 20
167.0364496095825
 30
0.0
 40
0.2
100
AcDbArc
 50
270.0
 51
19.88796430577178
  0
LINE
  5
56C
330
6F
100
AcDbEntity
  8
UKEZAI
  6
Continuous
100
AcDbLine
 10
630.9292996405504
 20
167.104486014269
 30
0.0
 11
629.3964974244333
 21
171.3415861272043
 31
0.0
  0
POINT
  5
56D
330
6F
100
AcDbEntity
  8
UKEZAI
  6
Continuous
100
AcDbPoint
 10
630.941227719103
 20
166.8364496095826
 30
0.0
  0
ARC
  5
56E
330
6F
100
AcDbEntity
  8
UKEZAI
  6
Continuous
100
AcDbCircle
 10
609.7412277190028
 20
158.3364496096268
 30
0.0
 40
0.3
100
AcDbArc
 50
0.0
 51
180.0
  0
LINE
  5
56F
330
6F
100
AcDbEntity
  8
UKEZAI
  6
Continuous
100
AcDbLine
 10
608.0412277190033
 20
158.3364496096262
 30
0.0
 11
609.4412277190035
 21
158.3364496096262
 31
0.0
  0
LINE
  5
570
330
6F
100
AcDbEntity
  8
UKEZAI
  6
Continuous
100
AcDbLine
 10
610.0412277190033
 20
158.3364496096262
 30
0.0
 11
627.9412277190036
 21
158.3364496096262
 31
0.0
  0
LINE
  5
571
330
6F
100
AcDbEntity
  8
UKEZAI
  6
Continuous
100
AcDbLine
 10
586.0412277190031
 20
159.8364496096262
 30
0.0
 11
586.0412277190031
 21
166.8364496096262
 31
0.0
  0
LINE
  5
572
330
6F
100
AcDbEntity
  8
UKEZAI
  6
Continuous
100
AcDbLine
 10
584.5412277189496
 20
158.8364496093399
 30
0.0
 11
584.7287277190035
 21
159.8364496096266
 31
0.0
  0
LINE
  5
573
330
6F
100
AcDbEntity
  8
UKEZAI
  6
Continuous
100
AcDbLine
 10
584.5412277189517
 20
156.8364496096264
 30
0.0
 11
584.5412277189496
 21
158.8364496093394
 31
0.0
  0
LINE
  5
574
330
6F
100
AcDbEntity
  8
UKEZAI
  6
Continuous
100
AcDbLine
 10
587.5412277190031
 20
158.3364496096262
 30
0.0
 11
587.5412277190031
 21
171.0864496096261
 31
0.0
  0
LINE
  5
575
330
6F
100
AcDbEntity
  8
UKEZAI
  6
Continuous
100
AcDbLine
 10
586.0412277190033
 20
166.8364496095809
 30
0.0
 11
584.7412277189037
 21
166.8364496095819
 31
0.0
  0
LINE
  5
576
330
6F
100
AcDbEntity
  8
UKEZAI
  6
Continuous
100
AcDbLine
 10
586.0412277190031
 20
159.8364496096262
 30
0.0
 11
584.7287277190031
 21
159.8364496096262
 31
0.0
  0
LINE
  5
577
330
6F
100
AcDbEntity
  8
UKEZAI
  6
Continuous
100
AcDbLine
 10
607.7412277190028
 20
156.8364496096268
 30
0.0
 11
584.5412277189512
 21
156.8364496096268
 31
0.0
  0
ARC
  5
578
330
6F
100
AcDbEntity
  8
UKEZAI
  6
Continuous
100
AcDbCircle
 10
586.7912277190034
 20
171.0864496096268
 30
0.0
 40
0.75
100
AcDbArc
 50
0.0
 51
160.112035694226
  0
ARC
  5
579
330
6F
100
AcDbEntity
  8
UKEZAI
  6
Continuous
100
AcDbCircle
 10
584.741227718904
 20
167.0364496095825
 30
0.0
 40
0.2
100
AcDbArc
 50
160.1120356942282
 51
270.0
  0
LINE
  5
57A
330
6F
100
AcDbEntity
  8
UKEZAI
  6
Continuous
100
AcDbLine
 10
584.5531557974553
 20
167.1044860142693
 30
0.0
 11
586.0859580135723
 21
171.3415861272041
 31
0.0
  0
POINT
  5
57B
330
6F
100
AcDbEntity
  8
UKEZAI
  6
Continuous
100
AcDbPoint
 10
584.5412277189037
 20
166.8364496095826
 30
0.0
  0
ARC
  5
57C
330
6F
100
AcDbEntity
  8
UKEZAI
  6
Continuous
100
AcDbCircle
 10
605.7412277190028
 20
158.3364496096268
 30
0.0
 40
0.3
100
AcDbArc
 50
0.0
 51
180.0
  0
LINE
  5
57D
330
6F
100
AcDbEntity
  8
UKEZAI
  6
Continuous
100
AcDbLine
 10
607.4412277190035
 20
158.3364496096262
 30
0.0
 11
606.0412277190035
 21
158.3364496096262
 31
0.0
  0
LINE
  5
57E
330
6F
100
AcDbEntity
  8
UKEZAI
  6
Continuous
100
AcDbLine
 10
605.4412277190035
 20
158.3364496096262
 30
0.0
 11
587.5412277190031
 21
158.3364496096262
 31
0.0
  0
LINE
  5
57F
330
6F
100
AcDbEntity
  8
LOUVER
  6
Continuous
100
AcDbLine
 10
585.4351768651988
 20
166.3876261645878
 30
0.0
 11
584.5412277196015
 21
162.8364496093153
 31
0.0
  0
LINE
  5
580
330
6F
100
AcDbEntity
  8
LOUVER
  6
Continuous
100
AcDbLine
 10
630.9412277197132
 20
162.8364496093129
 30
0.0
 11
630.0472785742912
 21
166.3876261646267
 31
0.0
  0
POINT
  5
581
330
6F
100
AcDbEntity
  8
LOUVER
  6
Continuous
100
AcDbPoint
 10
630.9412277197122
 20
157.8364496096268
 30
0.0
  0
LINE
  5
582
330
6F
100
AcDbEntity
  8
LOUVER
  6
Continuous
100
AcDbLine
 10
584.4412277196574
 20
197.1364496096273
 30
0.0
 11
584.4412277196574
 21
255.1364496095932
 31
0.0
  0
LINE
  5
583
330
6F
100
AcDbEntity
  8
LOUVER
  6
Continuous
100
AcDbLine
 10
631.0412277196583
 20
197.1364496096273
 30
0.0
 11
631.0412277196583
 21
255.1364496096259
 31
0.0
  0
LINE
  5
584
330
6F
100
AcDbEntity
  8
LOUVER
  6
Continuous
100
AcDbLine
 10
631.4412277196582
 20
172.836449609627
 30
0.0
 11
627.7412277196579
 21
172.8364496096282
 31
0.0
  0
LINE
  5
585
330
6F
100
AcDbEntity
  8
LOUVER
  6
Continuous
100
AcDbLine
 10
631.4412277196582
 20
172.8364496096266
 30
0.0
 11
631.4412277196582
 21
194.6364496096273
 31
0.0
  0
LINE
  5
586
330
6F
100
AcDbEntity
  8
LOUVER
  6
Continuous
100
AcDbLine
 10
631.4412277196582
 20
166.63644960961
 30
0.0
 11
631.4412277196582
 21
171.836449609627
 31
0.0
  0
LINE
  5
587
330
6F
100
AcDbEntity
  8
LOUVER
  6
Continuous
100
AcDbLine
 10
584.0412277196569
 20
172.8364496096272
 30
0.0
 11
587.7412277196573
 21
172.8364496096284
 31
0.0
  0
LINE
  5
588
330
6F
100
AcDbEntity
  8
LOUVER
  6
Continuous
100
AcDbLine
 10
584.0412277196572
 20
172.8364496096262
 30
0.0
 11
584.0412277196572
 21
194.6364496096273
 31
0.0
  0
LINE
  5
589
330
6F
100
AcDbEntity
  8
LOUVER
  6
Continuous
100
AcDbLine
 10
584.0412277196572
 20
166.63644960961
 30
0.0
 11
584.0412277196572
 21
171.8364496096262
 31
0.0
  0
ARC
  5
58A
330
6F
100
AcDbEntity
  8
LOUVER
  6
Continuous
100
AcDbCircle
 10
587.7412277196575
 20
172.1364496096283
 30
0.0
 40
0.3
100
AcDbArc
 50
270.0
 51
0.0
  0
ARC
  5
58B
330
6F
100
AcDbEntity
  8
LOUVER
  6
Continuous
100
AcDbCircle
 10
587.7412277196575
 20
172.5364496096284
 30
0.0
 40
0.3
100
AcDbArc
 50
0.0
 51
90.0
  0
ARC
  5
58C
330
6F
100
AcDbEntity
  8
LOUVER
  6
Continuous
100
AcDbCircle
 10
627.741227719658
 20
172.5364496096284
 30
0.0
 40
0.3
100
AcDbArc
 50
90.0
 51
180.0
  0
ARC
  5
58D
330
6F
100
AcDbEntity
  8
LOUVER
  6
Continuous
100
AcDbCircle
 10
627.741227719658
 20
172.1364496096288
 30
0.0
 40
0.3
100
AcDbArc
 50
180.0
 51
270.0
  0
LINE
  5
58E
330
6F
100
AcDbEntity
  8
LOUVER
  6
Continuous
100
AcDbLine
 10
631.0412277196583
 20
255.1364496096259
 30
0.0
 11
617.7412277195238
 21
255.1364496096259
 31
0.0
  0
LINE
  5
58F
330
6F
100
AcDbEntity
  8
LOUVER
  6
Continuous
100
AcDbLine
 10
584.4412277196576
 20
255.1364496095939
 30
0.0
 11
597.7412277198444
 21
255.1364496096125
 31
0.0
  0
LINE
  5
590
330
6F
100
AcDbEntity
  8
LOUVER
  6
Continuous
100
AcDbLine
 10
611.2055968174034
 20
254.6816863345774
 30
0.0
 11
617.7412277195242
 21
255.136449609626
 31
0.0
  0
POINT
  5
591
330
6F
100
AcDbEntity
  8
LOUVER
  6
Continuous
100
AcDbPoint
 10
630.9412277197122
 20
157.8364496096268
 30
0.0
  0
ARC
  5
592
330
6F
100
AcDbEntity
  8
LOUVER
  6
Continuous
100
AcDbCircle
 10
585.0412277196572
 20
194.6364496096278
 30
0.0
 40
1.0
100
AcDbArc
 50
90.0
 51
180.0
  0
ARC
  5
593
330
6F
100
AcDbEntity
  8
LOUVER
  6
Continuous
100
AcDbCircle
 10
630.4412277196583
 20
194.6364496096278
 30
0.0
 40
1.0
100
AcDbArc
 50
0.0
 51
90.0
  0
ARC
  5
594
330
6F
100
AcDbEntity
  8
UKEZAI
  6
Continuous
100
AcDbCircle
 10
607.7412277205012
 20
158.3364496096268
 30
0.0
 40
0.3
100
AcDbArc
 50
180.0000000000808
 51
270.0000000000807
  0
LINE
  5
595
330
6F
100
AcDbEntity
  8
LOUVER
  6
DASHED
100
AcDbLine
 10
632.7412277199536
 20
157.8364496096471
 30
0.0
 11
632.7412277199536
 21
256.8364496096257
 31
0.0
  0
LINE
  5
596
330
6F
100
AcDbEntity
  8
LOUVER
  6
DASHED
100
AcDbLine
 10
632.7412277196571
 20
256.8364496096261
 30
0.0
 11
582.7412277196573
 21
256.8364496096261
 31
0.0
  0
LINE
  5
597
330
6F
100
AcDbEntity
  8
LOUVER
  6
DASHED
100
AcDbLine
 10
582.7412277196573
 20
256.8364496096262
 30
0.0
 11
582.7412277196573
 21
157.8364496096262
 31
0.0
  0
POINT
  5
598
330
6F
100
AcDbEntity
  8
LOUVER
  6
Continuous
100
AcDbPoint
 10
607.7412277196571
 20
253.3364496096268
 30
0.0
  0
POINT
  5
599
330
6F
100
AcDbEntity
  8
LOUVER
  6
Continuous
100
AcDbPoint
 10
607.7412277196571
 20
198.6364496096278
 30
0.0
  0
POINT
  5
59A
330
6F
100
AcDbEntity
  8
LOUVER
  6
Continuous
100
AcDbPoint
 10
607.7412277196575
 20
253.3364496096268
 30
0.0
  0
POINT
  5
59B
330
6F
100
AcDbEntity
  8
LOUVER
  6
Continuous
100
AcDbPoint
 10
607.7412277196571
 20
198.6364496096278
 30
0.0
  0
POINT
  5
59C
330
6F
100
AcDbEntity
  8
LOUVER
  6
Continuous
100
AcDbPoint
 10
607.7412277196571
 20
253.3364496096268
 30
0.0
  0
POINT
  5
59D
330
6F
100
AcDbEntity
  8
LOUVER
  6
Continuous
100
AcDbPoint
 10
607.7412277196571
 20
198.6364496096278
 30
0.0
  0
POINT
  5
59E
330
6F
100
AcDbEntity
  8
LOUVER
  6
Continuous
100
AcDbPoint
 10
607.7412277196571
 20
198.6364496096278
 30
0.0
  0
ARC
  5
59F
330
6F
100
AcDbEntity
  8
LOUVER
  6
Continuous
100
AcDbCircle
 10
609.5412277198346
 20
200.2985266232952
 30
0.0
 40
0.6500000000000014
100
AcDbArc
 50
42.71864450827047
 51
222.7186445082705
  0
ARC
  5
5A0
330
6F
100
AcDbEntity
  8
LOUVER
  6
Continuous
100
AcDbCircle
 10
605.9412277200207
 20
200.2985266238805
 30
0.0
 40
0.6500000000000048
100
AcDbArc
 50
317.2813554730932
 51
137.2813554730932
  0
ARC
  5
5A1
330
6F
100
AcDbEntity
  8
LOUVER
  6
Continuous
100
AcDbCircle
 10
607.7412277196571
 20
198.6364496096278
 30
0.0
 40
3.1
100
AcDbArc
 50
137.2813554730942
 51
196.1276202131596
  0
ARC
  5
5A2
330
6F
100
AcDbEntity
  8
LOUVER
  6
Continuous
100
AcDbCircle
 10
607.7412277196571
 20
198.6364496096278
 30
0.0
 40
3.1
100
AcDbArc
 50
343.8723797868403
 51
42.71864450826979
  0
POINT
  5
5A3
330
6F
100
AcDbEntity
  8
LOUVER
  6
Continuous
100
AcDbPoint
 10
607.7412277196575
 20
253.3364496096268
 30
0.0
  0
ARC
  5
5A4
330
6F
100
AcDbEntity
  8
LOUVER
  6
Continuous
100
AcDbCircle
 10
605.94122771948
 20
251.6743725959589
 30
0.0
 40
0.6500000000000014
100
AcDbArc
 50
222.7186445082704
 51
42.71864450827043
  0
ARC
  5
5A5
330
6F
100
AcDbEntity
  8
LOUVER
  6
Continuous
100
AcDbCircle
 10
609.5412277192939
 20
251.6743725953737
 30
0.0
 40
0.6500000000000048
100
AcDbArc
 50
137.2813554730932
 51
317.2813554730932
  0
ARC
  5
5A6
330
6F
100
AcDbEntity
  8
LOUVER
  6
Continuous
100
AcDbCircle
 10
607.7412277196575
 20
253.3364496096268
 30
0.0
 40
3.1
100
AcDbArc
 50
317.2813554730942
 51
13.598872759482
  0
ARC
  5
5A7
330
6F
100
AcDbEntity
  8
LOUVER
  6
Continuous
100
AcDbCircle
 10
607.7412277196575
 20
253.3364496096268
 30
0.0
 40
3.1
100
AcDbArc
 50
166.4011272405338
 51
222.71864450827
  0
ARC
  5
5A8
330
6F
100
AcDbEntity
  8
LOUVER
  6
Continuous
100
AcDbCircle
 10
611.1995510128153
 20
197.6364496096278
 30
0.0
 40
0.5
100
AcDbArc
 50
163.8723797868396
 51
270.0
  0
ARC
  5
5A9
330
6F
100
AcDbEntity
  8
LOUVER
  6
Continuous
100
AcDbCircle
 10
604.2829044264993
 20
197.6364496096278
 30
0.0
 40
0.5
100
AcDbArc
 50
270.0
 51
16.1276202131604
  0
POINT
  5
5AA
330
6F
100
AcDbEntity
  8
LOUVER
  6
Continuous
100
AcDbPoint
 10
610.5554771755512
 20
254.6364496096269
 30
0.0
  0
POINT
  5
5AB
330
6F
100
AcDbEntity
  8
LOUVER
  6
Continuous
100
AcDbPoint
 10
604.9269782637633
 20
254.6364496096269
 30
0.0
  0
ARC
  5
5AC
330
6F
100
AcDbEntity
  8
LOUVER
  6
Continuous
100
AcDbCircle
 10
611.2403039753822
 20
254.1828923759288
 30
0.0
 40
0.5
100
AcDbArc
 50
93.98034816671135
 51
193.5988727594803
  0
ARC
  5
5AD
330
6F
100
AcDbEntity
  8
LOUVER
  6
Continuous
100
AcDbCircle
 10
604.2421514639325
 20
254.1828923759279
 30
0.0
 40
0.5
100
AcDbArc
 50
346.4011272405331
 51
86.0196518333703
  0
ARC
  5
5AE
330
6F
100
AcDbEntity
  8
LOUVER
  6
Continuous
100
AcDbCircle
 10
607.7412277196571
 20
198.6364496096278
 30
0.0
 40
1.800000000000112
100
AcDbArc
 50
137.2813554730984
 51
42.71864450826035
  0
ARC
  5
5AF
330
6F
100
AcDbEntity
  8
LOUVER
  6
Continuous
100
AcDbCircle
 10
607.7412277196575
 20
253.3364496096268
 30
0.0
 40
1.799999999999875
100
AcDbArc
 50
317.281355473091
 51
222.7186445082684
  0
LINE
  5
5B0
330
6F
100
AcDbEntity
  8
LOUVER
  6
Continuous
100
AcDbLine
 10
604.2768586219097
 20
254.6816863345775
 30
0.0
 11
597.7412277198439
 21
255.1364496096127
 31
0.0
  0
POINT
  5
5B1
330
6F
100
AcDbEntity
  8
DXF0
  6
Continuous
 62
     3
100
AcDbPoint
 10
607.7412277190031
 20
156.8364496096263
 30
0.0
  0
DIMENSION
  5
5B2
330
6F
100
AcDbEntity
  8
DXF0
  6
Continuous
 62
     3
100
AcDbDimension
280
     0
  2
*D7
 10
558.497123976148
 20
510.7555691123011
 30
0.0
 11
557.997123976148
 21
460.7555691123013
 31
0.0
 71
     5
 42
-1.0
 73
     0
 74
     0
 75
     0
  3
Standard
100
AcDbAlignedDimension
 13
517.4856009406731
 23
410.7555691123014
 33
0.0
 14
582.7412277196573
 24
510.7555691123011
 34
0.0
 50
90.0
100
AcDbRotatedDimension
  0
DIMENSION
  5
5B3
330
6F
100
AcDbEntity
  8
DXF0
  6
Continuous
 62
     3
100
AcDbDimension
280
     0
  2
*D8
 10
570.1102546600155
 20
410.7555691123014
 30
0.0
 11
569.6102546600155
 21
415.755569112296
 31
0.0
 71
     5
 42
-1.0
 73
     0
 74
     0
 75
     0
  3
Standard
100
AcDbAlignedDimension
 13
578.3526257942119
 23
420.7555691123121
 33
0.0
 14
517.4856009406731
 24
410.7555691123014
 34
0.0
 50
90.0
100
AcDbRotatedDimension
  0
DIMENSION
  5
5B4
330
6F
100
AcDbEntity
  8
DXF0
  6
Continuous
 62
     3
100
AcDbDimension
280
     0
  2
*D9
 10
578.4960643112927
 20
410.7555691123014
 30
0.0
 11
577.9960643112927
 21
413.5569388004446
 31
0.0
 71
     5
 42
-1.0
 73
     0
 74
     0
 75
     0
  3
Standard
100
AcDbAlignedDimension
 13
582.7412277196573
 23
411.7555691123013
 33
0.0
 14
580.6895603646681
 24
410.7555691123014
 34
0.0
 50
90.0
100
AcDbRotatedDimension
  0
DIMENSION
  5
5B5
330
6F
100
AcDbEntity
  8
DXF0
  6
Continuous
 62
     3
100
AcDbDimension
280
     0
  2
*D10
 10
582.7412277196573
 20
524.6542334479096
 30
0.0
 11
607.7412277198056
 21
525.1542334479096
 31
0.0
 71
     5
 42
-1.0
 73
     0
 74
     0
 75
     0
  3
Standard
100
AcDbAlignedDimension
 13
632.7412277199536
 23
510.7555691123008
 33
0.0
 14
582.7412277196573
 24
510.7555691123013
 34
0.0
100
AcDbRotatedDimension
  0
DIMENSION
  5
5B6
330
6F
100
AcDbEntity
  8
DXF0
  6
Continuous
 62
     3
100
AcDbDimension
280
     0
  2
*D11
 10
582.7412277196573
 20
353.2016224205654
 30
0.0
 11
595.2412277193302
 21
353.7016224205653
 31
0.0
 71
     5
 42
-1.0
 73
     0
 74
     0
 75
     0
  3
Standard
100
AcDbAlignedDimension
 13
607.7412277190031
 23
349.5441334540211
 33
0.0
 14
582.7412277196573
 24
411.7555691123013
 34
0.0
100
AcDbRotatedDimension
  0
DIMENSION
  5
5B7
330
6F
100
AcDbEntity
  8
DXF0
  6
Continuous
 62
     3
100
AcDbDimension
280
     0
  2
*D12
 10
607.7412277190031
 20
353.2016224205654
 30
0.0
 11
620.2412277194785
 21
353.7016224205653
 31
0.0
 71
     5
 42
-1.0
 73
     0
 74
     0
 75
     0
  3
Standard
100
AcDbAlignedDimension
 13
632.7412277199536
 23
411.7555691123222
 33
0.0
 14
607.7412277190031
 24
349.5441334540211
 34
0.0
100
AcDbRotatedDimension
  0
DIMENSION
  5
5B8
330
6F
100
AcDbEntity
  8
DXF0
  6
Continuous
 62
     3
100
AcDbDimension
280
     0
  2
*D13
 10
196.2238770765319
 20
258.3364496096258
 30
0.0
 11
195.723877076532
 21
208.3364496096259
 31
0.0
 71
     5
 42
-1.0
 73
     0
 74
     0
 75
     0
  3
Standard
100
AcDbAlignedDimension
 13
132.4720475945935
 23
158.336449609626
 33
0.0
 14
217.727372124087
 24
258.3364496096258
 34
0.0
 50
90.0
100
AcDbRotatedDimension
  0
DIMENSION
  5
5B9
330
6F
100
AcDbEntity
  8
DXF0
  6
Continuous
 62
     3
100
AcDbDimension
280
     0
  2
*D14
 10
206.8872204361401
 20
158.336449609626
 30
0.0
 11
206.3872204361401
 21
163.3364496096314
 31
0.0
 71
     5
 42
-1.0
 73
     0
 74
     0
 75
     0
  3
Standard
100
AcDbAlignedDimension
 13
213.3387701986437
 23
168.3364496096368
 33
0.0
 14
132.4720475945935
 24
158.336449609626
 34
0.0
 50
90.0
100
AcDbRotatedDimension
  0
DIMENSION
  5
5BA
330
6F
100
AcDbEntity
  8
DXF0
  6
Continuous
 62
     3
100
AcDbDimension
280
     0
  2
*D15
 10
213.9056837349318
 20
158.336449609626
 30
0.0
 11
213.4056837349318
 21
161.3428262946444
 31
0.0
 71
     5
 42
-1.0
 73
     0
 74
     0
 75
     0
  3
Standard
100
AcDbAlignedDimension
 13
217.7273721240869
 23
159.3364496096259
 33
0.0
 14
132.4720475945935
 24
158.336449609626
 34
0.0
 50
90.0
100
AcDbRotatedDimension
  0
DIMENSION
  5
5BB
330
6F
100
AcDbEntity
  8
DXF0
  6
Continuous
 62
     3
100
AcDbDimension
280
     0
  2
*D16
 10
217.7273721240869
 20
269.0397750432966
 30
0.0
 11
242.7273721242352
 21
269.5397750432966
 31
0.0
 71
     5
 42
-1.0
 73
     0
 74
     0
 75
     0
  3
Standard
100
AcDbAlignedDimension
 13
267.7273721243835
 23
258.3364496096254
 33
0.0
 14
217.7273721240869
 24
258.3364496096259
 34
0.0
100
AcDbRotatedDimension
  0
DIMENSION
  5
5BC
330
6F
100
AcDbEntity
  8
DXF0
  6
Continuous
 62
     3
100
AcDbDimension
280
     0
  2
*D17
 10
217.7273721240869
 20
85.68302340851698
 30
0.0
 11
230.2273721237598
 21
86.18302340851696
 31
0.0
 71
     5
 42
-1.0
 73
     0
 74
     0
 75
     0
  3
Standard
100
AcDbAlignedDimension
 13
242.7273721234328
 23
111.766394050431
 33
0.0
 14
217.7273721240869
 24
159.3364496096259
 34
0.0
100
AcDbRotatedDimension
  0
DIMENSION
  5
5BD
330
6F
100
AcDbEntity
  8
DXF0
  6
Continuous
 62
     3
100
AcDbDimension
280
     0
  2
*D18
 10
242.7273721234328
 20
85.68302340851698
 30
0.0
 11
255.2273721239081
 21
86.18302340851696
 31
0.0
 71
     5
 42
-1.0
 73
     0
 74
     0
 75
     0
  3
Standard
100
AcDbAlignedDimension
 13
267.7273721243834
 23
159.3364496096468
 33
0.0
 14
242.7273721234328
 24
111.766394050431
 34
0.0
100
AcDbRotatedDimension
  0
DIMENSION
  5
5BE
330
6F
100
AcDbEntity
  8
DXF0
  6
Continuous
 62
     3
100
AcDbDimension
280
     0
  2
*D19
 10
557.4407471900565
 20
156.8364496096263
 30
0.0
 11
556.9407471900565
 21
206.8364496096262
 31
0.0
 71
     5
 42
-1.0
 73
     0
 74
     0
 75
     0
  3
Standard
100
AcDbAlignedDimension
 13
582.7412277196573
 23
256.8364496096261
 33
0.0
 14
518.9620800525037
 24
156.8364496096263
 34
0.0
 50
90.0
100
AcDbRotatedDimension
  0
DIMENSION
  5
5BF
330
6F
100
AcDbEntity
  8
DXF0
  6
Continuous
 62
     3
100
AcDbDimension
280
     0
  2
*D20
 10
570.3210733871642
 20
156.8364496096263
 30
0.0
 11
569.8210733871642
 21
161.8364496096317
 31
0.0
 71
     5
 42
-1.0
 73
     0
 74
     0
 75
     0
  3
Standard
100
AcDbAlignedDimension
 13
578.3526257942123
 23
166.836449609637
 33
0.0
 14
518.9620800525037
 24
156.8364496096263
 34
0.0
 50
90.0
100
AcDbRotatedDimension
  0
DIMENSION
  5
5C0
330
6F
100
AcDbEntity
  8
DXF0
  6
Continuous
 62
     3
100
AcDbDimension
280
     0
  2
*D21
 10
578.0386902659667
 20
156.8364496096263
 30
0.0
 11
577.5386902659667
 21
160.0497971769452
 31
0.0
 71
     5
 42
-1.0
 73
     0
 74
     0
 75
     0
  3
Standard
100
AcDbAlignedDimension
 13
582.7412277196573
 23
157.8364496096262
 33
0.0
 14
518.9620800525037
 24
156.8364496096263
 34
0.0
 50
90.0
100
AcDbRotatedDimension
  0
DIMENSION
  5
5C1
330
6F
100
AcDbEntity
  8
DXF0
  6
Continuous
 62
     3
100
AcDbDimension
280
     0
  2
*D22
 10
582.7412277196573
 20
270.4484251036254
 30
0.0
 11
607.7412277198056
 21
270.9484251036254
 31
0.0
 71
     5
 42
-1.0
 73
     0
 74
     0
 75
     0
  3
Standard
100
AcDbAlignedDimension
 13
632.7412277199536
 23
256.8364496096257
 33
0.0
 14
582.7412277196573
 24
256.8364496096262
 34
0.0
100
AcDbRotatedDimension
  0
DIMENSION
  5
5C2
330
6F
100
AcDbEntity
  8
DXF0
  6
Continuous
 62
     3
100
AcDbDimension
280
     0
  2
*D23
 10
582.7412277196573
 20
113.3041648356053
 30
0.0
 11
595.2412277193302
 21
113.8041648356053
 31
0.0
 71
     5
 42
-1.0
 73
     0
 74
     0
 75
     0
  3
Standard
100
AcDbAlignedDimension
 13
607.7412277190031
 23
114.6259139050352
 33
0.0
 14
582.7412277196573
 24
157.8364496096262
 34
0.0
100
AcDbRotatedDimension
  0
DIMENSION
  5
5C3
330
6F
100
AcDbEntity
  8
DXF0
  6
Continuous
 62
     3
100
AcDbDimension
280
     0
  2
*D24
 10
607.7412277190031
 20
113.3041648356053
 30
0.0
 11
620.2412277194785
 21
113.8041648356053
 31
0.0
 71
     5
 42
-1.0
 73
     0
 74
     0
 75
     0
  3
Standard
100
AcDbAlignedDimension
 13
632.7412277199536
 23
157.8364496096471
 33
0.0
 14
607.7412277190031
 24
114.6259139050352
 34
0.0
100
AcDbRotatedDimension
  0
LINE
  5
5C4
330
6F
100
AcDbEntity
  8
COMMENT
  6
Continuous
100
AcDbLine
 10
242.7273721234328
 20
418.1555691123023
 30
0.0
 11
278.5878708238574
 21
444.3861132526421
 31
0.0
  0
LINE
  5
5C5
330
6F
100
AcDbEntity
  8
COMMENT
  6
Continuous
100
AcDbLine
 10
243.9873942923439
 20
419.8206048964411
 30
0.0
 11
242.7273721234328
 21
418.1555691123021
 31
0.0
  0
LINE
  5
5C6
330
6F
100
AcDbEntity
  8
COMMENT
  6
Continuous
100
AcDbLine
 10
242.7273721234328
 20
418.1555691123021
 30
0.0
 11
244.6958507113208
 21
418.8520546309145
 31
0.0
  0
LINE
  5
5C7
330
6F
100
AcDbEntity
  8
COMMENT
  6
Continuous
100
AcDbLine
 10
278.5878708238574
 20
444.3861132526421
 30
0.0
 11
331.8778694648715
 21
444.3861132526421
 31
0.0
  0
TEXT
  5
5C8
330
6F
100
AcDbEntity
  8
COMMENT
  6
Continuous
100
AcDbText
 10
281.0778708238574
 20
444.8861132526421
 30
0.0
 40
4.0
  1
アンカープラグ%%c8×40
  7
KNJYOKO
100
AcDbText
  0
TEXT
  5
5C9
330
6F
100
AcDbEntity
  8
COMMENT
  6
Continuous
100
AcDbText
 10
281.0778708238574
 20
439.8861132526421
 30
0.0
 40
4.0
  1
AP-840-D30-50
100
AcDbText
  0
LINE
  5
5CA
330
6F
100
AcDbEntity
  8
COMMENT
  6
Continuous
100
AcDbLine
 10
607.7412277190031
 20
418.1555691123021
 30
0.0
 11
643.5199196779464
 21
445.8238795565534
 31
0.0
  0
LINE
  5
5CB
330
6F
100
AcDbEntity
  8
COMMENT
  6
Continuous
100
AcDbLine
 10
608.9563012648136
 20
419.8536846286561
 30
0.0
 11
607.7412277190031
 21
418.1555691123021
 31
0.0
  0
LINE
  5
5CC
330
6F
100
AcDbEntity
  8
COMMENT
  6
Continuous
100
AcDbLine
 10
607.7412277190031
 20
418.1555691123021
 30
0.0
 11
609.690389420245
 21
418.9044140168197
 31
0.0
  0
LINE
  5
5CD
330
6F
100
AcDbEntity
  8
COMMENT
  6
Continuous
100
AcDbLine
 10
643.5199196779464
 20
445.8238795565534
 30
0.0
 11
695.9099183428024
 21
445.8238795565534
 31
0.0
  0
TEXT
  5
5CE
330
6F
100
AcDbEntity
  8
COMMENT
  6
Continuous
100
AcDbText
 10
646.0099196779464
 20
446.3238795565534
 30
0.0
 40
4.0
  1
ALCアンカーM6めねじ
  7
KNJYOKO
100
AcDbText
  0
TEXT
  5
5CF
330
6F
100
AcDbEntity
  8
COMMENT
  6
Continuous
100
AcDbText
 10
646.0099196779464
 20
441.3238795565534
 30
0.0
 40
4.0
  1
AK-AL6M-D30-50
100
AcDbText
  0
LINE
  5
5D0
330
6F
100
AcDbEntity
  8
COMMENT
  6
Continuous
100
AcDbLine
 10
617.0612003824359
 20
414.2555691123014
 30
0.0
 11
646.3281147231405
 21
429.6648643629863
 31
0.0
  0
LINE
  5
5D1
330
6F
100
AcDbEntity
  8
COMMENT
  6
Continuous
100
AcDbLine
 10
618.5513676335004
 20
415.7182384503498
 30
0.0
 11
617.0612003824361
 21
414.2555691123014
 31
0.0
  0
LINE
  5
5D2
330
6F
100
AcDbEntity
  8
COMMENT
  6
Continuous
100
AcDbLine
 10
617.061200382436
 20
414.2555691123014
 30
0.0
 11
619.110424062119
 21
414.6564211289327
 31
0.0
  0
LINE
  5
5D3
330
6F
100
AcDbEntity
  8
COMMENT
  6
Continuous
100
AcDbLine
 10
646.3281147231406
 20
429.6648643629863
 30
0.0
 11
684.3181137694662
 21
429.6648643629863
 31
0.0
  0
TEXT
  5
5D4
330
6F
100
AcDbEntity
  8
COMMENT
  6
Continuous
100
AcDbText
 10
648.8181147231406
 20
430.1648643629863
 30
0.0
 40
4.0
  1
平座金　
  7
KNJYOKO
100
AcDbText
  0
TEXT
  5
5D5
330
6F
100
AcDbEntity
  8
COMMENT
  6
Continuous
100
AcDbText
 10
648.8181147231406
 20
425.1648643629863
 30
0.0
 40
4.0
  1
D30mm t2mm
100
AcDbText
  0
LINE
  5
5D6
330
6F
100
AcDbEntity
  8
COMMENT
  6
Continuous
100
AcDbLine
 10
593.1750480483379
 20
410.7555691123013
 30
0.0
 11
576.9733739293315
 21
394.8595286624496
 31
0.0
  0
LINE
  5
5D7
330
6F
100
AcDbEntity
  8
COMMENT
  6
Continuous
100
AcDbLine
 10
592.1676383003091
 20
408.9266006521616
 30
0.0
 11
593.1750480483382
 21
410.7555691123015
 31
0.0
  0
LINE
  5
5D8
330
6F
100
AcDbEntity
  8
COMMENT
  6
Continuous
100
AcDbLine
 10
593.175048048338
 20
410.7555691123013
 30
0.0
 11
591.3272278923983
 21
409.7831696573892
 31
0.0
  0
LINE
  5
5D9
330
6F
100
AcDbEntity
  8
COMMENT
  6
Continuous
100
AcDbLine
 10
576.9733739293315
 20
394.8595286624496
 30
0.0
 11
561.4833742869593
 21
394.8595286624496
 31
0.0
  0
TEXT
  5
5DA
330
6F
100
AcDbEntity
  8
COMMENT
  6
Continuous
100
AcDbText
 10
561.4833742869593
 20
395.3595286624496
 30
0.0
 40
4.0
  1
受け材
  7
KNJYOKO
100
AcDbText
  0
LINE
  5
5DB
330
6F
100
AcDbEntity
  8
COMMENT
  6
Continuous
100
AcDbLine
 10
607.7412277190031
 20
162.7364496094666
 30
0.0
 11
643.5199196779465
 21
190.4047600537179
 31
0.0
  0
LINE
  5
5DC
330
6F
100
AcDbEntity
  8
COMMENT
  6
Continuous
100
AcDbLine
 10
608.9563012648136
 20
164.4345651258205
 30
0.0
 11
607.7412277190031
 21
162.7364496094666
 31
0.0
  0
LINE
  5
5DD
330
6F
100
AcDbEntity
  8
COMMENT
  6
Continuous
100
AcDbLine
 10
607.7412277190031
 20
162.7364496094666
 30
0.0
 11
609.690389420245
 21
163.4852945139841
 31
0.0
  0
LINE
  5
5DE
330
6F
100
AcDbEntity
  8
COMMENT
  6
Continuous
100
AcDbLine
 10
643.5199196779464
 20
190.404760053718
 30
0.0
 11
703.1099181520676
 21
190.404760053718
 31
0.0
  0
TEXT
  5
5DF
330
6F
100
AcDbEntity
  8
COMMENT
  6
Continuous
100
AcDbText
 10
646.0099196779464
 20
190.904760053718
 30
0.0
 40
4.0
  1
ECPアンカー6×33
  7
KNJYOKO
100
AcDbText
  0
TEXT
  5
5E0
330
6F
100
AcDbEntity
  8
COMMENT
  6
Continuous
100
AcDbText
 10
646.0099196779464
 20
185.904760053718
 30
0.0
 40
4.0
  1
AK-ECP633-D30-50
100
AcDbText
  0
LINE
  5
5E1
330
6F
100
AcDbEntity
  8
COMMENT
  6
Continuous
100
AcDbLine
 10
617.0612003824359
 20
160.3364496096262
 30
0.0
 11
646.3281147231405
 21
175.745744860311
 31
0.0
  0
LINE
  5
5E2
330
6F
100
AcDbEntity
  8
COMMENT
  6
Continuous
100
AcDbLine
 10
618.5513676335002
 20
161.7991189476744
 30
0.0
 11
617.0612003824362
 21
160.3364496096263
 31
0.0
  0
LINE
  5
5E3
330
6F
100
AcDbEntity
  8
COMMENT
  6
Continuous
100
AcDbLine
 10
617.0612003824361
 20
160.3364496096263
 30
0.0
 11
619.1104240621191
 21
160.7373016262576
 31
0.0
  0
LINE
  5
5E4
330
6F
100
AcDbEntity
  8
COMMENT
  6
Continuous
100
AcDbLine
 10
646.3281147231406
 20
175.745744860311
 30
0.0
 11
684.3181137694662
 21
175.745744860311
 31
0.0
  0
TEXT
  5
5E5
330
6F
100
AcDbEntity
  8
COMMENT
  6
Continuous
100
AcDbText
 10
648.8181147231406
 20
176.2457448603111
 30
0.0
 40
4.0
  1
平座金　
  7
KNJYOKO
100
AcDbText
  0
TEXT
  5
5E6
330
6F
100
AcDbEntity
  8
COMMENT
  6
Continuous
100
AcDbText
 10
648.8181147231406
 20
171.245744860311
 30
0.0
 40
4.0
  1
D30mm t2mm
100
AcDbText
  0
LINE
  5
5E7
330
6F
100
AcDbEntity
  8
COMMENT
  6
Continuous
100
AcDbLine
 10
580.2412277190022
 20
167.3346478573747
 30
0.0
 11
547.0944833930705
 21
183.4000139886631
 31
0.0
  0
LINE
  5
5E8
330
6F
100
AcDbEntity
  8
COMMENT
  6
Continuous
100
AcDbLine
 10
578.1797884194258
 20
167.6670151884599
 30
0.0
 11
580.2412277190022
 21
167.3346478573746
 31
0.0
  0
LINE
  5
5E9
330
6F
100
AcDbEntity
  8
COMMENT
  6
Continuous
100
AcDbLine
 10
580.2412277190022
 20
167.3346478573747
 30
0.0
 11
578.7031641132285
 21
168.7468661029744
 31
0.0
  0
LINE
  5
5EA
330
6F
100
AcDbEntity
  8
COMMENT
  6
Continuous
100
AcDbLine
 10
547.0944833930705
 20
183.4000139886631
 30
0.0
 11
489.3044848712657
 21
183.4000139886631
 31
0.0
  0
TEXT
  5
5EB
330
6F
100
AcDbEntity
  8
COMMENT
  6
Continuous
100
AcDbText
 10
489.3044848712657
 20
183.9000139886632
 30
0.0
 40
4.0
  1
脱落防止ねじ(両端2ヶ所)
  7
KNJYOKO
100
AcDbText
  0
TEXT
  5
5EC
330
6F
100
AcDbEntity
  8
COMMENT
  6
Continuous
100
AcDbText
 10
489.3044848712657
 20
178.9000139886631
 30
0.0
 40
4.0
  1
トラス頭ドリルねじ4×13
  7
KNJYOKO
100
AcDbText
  0
TEXT
  5
5ED
330
6F
100
AcDbEntity
  8
COMMENT
  6
Continuous
100
AcDbText
 10
489.3044848712657
 20
173.9000139886631
 30
0.0
 40
4.0
  1
TBT-413-100
100
AcDbText
  0
LINE
  5
5EE
330
6F
100
AcDbEntity
  8
COMMENT
  6
Continuous
100
AcDbLine
 10
598.1750480483379
 20
156.8364496096259
 30
0.0
 11
582.0624441692466
 21
147.8859808470895
 31
0.0
  0
LINE
  5
5EF
330
6F
100
AcDbEntity
  8
COMMENT
  6
Continuous
100
AcDbLine
 10
582.0624441692465
 20
147.8859808470895
 30
0.0
 11
566.5724445268743
 21
147.8859808470895
 31
0.0
  0
TEXT
  5
5F0
330
6F
100
AcDbEntity
  8
COMMENT
  6
Continuous
100
AcDbText
 10
566.5724445268743
 20
148.3859808470895
 30
0.0
 40
4.0
  1
受け材
  7
KNJYOKO
100
AcDbText
  0
LINE
  5
5F1
330
6F
100
AcDbEntity
  8
COMMENT
  6
Continuous
100
AcDbLine
 10
242.7273721234328
 20
164.2364496094663
 30
0.0
 11
278.506064082376
 21
191.9047600537177
 31
0.0
  0
LINE
  5
5F2
330
6F
100
AcDbEntity
  8
COMMENT
  6
Continuous
100
AcDbLine
 10
243.9424456692432
 20
165.9345651258201
 30
0.0
 11
242.7273721234327
 21
164.2364496094661
 31
0.0
  0
LINE
  5
5F3
330
6F
100
AcDbEntity
  8
COMMENT
  6
Continuous
100
AcDbLine
 10
242.7273721234328
 20
164.2364496094663
 30
0.0
 11
244.6765338246747
 21
164.9852945139838
 31
0.0
  0
LINE
  5
5F4
330
6F
100
AcDbEntity
  8
COMMENT
  6
Continuous
100
AcDbLine
 10
278.5060640823759
 20
191.9047600537176
 30
0.0
 11
345.2960623657622
 21
191.9047600537176
 31
0.0
  0
TEXT
  5
5F5
330
6F
100
AcDbEntity
  8
COMMENT
  6
Continuous
100
AcDbText
 10
280.9960640823759
 20
192.4047600537176
 30
0.0
 40
4.0
  1
シンワッシャー頭ドリルねじ4×40
  7
KNJYOKO
100
AcDbText
  0
TEXT
  5
5F6
330
6F
100
AcDbEntity
  8
COMMENT
  6
Continuous
100
AcDbText
 10
280.9960640823759
 20
187.4047600537176
 30
0.0
 40
4.0
  1
TBS-440-D30-50
100
AcDbText
  0
LINE
  5
5F7
330
6F
100
AcDbEntity
  8
COMMENT
  6
Continuous
100
AcDbLine
 10
252.0473447868657
 20
161.836449609626
 30
0.0
 11
281.3142591275703
 21
177.2457448603108
 31
0.0
  0
LINE
  5
5F8
330
6F
100
AcDbEntity
  8
COMMENT
  6
Continuous
100
AcDbLine
 10
253.53751203793
 20
163.2991189476741
 30
0.0
 11
252.0473447868658
 21
161.836449609626
 31
0.0
  0
LINE
  5
5F9
330
6F
100
AcDbEntity
  8
COMMENT
  6
Continuous
100
AcDbLine
 10
252.0473447868658
 20
161.836449609626
 30
0.0
 11
254.0965684665487
 21
162.2373016262572
 31
0.0
  0
LINE
  5
5FA
330
6F
100
AcDbEntity
  8
COMMENT
  6
Continuous
100
AcDbLine
 10
281.3142591275703
 20
177.2457448603108
 30
0.0
 11
319.304258173896
 21
177.2457448603108
 31
0.0
  0
TEXT
  5
5FB
330
6F
100
AcDbEntity
  8
COMMENT
  6
Continuous
100
AcDbText
 10
283.8042591275701
 20
177.7457448603108
 30
0.0
 40
4.0
  1
平座金　
  7
KNJYOKO
100
AcDbText
  0
TEXT
  5
5FC
330
6F
100
AcDbEntity
  8
COMMENT
  6
Continuous
100
AcDbText
 10
283.8042591275701
 20
172.7457448603108
 30
0.0
 40
4.0
  1
D30mm t2mm
100
AcDbText
  0
LINE
  5
5FD
330
6F
100
AcDbEntity
  8
COMMENT
  6
Continuous
100
AcDbLine
 10
223.1611924527676
 20
158.3364496096256
 30
0.0
 11
209.7929092491387
 21
136.1553105691824
 31
0.0
  0
LINE
  5
5FE
330
6F
100
AcDbEntity
  8
COMMENT
  6
Continuous
100
AcDbLine
 10
222.642704261856
 20
156.3137855187556
 30
0.0
 11
223.1611924527676
 21
158.3364496096256
 31
0.0
  0
LINE
  5
5FF
330
6F
100
AcDbEntity
  8
COMMENT
  6
Continuous
100
AcDbLine
 10
223.1611924527676
 20
158.3364496096256
 30
0.0
 11
221.6149330567057
 21
156.9332098194614
 31
0.0
  0
LINE
  5
600
330
6F
100
AcDbEntity
  8
COMMENT
  6
Continuous
100
AcDbLine
 10
209.7929092491388
 20
136.1553105691824
 30
0.0
 11
194.3029096067665
 21
136.1553105691824
 31
0.0
  0
TEXT
  5
601
330
6F
100
AcDbEntity
  8
COMMENT
  6
Continuous
100
AcDbText
 10
194.3029096067665
 20
136.6553105691824
 30
0.0
 40
4.0
  1
受け材
  7
KNJYOKO
100
AcDbText
  0
LINE
  5
602
330
6F
100
AcDbEntity
  8
COMMENT
  6
Continuous
100
AcDbLine
 10
227.7273721234328
 20
111.9183403354645
 30
0.0
 11
202.2584974083888
 21
97.00235121935929
 31
0.0
  0
LINE
  5
603
330
6F
100
AcDbEntity
  8
COMMENT
  6
Continuous
100
AcDbLine
 10
226.3047804902857
 20
110.3898662356152
 30
0.0
 11
227.7273721234328
 21
111.9183403354645
 31
0.0
  0
LINE
  5
604
330
6F
100
AcDbEntity
  8
COMMENT
  6
Continuous
100
AcDbLine
 10
227.7273721234328
 20
111.9183403354645
 30
0.0
 11
225.6983419786372
 21
111.4253528101446
 31
0.0
  0
LINE
  5
605
330
6F
100
AcDbEntity
  8
COMMENT
  6
Continuous
100
AcDbLine
 10
202.2584974083888
 20
97.00235121935929
 30
0.0
 11
167.0574965343463
 21
97.00235121935929
 31
0.0
  0
TEXT
  5
606
330
6F
100
AcDbEntity
  8
COMMENT
  6
Continuous
100
AcDbText
 10
167.0574965343463
 20
97.50235121935929
 30
0.0
 40
3.099999904632568
  1
St t=1.6mm以上
  7
KNJYOKO
100
AcDbText
  0
LINE
  5
607
330
6F
100
AcDbEntity
  8
COMMENT
  6
Continuous
100
AcDbLine
 10
580.438452236528
 20
422.5021634625367
 30
0.0
 11
547.2917079105964
 21
438.5675295938253
 31
0.0
  0
LINE
  5
608
330
6F
100
AcDbEntity
  8
COMMENT
  6
Continuous
100
AcDbLine
 10
578.3770129369517
 20
422.8345307936219
 30
0.0
 11
580.4384522365283
 21
422.5021634625366
 31
0.0
  0
LINE
  5
609
330
6F
100
AcDbEntity
  8
COMMENT
  6
Continuous
100
AcDbLine
 10
580.4384522365284
 20
422.5021634625368
 30
0.0
 11
578.9003886307548
 21
423.9143817081365
 31
0.0
  0
LINE
  5
60A
330
6F
100
AcDbEntity
  8
COMMENT
  6
Continuous
100
AcDbLine
 10
547.2917079105964
 20
438.5675295938251
 30
0.0
 11
489.5017093887916
 21
438.5675295938251
 31
0.0
  0
TEXT
  5
60B
330
6F
100
AcDbEntity
  8
COMMENT
  6
Continuous
100
AcDbText
 10
489.5017093887916
 20
439.0675295938251
 30
0.0
 40
4.0
  1
脱落防止ねじ(両端2ヶ所)
  7
KNJYOKO
100
AcDbText
  0
TEXT
  5
60C
330
6F
100
AcDbEntity
  8
COMMENT
  6
Continuous
100
AcDbText
 10
489.5017093887916
 20
434.0675295938251
 30
0.0
 40
4.0
  1
トラス頭ドリルねじ4×13
  7
KNJYOKO
100
AcDbText
  0
TEXT
  5
60D
330
6F
100
AcDbEntity
  8
COMMENT
  6
Continuous
100
AcDbText
 10
489.5017093887916
 20
429.0675295938251
 30
0.0
 40
4.0
  1
TBT-413-100
100
AcDbText
  0
LINE
  5
60E
330
6F
100
AcDbEntity
  8
COMMENT
  6
Continuous
100
AcDbLine
 10
215.2273721226061
 20
168.8346478573745
 30
0.0
 11
182.0806277966745
 21
184.9000139886631
 31
0.0
  0
LINE
  5
60F
330
6F
100
AcDbEntity
  8
COMMENT
  6
Continuous
100
AcDbLine
 10
213.1659328230299
 20
169.1670151884598
 30
0.0
 11
215.2273721226061
 21
168.8346478573745
 31
0.0
  0
LINE
  5
610
330
6F
100
AcDbEntity
  8
COMMENT
  6
Continuous
100
AcDbLine
 10
215.2273721226061
 20
168.8346478573745
 30
0.0
 11
213.6893085168324
 21
170.2468661029742
 31
0.0
  0
LINE
  5
611
330
6F
100
AcDbEntity
  8
COMMENT
  6
Continuous
100
AcDbLine
 10
182.0806277966744
 20
184.900013988663
 30
0.0
 11
124.2906292748696
 21
184.900013988663
 31
0.0
  0
TEXT
  5
612
330
6F
100
AcDbEntity
  8
COMMENT
  6
Continuous
100
AcDbText
 10
124.2906292748696
 20
185.4000139886629
 30
0.0
 40
4.0
  1
脱落防止ねじ(両端2ヶ所)
  7
KNJYOKO
100
AcDbText
  0
TEXT
  5
613
330
6F
100
AcDbEntity
  8
COMMENT
  6
Continuous
100
AcDbText
 10
124.2906292748696
 20
180.400013988663
 30
0.0
 40
4.0
  1
トラス頭ドリルねじ4×13
  7
KNJYOKO
100
AcDbText
  0
TEXT
  5
614
330
6F
100
AcDbEntity
  8
COMMENT
  6
Continuous
100
AcDbText
 10
124.2906292748696
 20
175.400013988663
 30
0.0
 40
4.0
  1
TBT-413-100
100
AcDbText
  0
LINE
  5
615
330
6F
100
AcDbEntity
  8
COMMENT
  6
Continuous
100
AcDbLine
 10
215.2273721217753
 20
421.2537673600501
 30
0.0
 11
182.0806277958437
 21
437.3191334913387
 31
0.0
  0
LINE
  5
616
330
6F
100
AcDbEntity
  8
COMMENT
  6
Continuous
100
AcDbLine
 10
213.1659328221989
 20
421.5861346911353
 30
0.0
 11
215.2273721217751
 21
421.25376736005
 31
0.0
  0
LINE
  5
617
330
6F
100
AcDbEntity
  8
COMMENT
  6
Continuous
100
AcDbLine
 10
215.2273721217753
 20
421.2537673600501
 30
0.0
 11
213.6893085160016
 21
422.6659856056499
 31
0.0
  0
LINE
  5
618
330
6F
100
AcDbEntity
  8
COMMENT
  6
Continuous
100
AcDbLine
 10
182.0806277958437
 20
437.3191334913387
 30
0.0
 11
124.2906292740388
 21
437.3191334913387
 31
0.0
  0
TEXT
  5
619
330
6F
100
AcDbEntity
  8
COMMENT
  6
Continuous
100
AcDbText
 10
124.2906292740388
 20
437.8191334913387
 30
0.0
 40
4.0
  1
脱落防止ねじ(両端2ヶ所)
  7
KNJYOKO
100
AcDbText
  0
TEXT
  5
61A
330
6F
100
AcDbEntity
  8
COMMENT
  6
Continuous
100
AcDbText
 10
124.2906292740388
 20
432.8191334913388
 30
0.0
 40
4.0
  1
トラス頭ドリルねじ4×13
  7
KNJYOKO
100
AcDbText
  0
TEXT
  5
61B
330
6F
100
AcDbEntity
  8
COMMENT
  6
Continuous
100
AcDbText
 10
124.2906292740388
 20
427.8191334913388
 30
0.0
 40
4.0
  1
TBT-413-100
100
AcDbText
  0
LINE
  5
61C
330
6F
100
AcDbEntity
  8
COMMENT
  6
Continuous
100
AcDbLine
 10
632.7412277199536
 20
488.5761640514381
 30
0.0
 11
645.2490600621282
 21
495.6320697716291
 31
0.0
  0
LINE
  5
61D
330
6F
100
AcDbEntity
  8
COMMENT
  6
Continuous
100
AcDbLine
 10
634.188373177843
 20
490.0814115567743
 30
0.0
 11
632.7412277199536
 21
488.576164051438
 31
0.0
  0
LINE
  5
61E
330
6F
100
AcDbEntity
  8
COMMENT
  6
Continuous
100
AcDbLine
 10
632.7412277199536
 20
488.5761640514381
 30
0.0
 11
634.777971647339
 21
489.0362446996608
 31
0.0
  0
LINE
  5
61F
330
6F
100
AcDbEntity
  8
COMMENT
  6
Continuous
100
AcDbLine
 10
645.2490600621282
 20
495.6320697716291
 30
0.0
 11
679.6390592038213
 21
495.6320697716291
 31
0.0
  0
TEXT
  5
620
330
6F
100
AcDbEntity
  8
COMMENT
  6
Continuous
100
AcDbText
 10
647.7390600621283
 20
496.1320697716291
 30
0.0
 40
4.0
  1
アルミルーバー
  7
KNJYOKO
100
AcDbText
  0
TEXT
  5
621
330
6F
100
AcDbEntity
  8
COMMENT
  6
Continuous
100
AcDbText
 10
647.7390600621283
 20
491.132069771629
 30
0.0
 40
4.0
  1
CLKSW-5010
100
AcDbText
  0
LINE
  5
622
330
6F
100
AcDbEntity
  8
COMMENT
  6
Continuous
100
AcDbLine
 10
632.7412277199536
 20
234.6570445487279
 30
0.0
 11
645.2490600621283
 21
241.7129502689188
 31
0.0
  0
LINE
  5
623
330
6F
100
AcDbEntity
  8
COMMENT
  6
Continuous
100
AcDbLine
 10
634.188373177843
 20
236.162292054064
 30
0.0
 11
632.7412277199536
 21
234.6570445487278
 31
0.0
  0
LINE
  5
624
330
6F
100
AcDbEntity
  8
COMMENT
  6
Continuous
100
AcDbLine
 10
632.7412277199536
 20
234.6570445487278
 30
0.0
 11
634.7779716473391
 21
235.1171251969505
 31
0.0
  0
LINE
  5
625
330
6F
100
AcDbEntity
  8
COMMENT
  6
Continuous
100
AcDbLine
 10
645.2490600621283
 20
241.7129502689187
 30
0.0
 11
679.6390592038214
 21
241.7129502689187
 31
0.0
  0
TEXT
  5
626
330
6F
100
AcDbEntity
  8
COMMENT
  6
Continuous
100
AcDbText
 10
647.7390600621284
 20
242.2129502689187
 30
0.0
 40
4.0
  1
アルミルーバー
  7
KNJYOKO
100
AcDbText
  0
TEXT
  5
627
330
6F
100
AcDbEntity
  8
COMMENT
  6
Continuous
100
AcDbText
 10
647.7390600621284
 20
237.2129502689187
 30
0.0
 40
4.0
  1
CLKSW-5010
100
AcDbText
  0
LINE
  5
628
330
6F
100
AcDbEntity
  8
COMMENT
  6
Continuous
100
AcDbLine
 10
267.7273721243835
 20
236.1570445487671
 30
0.0
 11
280.235204466558
 21
243.2129502689581
 31
0.0
  0
LINE
  5
629
330
6F
100
AcDbEntity
  8
COMMENT
  6
Continuous
100
AcDbLine
 10
269.1745175822726
 20
237.6622920541035
 30
0.0
 11
267.7273721243835
 21
236.1570445487672
 31
0.0
  0
LINE
  5
62A
330
6F
100
AcDbEntity
  8
COMMENT
  6
Continuous
100
AcDbLine
 10
267.7273721243835
 20
236.1570445487671
 30
0.0
 11
269.7641160517688
 21
236.6171251969899
 31
0.0
  0
LINE
  5
62B
330
6F
100
AcDbEntity
  8
COMMENT
  6
Continuous
100
AcDbLine
 10
280.235204466558
 20
243.2129502689581
 30
0.0
 11
314.6252036082511
 21
243.2129502689581
 31
0.0
  0
TEXT
  5
62C
330
6F
100
AcDbEntity
  8
COMMENT
  6
Continuous
100
AcDbText
 10
282.725204466558
 20
243.7129502689581
 30
0.0
 40
4.0
  1
アルミルーバー
  7
KNJYOKO
100
AcDbText
  0
TEXT
  5
62D
330
6F
100
AcDbEntity
  8
COMMENT
  6
Continuous
100
AcDbText
 10
282.725204466558
 20
238.7129502689581
 30
0.0
 40
4.0
  1
CLKSW-5010
100
AcDbText
  0
LINE
  5
62E
330
6F
100
AcDbEntity
  8
COMMENT
  6
Continuous
100
AcDbLine
 10
267.7273721243834
 20
490.8848242401181
 30
0.0
 11
280.2352044665578
 21
497.940729960309
 31
0.0
  0
LINE
  5
62F
330
6F
100
AcDbEntity
  8
COMMENT
  6
Continuous
100
AcDbLine
 10
269.1745175822727
 20
492.3900717454546
 30
0.0
 11
267.7273721243836
 21
490.8848242401183
 31
0.0
  0
LINE
  5
630
330
6F
100
AcDbEntity
  8
COMMENT
  6
Continuous
100
AcDbLine
 10
267.7273721243835
 20
490.8848242401181
 30
0.0
 11
269.7641160517688
 21
491.3449048883409
 31
0.0
  0
LINE
  5
631
330
6F
100
AcDbEntity
  8
COMMENT
  6
Continuous
100
AcDbLine
 10
280.235204466558
 20
497.9407299603091
 30
0.0
 11
314.6252036082511
 21
497.9407299603091
 31
0.0
  0
TEXT
  5
632
330
6F
100
AcDbEntity
  8
COMMENT
  6
Continuous
100
AcDbText
 10
282.725204466558
 20
498.4407299603091
 30
0.0
 40
4.0
  1
アルミルーバー
  7
KNJYOKO
100
AcDbText
  0
TEXT
  5
633
330
6F
100
AcDbEntity
  8
COMMENT
  6
Continuous
100
AcDbText
 10
282.725204466558
 20
493.4407299603091
 30
0.0
 40
4.0
  1
CLKSW-5010
100
AcDbText
  0
LINE
  5
634
330
6F
100
AcDbEntity
  8
COMMENT
  6
Continuous
100
AcDbLine
 10
233.1611924527679
 20
410.7555691123013
 30
0.0
 11
216.9595183337613
 21
394.8595286624496
 31
0.0
  0
LINE
  5
635
330
6F
100
AcDbEntity
  8
COMMENT
  6
Continuous
100
AcDbLine
 10
232.1537827047387
 20
408.9266006521617
 30
0.0
 11
233.1611924527679
 21
410.7555691123014
 31
0.0
  0
LINE
  5
636
330
6F
100
AcDbEntity
  8
COMMENT
  6
Continuous
100
AcDbLine
 10
233.1611924527679
 20
410.7555691123014
 30
0.0
 11
231.3133722968282
 21
409.7831696573891
 31
0.0
  0
LINE
  5
637
330
6F
100
AcDbEntity
  8
COMMENT
  6
Continuous
100
AcDbLine
 10
216.9595183337613
 20
394.8595286624496
 30
0.0
 11
201.4695186913892
 21
394.8595286624496
 31
0.0
  0
TEXT
  5
638
330
6F
100
AcDbEntity
  8
COMMENT
  6
Continuous
100
AcDbText
 10
201.4695186913892
 20
395.3595286624496
 30
0.0
 40
4.0
  1
受け材
  7
KNJYOKO
100
AcDbText
  0
LINE
  5
639
330
6F
100
AcDbEntity
  8
COMMENT
  6
Continuous
100
AcDbLine
 10
252.0473447868658
 20
414.2555691123016
 30
0.0
 11
278.3819580462563
 21
429.6648643629863
 31
0.0
  0
LINE
  5
63A
330
6F
100
AcDbEntity
  8
COMMENT
  6
Continuous
100
AcDbLine
 10
253.4705293237201
 20
415.7834911661607
 30
0.0
 11
252.0473447868659
 21
414.2555691123017
 31
0.0
  0
LINE
  5
63B
330
6F
100
AcDbEntity
  8
COMMENT
  6
Continuous
100
AcDbLine
 10
252.0473447868658
 20
414.2555691123014
 30
0.0
 11
254.0765660461207
 21
414.7477693861721
 31
0.0
  0
LINE
  5
63C
330
6F
100
AcDbEntity
  8
COMMENT
  6
Continuous
100
AcDbLine
 10
278.3819580462563
 20
429.6648643629863
 30
0.0
 11
316.371957092582
 21
429.6648643629863
 31
0.0
  0
TEXT
  5
63D
330
6F
100
AcDbEntity
  8
COMMENT
  6
Continuous
100
AcDbText
 10
280.8719580462563
 20
430.1648643629863
 30
0.0
 40
4.0
  1
平座金　
  7
KNJYOKO
100
AcDbText
  0
TEXT
  5
63E
330
6F
100
AcDbEntity
  8
COMMENT
  6
Continuous
100
AcDbText
 10
280.8719580462563
 20
425.1648643629863
 30
0.0
 40
4.0
  1
D30mm t2mm
100
AcDbText
  0
ENDSEC
  0
SECTION
  2
OBJECTS
  0
DICTIONARY
  5
C
330
0
100
AcDbDictionary
281
     1
  3
ACAD_CIP_PREVIOUS_PRODUCT_INFO
350
642
  3
ACAD_COLOR
350
62
  3
ACAD_DETAILVIEWSTYLE
350
69
  3
ACAD_GROUP
350
D
  3
ACAD_LAYOUT
350
61
  3
ACAD_MATERIAL
350
10
  3
ACAD_MLEADERSTYLE
350
65
  3
ACAD_MLINESTYLE
350
5E
  3
ACAD_PLOTSETTINGS
350
60
  3
ACAD_PLOTSTYLENAME
350
E
  3
ACAD_SCALELIST
350
42
  3
ACAD_SECTIONVIEWSTYLE
350
67
  3
ACAD_TABLESTYLE
350
63
  3
ACAD_VISUALSTYLE
350
29
  3
ACDB_RECOMPOSE_DATA
350
66E
  3
AcDbVariableDictionary
350
661
  0
DICTIONARY
  5
64B
330
54
100
AcDbDictionary
280
     1
281
     1
  3
ADSK_XREC_LAYER_RECONCILED
360
64C
  0
DICTIONARY
  5
64D
330
76
100
AcDbDictionary
280
     1
281
     1
  3
ADSK_XREC_LAYER_RECONCILED
360
64E
  0
DICTIONARY
  5
64F
330
77
100
AcDbDictionary
280
     1
281
     1
  3
ADSK_XREC_LAYER_RECONCILED
360
650
  0
DICTIONARY
  5
651
330
78
100
AcDbDictionary
280
     1
281
     1
  3
ADSK_XREC_LAYER_RECONCILED
360
652
  0
DICTIONARY
  5
653
330
79
100
AcDbDictionary
280
     1
281
     1
  3
ADSK_XREC_LAYER_RECONCILED
360
654
  0
DICTIONARY
  5
655
330
7A
100
AcDbDictionary
280
     1
281
     1
  3
ADSK_XREC_LAYER_RECONCILED
360
656
  0
DICTIONARY
  5
657
330
7B
100
AcDbDictionary
280
     1
281
     1
  3
ADSK_XREC_LAYER_RECONCILED
360
658
  0
DICTIONARY
  5
659
330
7C
100
AcDbDictionary
280
     1
281
     1
  3
ADSK_XREC_LAYER_RECONCILED
360
65A
  0
DICTIONARY
  5
65B
330
7D
100
AcDbDictionary
280
     1
281
     1
  3
ADSK_XREC_LAYER_RECONCILED
360
65C
  0
DICTIONARY
  5
65D
330
7E
100
AcDbDictionary
280
     1
281
     1
  3
ADSK_XREC_LAYER_RECONCILED
360
65E
  0
DICTIONARY
  5
65F
330
7F
100
AcDbDictionary
280
     1
281
     1
  3
ADSK_XREC_LAYER_RECONCILED
360
660
  0
XRECORD
  5
642
102
{ACAD_REACTORS
330
C
102
}
330
C
100
AcDbXrecord
280
     1
300
ACD
300
2022
300

  0
DICTIONARY
  5
62
102
{ACAD_REACTORS
330
C
102
}
330
C
100
AcDbDictionary
281
     1
  0
DICTIONARY
  5
69
102
{ACAD_REACTORS
330
C
102
}
330
C
100
AcDbDictionary
281
     1
  3
Imperial24
350
6A
  3
Metric50
350
640
  0
DICTIONARY
  5
D
102
{ACAD_REACTORS
330
C
102
}
330
C
100
AcDbDictionary
281
     1
  0
DICTIONARY
  5
61
102
{ACAD_REACTORS
330
C
102
}
330
C
100
AcDbDictionary
281
     1
  3
Model
350
72
  3
レイアウト1
350
6E
  0
DICTIONARY
  5
10
102
{ACAD_REACTORS
330
C
102
}
330
C
100
AcDbDictionary
281
     1
  3
ByBlock
350
19
  3
ByLayer
350
11
  3
Global
350
21
  0
DICTIONARY
  5
65
102
{ACAD_REACTORS
330
C
102
}
330
C
100
AcDbDictionary
281
     1
  3
Standard
350
66
  0
DICTIONARY
  5
5E
102
{ACAD_REACTORS
330
C
102
}
330
C
100
AcDbDictionary
281
     1
  3
Standard
350
5F
  0
DICTIONARY
  5
60
102
{ACAD_REACTORS
330
C
102
}
330
C
100
AcDbDictionary
281
     1
  0
ACDBDICTIONARYWDFLT
  5
E
102
{ACAD_REACTORS
330
C
102
}
330
C
100
AcDbDictionary
281
     1
  3
Normal
350
F
100
AcDbDictionaryWithDefault
340
F
  0
DICTIONARY
  5
42
102
{ACAD_REACTORS
330
C
102
}
330
C
100
AcDbDictionary
281
     1
  3
A0
350
43
  3
A1
350
44
  3
A2
350
45
  3
A3
350
46
  3
A4
350
47
  3
A5
350
48
  3
A6
350
49
  3
A7
350
4A
  3
A8
350
4B
  3
A9
350
4C
  3
B0
350
4D
  3
B1
350
4E
  3
B2
350
4F
  3
B3
350
50
  3
B4
350
51
  3
B5
350
52
  3
B6
350
53
  0
DICTIONARY
  5
67
102
{ACAD_REACTORS
330
C
102
}
330
C
100
AcDbDictionary
281
     1
  3
Imperial24
350
68
  3
Metric50
350
63F
  0
DICTIONARY
  5
63
102
{ACAD_REACTORS
330
C
102
}
330
C
100
AcDbDictionary
281
     1
  3
Standard
350
64
  0
DICTIONARY
  5
29
102
{ACAD_REACTORS
330
C
102
}
330
C
100
AcDbDictionary
281
     1
  3
2dWireframe
350
2F
  3
Basic
350
2E
  3
Brighten
350
35
  3
ColorChange
350
39
  3
Conceptual
350
32
  3
Dim
350
34
  3
EdgeColorOff
350
41
  3
Facepattern
350
38
  3
Flat
350
2A
  3
FlatWithEdges
350
2B
  3
Gouraud
350
2C
  3
GouraudWithEdges
350
2D
  3
Hidden
350
31
  3
JitterOff
350
3F
  3
Linepattern
350
37
  3
OverhangOff
350
40
  3
Realistic
350
33
  3
Shaded
350
3E
  3
Shaded with edges
350
3D
  3
Shades of Gray
350
3A
  3
Sketchy
350
3B
  3
Thicken
350
36
  3
Wireframe
350
30
  3
X-Ray
350
3C
  0
XRECORD
  5
66E
102
{ACAD_REACTORS
330
C
102
}
330
C
100
AcDbXrecord
280
     1
 90
        1
330
64
  0
DICTIONARY
  5
661
102
{ACAD_REACTORS
330
C
102
}
330
C
100
AcDbDictionary
281
     1
  3
CANNOSCALE
350
667
  3
CMLEADERSTYLE
350
663
  3
CTABLESTYLE
350
662
  3
CVIEWDETAILSTYLE
350
664
  3
CVIEWSECTIONSTYLE
350
665
  3
LAYEREVAL
350
669
  3
LAYERNOTIFY
350
66A
  3
LIGHTINGUNITS
350
668
  3
MSLTSCALE
350
666
  0
XRECORD
  5
64C
102
{ACAD_REACTORS
330
64B
102
}
330
64B
100
AcDbXrecord
280
     1
290
     1
  0
XRECORD
  5
64E
102
{ACAD_REACTORS
330
64D
102
}
330
64D
100
AcDbXrecord
280
     1
290
     1
  0
XRECORD
  5
650
102
{ACAD_REACTORS
330
64F
102
}
330
64F
100
AcDbXrecord
280
     1
290
     1
  0
XRECORD
  5
652
102
{ACAD_REACTORS
330
651
102
}
330
651
100
AcDbXrecord
280
     1
290
     1
  0
XRECORD
  5
654
102
{ACAD_REACTORS
330
653
102
}
330
653
100
AcDbXrecord
280
     1
290
     1
  0
XRECORD
  5
656
102
{ACAD_REACTORS
330
655
102
}
330
655
100
AcDbXrecord
280
     1
290
     1
  0
XRECORD
  5
658
102
{ACAD_REACTORS
330
657
102
}
330
657
100
AcDbXrecord
280
     1
290
     1
  0
XRECORD
  5
65A
102
{ACAD_REACTORS
330
659
102
}
330
659
100
AcDbXrecord
280
     1
290
     1
  0
XRECORD
  5
65C
102
{ACAD_REACTORS
330
65B
102
}
330
65B
100
AcDbXrecord
280
     1
290
     1
  0
XRECORD
  5
65E
102
{ACAD_REACTORS
330
65D
102
}
330
65D
100
AcDbXrecord
280
     1
290
     1
  0
XRECORD
  5
660
102
{ACAD_REACTORS
330
65F
102
}
330
65F
100
AcDbXrecord
280
     1
290
     1
  0
ACDBDETAILVIEWSTYLE
  5
6A
102
{ACAD_REACTORS
330
69
102
}
330
69
100
AcDbModelDocViewStyle
 70
     0
  3
Imperial24
290
     0
300
Imperial24
 90
        0
100
AcDbDetailViewStyle
 70
     0
 71
     0
 90
        3
 71
     1
340
55
 62
   256
 40
0.24
340
0
 62
   256
 40
0.24
300

 40
0.36
280
     3
 71
     2
340
5C
 90
       25
 62
   256
 71
     3
340
55
 62
   256
 40
0.24
 90
        1
 40
0.75
 90
        1
300
%<\AcVar ViewType \f "%tc1">% %<\AcVar ViewDetailId>%\PSCALE %<\AcVar ViewScale \f "%sn">%
 71
     4
340
5C
 90
       25
 62
   256
340
5C
 90
       25
 62
   256
280
     0
  0
ACDBDETAILVIEWSTYLE
  5
640
102
{ACAD_REACTORS
330
69
102
}
330
69
100
AcDbModelDocViewStyle
 70
     0
  3
Metric50
290
     0
300
Metric50
 90
        0
100
AcDbDetailViewStyle
 70
     0
 71
     0
 90
        3
 71
     1
340
55
 62
   256
 40
5.0
340
0
 62
   256
 40
5.0
300

 40
0.0
280
     1
 71
     2
340
5C
 90
       25
 62
   256
 71
     3
340
55
 62
   256
 40
5.0
 90
        0
 40
15.0
 90
        1
300
%<\AcVar ViewDetailId>% (%<\AcVar ViewScale \f "%sn">%)
 71
     4
340
5C
 90
       25
 62
   256
340
5C
 90
       25
 62
   256
280
     0
  0
LAYOUT
  5
72
102
{ACAD_REACTORS
330
61
102
}
330
61
100
AcDbPlotSettings
  1

  2
RICOH MP C2503 JPN RPCS V2
  4

  6

 40
0.0
 41
0.0
 42
0.0
 43
0.0
 44
0.0
 45
0.0
 46
0.0
 47
0.0
 48
0.0
 49
0.0
140
0.0
141
0.0
142
1.0
143
1.0
 70
  1712
 72
     0
 73
     0
 74
     0
  7

 75
     0
147
1.0
 76
     0
 77
     2
 78
   300
148
0.0
149
0.0
100
AcDbLayout
  1
Model
 70
     1
 71
     0
 10
0.0
 20
0.0
 11
12.0
 21
9.0
 12
0.0
 22
0.0
 32
0.0
 14
0.0
 24
0.0
 34
0.0
 15
0.0
 25
0.0
 35
0.0
146
0.0
 13
0.0
 23
0.0
 33
0.0
 16
1.0
 26
0.0
 36
0.0
 17
0.0
 27
1.0
 37
0.0
 76
     0
330
6F
331
85
  0
LAYOUT
  5
6E
102
{ACAD_REACTORS
330
61
102
}
330
61
100
AcDbPlotSettings
  1

  2
RICOH MP C2503 JPN RPCS V2
  4

  6

 40
0.0
 41
0.0
 42
0.0
 43
0.0
 44
0.0
 45
0.0
 46
0.0
 47
0.0
 48
0.0
 49
0.0
140
0.0
141
0.0
142
1.0
143
1.0
 70
   688
 72
     0
 73
     0
 74
     5
  7

 75
    16
147
1.0
 76
     0
 77
     2
 78
   300
148
0.0
149
0.0
100
AcDbLayout
  1
レイアウト1
 70
     1
 71
     1
 10
0.0
 20
0.0
 11
12.0
 21
9.0
 12
0.0
 22
0.0
 32
0.0
 14
1.000000000000000E+20
 24
1.000000000000000E+20
 34
1.000000000000000E+20
 15
-1.000000000000000E+20
 25
-1.000000000000000E+20
 35
-1.000000000000000E+20
146
0.0
 13
0.0
 23
0.0
 33
0.0
 16
1.0
 26
0.0
 36
0.0
 17
0.0
 27
1.0
 37
0.0
 76
     0
330
6B
  0
MATERIAL
  5
19
102
{ACAD_XDICTIONARY
360
1A
102
}
102
{ACAD_REACTORS
330
10
102
}
330
10
100
AcDbMaterial
  1
ByBlock
 72
     0
 43
0.0208333333333333
 43
0.0
 43
0.0
 43
0.0
 43
0.0
 43
0.0208333333333333
 43
0.0
 43
0.0
 43
0.0
 43
0.0
 43
1.0
 43
0.0
 43
0.0
 43
0.0
 43
0.0
 43
1.0
 77
     0
 47
0.0208333333333333
 47
0.0
 47
0.0
 47
0.0
 47
0.0
 47
0.0208333333333333
 47
0.0
 47
0.0
 47
0.0
 47
0.0
 47
1.0
 47
0.0
 47
0.0
 47
0.0
 47
0.0
 47
1.0
171
     0
 49
0.0208333333333333
 49
0.0
 49
0.0
 49
0.0
 49
0.0
 49
0.0208333333333333
 49
0.0
 49
0.0
 49
0.0
 49
0.0
 49
1.0
 49
0.0
 49
0.0
 49
0.0
 49
0.0
 49
1.0
175
     0
142
0.0208333333333333
142
0.0
142
0.0
142
0.0
142
0.0
142
0.0208333333333333
142
0.0
142
0.0
142
0.0
142
0.0
142
1.0
142
0.0
142
0.0
142
0.0
142
0.0
142
1.0
179
     0
144
0.0208333333333333
144
0.0
144
0.0
144
0.0
144
0.0
144
0.0208333333333333
144
0.0
144
0.0
144
0.0
144
0.0
144
1.0
144
0.0
144
0.0
144
0.0
144
0.0
144
1.0
147
0.0208333333333333
147
0.0
147
0.0
147
0.0
147
0.0
147
0.0208333333333333
147
0.0
147
0.0
147
0.0
147
0.0
147
1.0
147
0.0
147
0.0
147
0.0
147
0.0
147
1.0
  0
MATERIAL
  5
11
102
{ACAD_XDICTIONARY
360
12
102
}
102
{ACAD_REACTORS
330
10
102
}
330
10
100
AcDbMaterial
  1
ByLayer
 72
     0
 43
0.0208333333333333
 43
0.0
 43
0.0
 43
0.0
 43
0.0
 43
0.0208333333333333
 43
0.0
 43
0.0
 43
0.0
 43
0.0
 43
1.0
 43
0.0
 43
0.0
 43
0.0
 43
0.0
 43
1.0
 77
     0
 47
0.0208333333333333
 47
0.0
 47
0.0
 47
0.0
 47
0.0
 47
0.0208333333333333
 47
0.0
 47
0.0
 47
0.0
 47
0.0
 47
1.0
 47
0.0
 47
0.0
 47
0.0
 47
0.0
 47
1.0
171
     0
 49
0.0208333333333333
 49
0.0
 49
0.0
 49
0.0
 49
0.0
 49
0.0208333333333333
 49
0.0
 49
0.0
 49
0.0
 49
0.0
 49
1.0
 49
0.0
 49
0.0
 49
0.0
 49
0.0
 49
1.0
175
     0
142
0.0208333333333333
142
0.0
142
0.0
142
0.0
142
0.0
142
0.0208333333333333
142
0.0
142
0.0
142
0.0
142
0.0
142
1.0
142
0.0
142
0.0
142
0.0
142
0.0
142
1.0
179
     0
144
0.0208333333333333
144
0.0
144
0.0
144
0.0
144
0.0
144
0.0208333333333333
144
0.0
144
0.0
144
0.0
144
0.0
144
1.0
144
0.0
144
0.0
144
0.0
144
0.0
144
1.0
147
0.0208333333333333
147
0.0
147
0.0
147
0.0
147
0.0
147
0.0208333333333333
147
0.0
147
0.0
147
0.0
147
0.0
147
1.0
147
0.0
147
0.0
147
0.0
147
0.0
147
1.0
  0
MATERIAL
  5
21
102
{ACAD_XDICTIONARY
360
22
102
}
102
{ACAD_REACTORS
330
10
102
}
330
10
100
AcDbMaterial
  1
Global
 72
     0
 43
0.0208333333333333
 43
0.0
 43
0.0
 43
0.0
 43
0.0
 43
0.0208333333333333
 43
0.0
 43
0.0
 43
0.0
 43
0.0
 43
1.0
 43
0.0
 43
0.0
 43
0.0
 43
0.0
 43
1.0
 77
     0
 47
0.0208333333333333
 47
0.0
 47
0.0
 47
0.0
 47
0.0
 47
0.0208333333333333
 47
0.0
 47
0.0
 47
0.0
 47
0.0
 47
1.0
 47
0.0
 47
0.0
 47
0.0
 47
0.0
 47
1.0
171
     0
 49
0.0208333333333333
 49
0.0
 49
0.0
 49
0.0
 49
0.0
 49
0.0208333333333333
 49
0.0
 49
0.0
 49
0.0
 49
0.0
 49
1.0
 49
0.0
 49
0.0
 49
0.0
 49
0.0
 49
1.0
175
     0
142
0.0208333333333333
142
0.0
142
0.0
142
0.0
142
0.0
142
0.0208333333333333
142
0.0
142
0.0
142
0.0
142
0.0
142
1.0
142
0.0
142
0.0
142
0.0
142
0.0
142
1.0
179
     0
144
0.0208333333333333
144
0.0
144
0.0
144
0.0
144
0.0
144
0.0208333333333333
144
0.0
144
0.0
144
0.0
144
0.0
144
1.0
144
0.0
144
0.0
144
0.0
144
0.0
144
1.0
147
0.0208333333333333
147
0.0
147
0.0
147
0.0
147
0.0
147
0.0208333333333333
147
0.0
147
0.0
147
0.0
147
0.0
147
1.0
147
0.0
147
0.0
147
0.0
147
0.0
147
1.0
  0
MLEADERSTYLE
  5
66
102
{ACAD_REACTORS
330
65
102
}
330
65
100
AcDbMLeaderStyle
179
     2
170
     2
171
     1
172
     0
 90
        2
 40
0.0
 41
0.0
173
     1
 91
-1056964608
340
5A
 92
       -2
290
     1
 42
0.09
291
     1
 43
0.36
  3
Standard
 44
0.18
300

342
55
174
     1
178
     6
175
     1
176
     0
 93
-1056964608
 45
0.18
292
     0
297
     0
 46
0.18
 94
-1056964608
 47
1.0
 49
1.0
140
1.0
293
     1
141
0.0
294
     1
177
     0
142
1.0
295
     0
296
     0
143
0.125
271
     0
272
     9
273
     9
298
     0
  0
MLINESTYLE
  5
5F
102
{ACAD_REACTORS
330
5E
102
}
330
5E
100
AcDbMlineStyle
  2
STANDARD
 70
     0
  3

 62
   256
 51
90.0
 52
90.0
 71
     2
 49
0.5
 62
   256
  6
BYLAYER
 49
-0.5
 62
   256
  6
BYLAYER
  0
ACDBPLACEHOLDER
  5
F
102
{ACAD_REACTORS
330
E
102
}
330
E
  0
SCALE
  5
43
102
{ACAD_REACTORS
330
42
102
}
330
42
100
AcDbScale
 70
     0
300
1:1
140
1.0
141
1.0
290
     1
  0
SCALE
  5
44
102
{ACAD_REACTORS
330
42
102
}
330
42
100
AcDbScale
 70
     0
300
1/128" = 1'-0"
140
0.0078125
141
12.0
290
     0
  0
SCALE
  5
45
102
{ACAD_REACTORS
330
42
102
}
330
42
100
AcDbScale
 70
     0
300
1/64" = 1'-0"
140
0.015625
141
12.0
290
     0
  0
SCALE
  5
46
102
{ACAD_REACTORS
330
42
102
}
330
42
100
AcDbScale
 70
     0
300
1/32" = 1'-0"
140
0.03125
141
12.0
290
     0
  0
SCALE
  5
47
102
{ACAD_REACTORS
330
42
102
}
330
42
100
AcDbScale
 70
     0
300
1/16" = 1'-0"
140
0.0625
141
12.0
290
     0
  0
SCALE
  5
48
102
{ACAD_REACTORS
330
42
102
}
330
42
100
AcDbScale
 70
     0
300
3/32" = 1'-0"
140
0.09375
141
12.0
290
     0
  0
SCALE
  5
49
102
{ACAD_REACTORS
330
42
102
}
330
42
100
AcDbScale
 70
     0
300
1/8" = 1'-0"
140
0.125
141
12.0
290
     0
  0
SCALE
  5
4A
102
{ACAD_REACTORS
330
42
102
}
330
42
100
AcDbScale
 70
     0
300
3/16" = 1'-0"
140
0.1875
141
12.0
290
     0
  0
SCALE
  5
4B
102
{ACAD_REACTORS
330
42
102
}
330
42
100
AcDbScale
 70
     0
300
1/4" = 1'-0"
140
0.25
141
12.0
290
     0
  0
SCALE
  5
4C
102
{ACAD_REACTORS
330
42
102
}
330
42
100
AcDbScale
 70
     0
300
3/8" = 1'-0"
140
0.375
141
12.0
290
     0
  0
SCALE
  5
4D
102
{ACAD_REACTORS
330
42
102
}
330
42
100
AcDbScale
 70
     0
300
1/2" = 1'-0"
140
0.5
141
12.0
290
     0
  0
SCALE
  5
4E
102
{ACAD_REACTORS
330
42
102
}
330
42
100
AcDbScale
 70
     0
300
3/4" = 1'-0"
140
0.75
141
12.0
290
     0
  0
SCALE
  5
4F
102
{ACAD_REACTORS
330
42
102
}
330
42
100
AcDbScale
 70
     0
300
1" = 1'-0"
140
1.0
141
12.0
290
     0
  0
SCALE
  5
50
102
{ACAD_REACTORS
330
42
102
}
330
42
100
AcDbScale
 70
     0
300
1-1/2" = 1'-0"
140
1.5
141
12.0
290
     0
  0
SCALE
  5
51
102
{ACAD_REACTORS
330
42
102
}
330
42
100
AcDbScale
 70
     0
300
3" = 1'-0"
140
3.0
141
12.0
290
     0
  0
SCALE
  5
52
102
{ACAD_REACTORS
330
42
102
}
330
42
100
AcDbScale
 70
     0
300
6" = 1'-0"
140
6.0
141
12.0
290
     0
  0
SCALE
  5
53
102
{ACAD_REACTORS
330
42
102
}
330
42
100
AcDbScale
 70
     0
300
1'-0" = 1'-0"
140
12.0
141
12.0
290
     0
  0
ACDBSECTIONVIEWSTYLE
  5
68
102
{ACAD_REACTORS
330
67
102
}
330
67
100
AcDbModelDocViewStyle
 70
     0
  3
Imperial24
290
     0
300
Imperial24
 90
        0
100
AcDbSectionViewStyle
 70
     0
 71
     0
 90
       78
 71
     1
340
55
 62
   256
 40
0.24
340
0
340
0
 62
   256
 40
0.24
300
I, O, Q, S, X, Z
 40
0.48
 90
        3
 40
0.18
 90
        1
 71
     2
340
5C
 90
       25
 62
   256
340
5C
 90
       50
 62
   256
 40
0.24
 40
0.0
 40
0.24
 71
     3
340
55
 62
   256
 40
0.24
 90
        1
 40
0.75
 90
        1
300
%<\AcVar ViewType \f "%tc1">% %<\AcVar ViewSectionStartId>%-%<\AcVar ViewSectionEndId>%\PSCALE %<\AcVar ViewScale \f "%sn">%
 71
     4
 62
   256
 62
   257
300
ANSI31
 40
1.0
 90
        0
290
     0
290
     0
 90
        6
 40
0.0
 40
1.570796326794896
 40
0.2617993877991494
 40
1.308996938995747
 40
-0.2617993877991494
 40
1.832595714594046
  0
ACDBSECTIONVIEWSTYLE
  5
63F
102
{ACAD_REACTORS
330
67
102
}
330
67
100
AcDbModelDocViewStyle
 70
     0
  3
Metric50
290
     0
300
Metric50
 90
        0
100
AcDbSectionViewStyle
 70
     0
 71
     0
 90
      102
 71
     1
340
55
 62
   256
 40
5.0
340
0
340
0
 62
   256
 40
5.0
300
I, O, Q, S, X, Z
 40
10.0
 90
        0
 40
2.5
 90
        0
 71
     2
340
5C
 90
       25
 62
   256
340
5C
 90
       50
 62
   256
 40
5.0
 40
2.5
 40
5.0
 71
     3
340
55
 62
   256
 40
5.0
 90
        0
 40
15.0
 90
        1
300
%<\AcVar ViewSectionStartId>%-%<\AcVar ViewSectionEndId>% (%<\AcVar ViewScale \f "%sn">%)
 71
     4
 62
   256
 62
   257
300
ANSI31
 40
1.0
 90
        0
290
     0
290
     0
 90
        6
 40
0.0
 40
1.570796326794896
 40
0.2617993877991494
 40
1.308996938995747
 40
-0.2617993877991494
 40
1.832595714594046
  0
TABLESTYLE
  5
64
102
{ACAD_XDICTIONARY
360
66C
102
}
102
{ACAD_REACTORS
330
63
102
}
330
63
100
AcDbTableStyle
280
     0
  3
Standard
 70
     0
 71
     0
 40
0.06
 41
0.06
280
     0
281
     0
  7
STANDARD
140
0.18
170
     2
 62
     0
 63
     7
283
     0
 90
      512
 91
        0
  1

274
    -2
284
     1
 64
     0
275
    -2
285
     1
 65
     0
276
    -2
286
     1
 66
     0
277
    -2
287
     1
 67
     0
278
    -2
288
     1
 68
     0
279
    -2
289
     1
 69
     0
  7
STANDARD
140
0.25
170
     5
 62
     0
 63
     7
283
     0
 90
      512
 91
        0
  1

274
    -2
284
     1
 64
     0
275
    -2
285
     1
 65
     0
276
    -2
286
     1
 66
     0
277
    -2
287
     1
 67
     0
278
    -2
288
     1
 68
     0
279
    -2
289
     1
 69
     0
  7
STANDARD
140
0.18
170
     5
 62
     0
 63
     7
283
     0
 90
      512
 91
        0
  1

274
    -2
284
     1
 64
     0
275
    -2
285
     1
 65
     0
276
    -2
286
     1
 66
     0
277
    -2
287
     1
 67
     0
278
    -2
288
     1
 68
     0
279
    -2
289
     1
 69
     0
  0
VISUALSTYLE
  5
2F
102
{ACAD_REACTORS
330
29
102
}
330
29
100
AcDbVisualStyle
  2
2dWireframe
 70
     4
177
     3
291
     0
 70
    58
 90
        0
176
     1
 90
        2
176
     1
 90
        0
176
     1
 90
        0
176
     1
 40
0.6
176
     1
 40
30.0
176
     1
 62
     7
420
 16777215
176
     1
 90
        1
176
     1
 90
        4
176
     1
 62
     7
176
     1
 62
   257
176
     1
 90
        1
176
     1
 90
        1
176
     1
 40
1.0
176
     1
 90
        0
176
     1
 62
   257
176
     1
 40
1.0
176
     1
 90
        1
176
     1
 90
        6
176
     1
 90
        2
176
     1
 62
     7
176
     1
 90
        5
176
     1
 90
        0
176
     1
 90
        0
176
     1
290
     0
176
     1
 90
        1
176
     1
 40
0.0
176
     1
 90
        0
176
     1
290
     1
176
     1
290
     1
176
     1
290
     0
176
     1
290
     0
176
     1
290
     0
176
     1
290
     0
176
     1
290
     0
176
     1
290
     0
176
     1
290
     0
176
     1
 90
       50
176
     1
 40
0.0
176
     1
 40
1.0
176
     1
 90
        0
176
     1
 62
    18
420
        0
176
     1
 90
       50
176
     1
 90
        3
176
     1
 62
     5
420
      255
176
     1
290
     0
176
     1
 90
       50
176
     1
 90
       50
176
     1
 90
       50
176
     1
290
     0
176
     1
 90
       50
176
     1
 62
   256
176
     0
 40
1.0
176
     0
 90
        2
176
     1
  1
strokes_ogs.tif
176
     1
290
     0
176
     1
 40
1.0
176
     1
 40
1.0
176
     1
  0
VISUALSTYLE
  5
2E
102
{ACAD_REACTORS
330
29
102
}
330
29
100
AcDbVisualStyle
  2
Basic
 70
     7
177
     3
291
     1
 70
    58
 90
        1
176
     1
 90
        0
176
     1
 90
        1
176
     1
 90
        0
176
     1
 40
0.6
176
     1
 40
30.0
176
     1
 62
     7
420
 16777215
176
     1
 90
        0
176
     1
 90
        4
176
     1
 62
     7
176
     1
 62
   257
176
     1
 90
        1
176
     1
 90
        1
176
     1
 40
1.0
176
     1
 90
        8
176
     1
 62
     7
176
     1
 40
1.0
176
     1
 90
        1
176
     1
 90
        6
176
     1
 90
        2
176
     1
 62
     7
176
     1
 90
        5
176
     1
 90
        0
176
     1
 90
        0
176
     1
290
     0
176
     1
 90
        1
176
     1
 40
0.0
176
     1
 90
        0
176
     1
290
     0
176
     1
290
     1
176
     1
290
     1
176
     1
290
     0
176
     1
290
     0
176
     1
290
     0
176
     1
290
     0
176
     1
290
     0
176
     1
290
     0
176
     1
 90
       50
176
     1
 40
0.0
176
     1
 40
1.0
176
     1
 90
        0
176
     1
 62
    18
420
        0
176
     1
 90
       50
176
     1
 90
        3
176
     1
 62
     5
420
      255
176
     1
290
     0
176
     1
 90
       50
176
     1
 90
       50
176
     1
 90
       50
176
     1
290
     0
176
     1
 90
       50
176
     1
 62
   256
176
     0
 40
1.0
176
     0
 90
        2
176
     1
  1
strokes_ogs.tif
176
     1
290
     0
176
     1
 40
1.0
176
     1
 40
1.0
176
     1
  0
VISUALSTYLE
  5
35
102
{ACAD_REACTORS
330
29
102
}
330
29
100
AcDbVisualStyle
  2
Brighten
 70
    12
177
     3
291
     1
 70
    58
 90
        2
176
     1
 90
        2
176
     1
 90
        0
176
     1
 90
        0
176
     1
 40
0.6
176
     1
 40
30.0
176
     1
 62
     7
420
 16777215
176
     1
 90
        1
176
     1
 90
        4
176
     1
 62
     7
176
     1
 62
   257
176
     1
 90
        1
176
     1
 90
        1
176
     1
 40
1.0
176
     1
 90
        8
176
     1
 62
     7
176
     1
 40
1.0
176
     1
 90
        1
176
     1
 90
        6
176
     1
 90
        2
176
     1
 62
     7
176
     1
 90
        5
176
     1
 90
        0
176
     1
 90
        0
176
     1
290
     0
176
     1
 90
        1
176
     1
 40
50.0
176
     1
 90
        0
176
     1
290
     0
176
     1
290
     1
176
     1
290
     1
176
     1
290
     0
176
     1
290
     0
176
     1
290
     0
176
     1
290
     0
176
     1
290
     0
176
     1
290
     0
176
     1
 90
       50
176
     1
 40
0.0
176
     1
 40
1.0
176
     1
 90
        0
176
     1
 62
    18
420
        0
176
     1
 90
       50
176
     1
 90
        3
176
     1
 62
     5
420
      255
176
     1
290
     0
176
     1
 90
       50
176
     1
 90
       50
176
     1
 90
       50
176
     1
290
     0
176
     1
 90
       50
176
     1
 62
   256
176
     0
 40
1.0
176
     0
 90
        2
176
     1
  1
strokes_ogs.tif
176
     1
290
     0
176
     1
 40
1.0
176
     1
 40
1.0
176
     1
  0
VISUALSTYLE
  5
39
102
{ACAD_REACTORS
330
29
102
}
330
29
100
AcDbVisualStyle
  2
ColorChange
 70
    16
177
     3
291
     1
 70
    58
 90
        2
176
     1
 90
        2
176
     1
 90
        3
176
     1
 90
        0
176
     1
 40
0.6
176
     1
 40
30.0
176
     1
 62
     8
420
  8421504
176
     1
 90
        1
176
     1
 90
        4
176
     1
 62
     7
176
     1
 62
   257
176
     1
 90
        1
176
     1
 90
        1
176
     1
 40
1.0
176
     1
 90
        8
176
     1
 62
     8
420
  8421504
176
     1
 40
1.0
176
     1
 90
        1
176
     1
 90
        6
176
     1
 90
        2
176
     1
 62
     7
176
     1
 90
        5
176
     1
 90
        0
176
     1
 90
        0
176
     1
290
     0
176
     1
 90
        1
176
     1
 40
0.0
176
     1
 90
        0
176
     1
290
     0
176
     1
290
     1
176
     1
290
     1
176
     1
290
     0
176
     1
290
     0
176
     1
290
     0
176
     1
290
     0
176
     1
290
     0
176
     1
290
     0
176
     1
 90
       50
176
     1
 40
0.0
176
     1
 40
1.0
176
     1
 90
        0
176
     1
 62
    18
420
        0
176
     1
 90
       50
176
     1
 90
        3
176
     1
 62
     5
420
      255
176
     1
290
     0
176
     1
 90
       50
176
     1
 90
       50
176
     1
 90
       50
176
     1
290
     0
176
     1
 90
       50
176
     1
 62
   256
176
     0
 40
1.0
176
     0
 90
        2
176
     1
  1
strokes_ogs.tif
176
     1
290
     0
176
     1
 40
1.0
176
     1
 40
1.0
176
     1
  0
VISUALSTYLE
  5
32
102
{ACAD_REACTORS
330
29
102
}
330
29
100
AcDbVisualStyle
  2
Conceptual
 70
     9
177
     3
291
     0
 70
    58
 90
        3
176
     1
 90
        2
176
     1
 90
        0
176
     1
 90
        0
176
     1
 40
0.6
176
     1
 40
30.0
176
     1
 62
     7
420
 16777215
176
     1
 90
        2
176
     1
 90
        2
176
     1
 62
     7
176
     1
 62
   257
176
     1
 90
        1
176
     1
 90
        1
176
     1
 40
179.0
176
     1
 90
        8
176
     1
 62
     7
176
     1
 40
1.0
176
     1
 90
        1
176
     1
 90
        6
176
     1
 90
        2
176
     1
 62
     7
176
     1
 90
        3
176
     1
 90
        0
176
     1
 90
        0
176
     1
290
     0
176
     1
 90
        1
176
     1
 40
0.0
176
     1
 90
        0
176
     1
290
     0
176
     1
290
     1
176
     1
290
     1
176
     1
290
     0
176
     1
290
     0
176
     1
290
     0
176
     1
290
     0
176
     1
290
     0
176
     1
290
     0
176
     1
 90
       50
176
     1
 40
0.0
176
     1
 40
1.0
176
     1
 90
        0
176
     1
 62
    18
420
        0
176
     1
 90
       50
176
     1
 90
        3
176
     1
 62
     5
420
      255
176
     1
290
     0
176
     1
 90
       50
176
     1
 90
       50
176
     1
 90
       50
176
     1
290
     0
176
     1
 90
       50
176
     1
 62
   256
176
     0
 40
1.0
176
     0
 90
        2
176
     1
  1
strokes_ogs.tif
176
     1
290
     0
176
     1
 40
1.0
176
     1
 40
1.0
176
     1
  0
VISUALSTYLE
  5
34
102
{ACAD_REACTORS
330
29
102
}
330
29
100
AcDbVisualStyle
  2
Dim
 70
    11
177
     3
291
     1
 70
    58
 90
        2
176
     1
 90
        2
176
     1
 90
        0
176
     1
 90
        0
176
     1
 40
0.6
176
     1
 40
30.0
176
     1
 62
     7
420
 16777215
176
     1
 90
        1
176
     1
 90
        4
176
     1
 62
     7
176
     1
 62
   257
176
     1
 90
        1
176
     1
 90
        1
176
     1
 40
1.0
176
     1
 90
        8
176
     1
 62
     7
176
     1
 40
1.0
176
     1
 90
        1
176
     1
 90
        6
176
     1
 90
        2
176
     1
 62
     7
176
     1
 90
        5
176
     1
 90
        0
176
     1
 90
        0
176
     1
290
     0
176
     1
 90
        1
176
     1
 40
-50.0
176
     1
 90
        0
176
     1
290
     0
176
     1
290
     1
176
     1
290
     1
176
     1
290
     0
176
     1
290
     0
176
     1
290
     0
176
     1
290
     0
176
     1
290
     0
176
     1
290
     0
176
     1
 90
       50
176
     1
 40
0.0
176
     1
 40
1.0
176
     1
 90
        0
176
     1
 62
    18
420
        0
176
     1
 90
       50
176
     1
 90
        3
176
     1
 62
     5
420
      255
176
     1
290
     0
176
     1
 90
       50
176
     1
 90
       50
176
     1
 90
       50
176
     1
290
     0
176
     1
 90
       50
176
     1
 62
   256
176
     0
 40
1.0
176
     0
 90
        2
176
     1
  1
strokes_ogs.tif
176
     1
290
     0
176
     1
 40
1.0
176
     1
 40
1.0
176
     1
  0
VISUALSTYLE
  5
41
102
{ACAD_REACTORS
330
29
102
}
330
29
100
AcDbVisualStyle
  2
EdgeColorOff
 70
    22
177
     3
291
     1
 70
    58
 90
        2
176
     0
 90
        2
176
     0
 90
        0
176
     0
 90
        0
176
     0
 40
0.6
176
     0
 40
30.0
176
     0
 62
     7
420
 16777215
176
     0
 90
        1
176
     0
 90
        4
176
     0
 62
     7
176
     0
 62
   257
176
     0
 90
        1
176
     0
 90
        1
176
     0
 40
1.0
176
     0
 90
        8
176
     2
 62
     7
176
     0
 40
1.0
176
     0
 90
        1
176
     0
 90
        6
176
     0
 90
        2
176
     0
 62
     7
176
     0
 90
        5
176
     0
 90
        0
176
     0
 90
        0
176
     0
290
     0
176
     0
 90
        1
176
     0
 40
0.0
176
     0
 90
        0
176
     0
290
     0
176
     1
290
     1
176
     1
290
     1
176
     1
290
     0
176
     1
290
     0
176
     1
290
     0
176
     1
290
     0
176
     1
290
     0
176
     1
290
     0
176
     1
 90
       50
176
     0
 40
0.0
176
     0
 40
1.0
176
     0
 90
        0
176
     0
 62
    18
420
        0
176
     0
 90
       50
176
     0
 90
        3
176
     0
 62
     5
420
      255
176
     0
290
     0
176
     1
 90
       50
176
     0
 90
       50
176
     0
 90
       50
176
     0
290
     0
176
     1
 90
       50
176
     0
 62
   256
176
     0
 40
1.0
176
     0
 90
        2
176
     0
  1
strokes_ogs.tif
176
     0
290
     0
176
     1
 40
1.0
176
     0
 40
1.0
176
     0
  0
VISUALSTYLE
  5
38
102
{ACAD_REACTORS
330
29
102
}
330
29
100
AcDbVisualStyle
  2
Facepattern
 70
    15
177
     3
291
     1
 70
    58
 90
        2
176
     1
 90
        2
176
     1
 90
        0
176
     1
 90
        0
176
     1
 40
0.6
176
     1
 40
30.0
176
     1
 62
     7
420
 16777215
176
     1
 90
        1
176
     1
 90
        4
176
     1
 62
     7
176
     1
 62
   257
176
     1
 90
        1
176
     1
 90
        1
176
     1
 40
1.0
176
     1
 90
        8
176
     1
 62
     7
176
     1
 40
1.0
176
     1
 90
        1
176
     1
 90
        6
176
     1
 90
        2
176
     1
 62
     7
176
     1
 90
        5
176
     1
 90
        0
176
     1
 90
        0
176
     1
290
     0
176
     1
 90
        1
176
     1
 40
0.0
176
     1
 90
        0
176
     1
290
     0
176
     1
290
     1
176
     1
290
     1
176
     1
290
     0
176
     1
290
     0
176
     1
290
     0
176
     1
290
     0
176
     1
290
     0
176
     1
290
     0
176
     1
 90
       50
176
     1
 40
0.0
176
     1
 40
1.0
176
     1
 90
        0
176
     1
 62
    18
420
        0
176
     1
 90
       50
176
     1
 90
        3
176
     1
 62
     5
420
      255
176
     1
290
     0
176
     1
 90
       50
176
     1
 90
       50
176
     1
 90
       50
176
     1
290
     0
176
     1
 90
       50
176
     1
 62
   256
176
     0
 40
1.0
176
     0
 90
        2
176
     1
  1
strokes_ogs.tif
176
     1
290
     0
176
     1
 40
1.0
176
     1
 40
1.0
176
     1
  0
VISUALSTYLE
  5
2A
102
{ACAD_REACTORS
330
29
102
}
330
29
100
AcDbVisualStyle
  2
Flat
 70
     0
177
     3
291
     1
 70
    58
 90
        2
176
     1
 90
        1
176
     1
 90
        1
176
     1
 90
        2
176
     1
 40
0.6
176
     1
 40
30.0
176
     1
 62
     7
420
 16777215
176
     1
 90
        0
176
     1
 90
        0
176
     1
 62
     7
176
     1
 62
   257
176
     1
 90
        1
176
     1
 90
        1
176
     1
 40
1.0
176
     1
 90
        8
176
     1
 62
     7
176
     1
 40
1.0
176
     1
 90
        1
176
     1
 90
        6
176
     1
 90
        2
176
     1
 62
     7
176
     1
 90
        5
176
     1
 90
        0
176
     1
 90
        0
176
     1
290
     0
176
     1
 90
       13
176
     1
 40
0.0
176
     1
 90
        0
176
     1
290
     0
176
     1
290
     1
176
     1
290
     1
176
     1
290
     0
176
     1
290
     0
176
     1
290
     0
176
     1
290
     0
176
     1
290
     0
176
     1
290
     0
176
     1
 90
       50
176
     1
 40
0.0
176
     1
 40
1.0
176
     1
 90
        0
176
     1
 62
    18
420
        0
176
     1
 90
       50
176
     1
 90
        3
176
     1
 62
     5
420
      255
176
     1
290
     0
176
     1
 90
       50
176
     1
 90
       50
176
     1
 90
       50
176
     1
290
     0
176
     1
 90
       50
176
     1
 62
   256
176
     0
 40
1.0
176
     0
 90
        2
176
     1
  1
strokes_ogs.tif
176
     1
290
     0
176
     1
 40
1.0
176
     1
 40
1.0
176
     1
  0
VISUALSTYLE
  5
2B
102
{ACAD_REACTORS
330
29
102
}
330
29
100
AcDbVisualStyle
  2
FlatWithEdges
 70
     1
177
     3
291
     1
 70
    58
 90
        2
176
     1
 90
        1
176
     1
 90
        1
176
     1
 90
        2
176
     1
 40
0.6
176
     1
 40
30.0
176
     1
 62
     7
420
 16777215
176
     1
 90
        1
176
     1
 90
        0
176
     1
 62
     7
176
     1
 62
   257
176
     1
 90
        1
176
     1
 90
        1
176
     1
 40
1.0
176
     1
 90
        0
176
     1
 62
   257
176
     1
 40
1.0
176
     1
 90
        1
176
     1
 90
        6
176
     1
 90
        2
176
     1
 62
     7
176
     1
 90
        5
176
     1
 90
        0
176
     1
 90
        0
176
     1
290
     0
176
     1
 90
       13
176
     1
 40
0.0
176
     1
 90
        0
176
     1
290
     0
176
     1
290
     1
176
     1
290
     1
176
     1
290
     0
176
     1
290
     0
176
     1
290
     0
176
     1
290
     0
176
     1
290
     0
176
     1
290
     0
176
     1
 90
       50
176
     1
 40
0.0
176
     1
 40
1.0
176
     1
 90
        0
176
     1
 62
    18
420
        0
176
     1
 90
       50
176
     1
 90
        3
176
     1
 62
     5
420
      255
176
     1
290
     0
176
     1
 90
       50
176
     1
 90
       50
176
     1
 90
       50
176
     1
290
     0
176
     1
 90
       50
176
     1
 62
   256
176
     0
 40
1.0
176
     0
 90
        2
176
     1
  1
strokes_ogs.tif
176
     1
290
     0
176
     1
 40
1.0
176
     1
 40
1.0
176
     1
  0
VISUALSTYLE
  5
2C
102
{ACAD_REACTORS
330
29
102
}
330
29
100
AcDbVisualStyle
  2
Gouraud
 70
     2
177
     3
291
     1
 70
    58
 90
        2
176
     1
 90
        2
176
     1
 90
        1
176
     1
 90
        2
176
     1
 40
0.6
176
     1
 40
30.0
176
     1
 62
     7
420
 16777215
176
     1
 90
        0
176
     1
 90
        0
176
     1
 62
     7
176
     1
 62
   257
176
     1
 90
        1
176
     1
 90
        1
176
     1
 40
1.0
176
     1
 90
        0
176
     1
 62
     7
176
     1
 40
1.0
176
     1
 90
        1
176
     1
 90
        6
176
     1
 90
        2
176
     1
 62
     7
176
     1
 90
        5
176
     1
 90
        0
176
     1
 90
        0
176
     1
290
     0
176
     1
 90
       13
176
     1
 40
0.0
176
     1
 90
        0
176
     1
290
     0
176
     1
290
     1
176
     1
290
     1
176
     1
290
     0
176
     1
290
     0
176
     1
290
     0
176
     1
290
     0
176
     1
290
     0
176
     1
290
     0
176
     1
 90
       50
176
     1
 40
0.0
176
     1
 40
1.0
176
     1
 90
        0
176
     1
 62
    18
420
        0
176
     1
 90
       50
176
     1
 90
        3
176
     1
 62
     5
420
      255
176
     1
290
     0
176
     1
 90
       50
176
     1
 90
       50
176
     1
 90
       50
176
     1
290
     0
176
     1
 90
       50
176
     1
 62
   256
176
     0
 40
1.0
176
     0
 90
        2
176
     1
  1
strokes_ogs.tif
176
     1
290
     0
176
     1
 40
1.0
176
     1
 40
1.0
176
     1
  0
VISUALSTYLE
  5
2D
102
{ACAD_REACTORS
330
29
102
}
330
29
100
AcDbVisualStyle
  2
GouraudWithEdges
 70
     3
177
     3
291
     1
 70
    58
 90
        2
176
     1
 90
        2
176
     1
 90
        1
176
     1
 90
        2
176
     1
 40
0.6
176
     1
 40
30.0
176
     1
 62
     7
420
 16777215
176
     1
 90
        1
176
     1
 90
        0
176
     1
 62
     7
176
     1
 62
   257
176
     1
 90
        1
176
     1
 90
        1
176
     1
 40
1.0
176
     1
 90
        0
176
     1
 62
   257
176
     1
 40
1.0
176
     1
 90
        1
176
     1
 90
        6
176
     1
 90
        2
176
     1
 62
     7
176
     1
 90
        5
176
     1
 90
        0
176
     1
 90
        0
176
     1
290
     0
176
     1
 90
       13
176
     1
 40
0.0
176
     1
 90
        0
176
     1
290
     0
176
     1
290
     1
176
     1
290
     1
176
     1
290
     0
176
     1
290
     0
176
     1
290
     0
176
     1
290
     0
176
     1
290
     0
176
     1
290
     0
176
     1
 90
       50
176
     1
 40
0.0
176
     1
 40
1.0
176
     1
 90
        0
176
     1
 62
    18
420
        0
176
     1
 90
       50
176
     1
 90
        3
176
     1
 62
     5
420
      255
176
     1
290
     0
176
     1
 90
       50
176
     1
 90
       50
176
     1
 90
       50
176
     1
290
     0
176
     1
 90
       50
176
     1
 62
   256
176
     0
 40
1.0
176
     0
 90
        2
176
     1
  1
strokes_ogs.tif
176
     1
290
     0
176
     1
 40
1.0
176
     1
 40
1.0
176
     1
  0
VISUALSTYLE
  5
31
102
{ACAD_REACTORS
330
29
102
}
330
29
100
AcDbVisualStyle
  2
Hidden
 70
     6
177
     3
291
     0
 70
    58
 90
        1
176
     1
 90
        2
176
     1
 90
        2
176
     1
 90
        0
176
     1
 40
0.6
176
     1
 40
30.0
176
     1
 62
     7
420
 16777215
176
     1
 90
        2
176
     1
 90
        2
176
     1
 62
     7
176
     1
 62
   257
176
     1
 90
        2
176
     1
 90
        1
176
     1
 40
40.0
176
     1
 90
        0
176
     1
 62
   257
176
     1
 40
1.0
176
     1
 90
        1
176
     1
 90
        6
176
     1
 90
        2
176
     1
 62
     7
176
     1
 90
        3
176
     1
 90
        0
176
     1
 90
        0
176
     1
290
     0
176
     1
 90
        1
176
     1
 40
0.0
176
     1
 90
        0
176
     1
290
     0
176
     1
290
     1
176
     1
290
     1
176
     1
290
     0
176
     1
290
     0
176
     1
290
     0
176
     1
290
     0
176
     1
290
     0
176
     1
290
     0
176
     1
 90
       50
176
     1
 40
0.0
176
     1
 40
1.0
176
     1
 90
        0
176
     1
 62
    18
420
        0
176
     1
 90
       50
176
     1
 90
        3
176
     1
 62
     5
420
      255
176
     1
290
     0
176
     1
 90
       50
176
     1
 90
       50
176
     1
 90
       50
176
     1
290
     0
176
     1
 90
       50
176
     1
 62
   256
176
     0
 40
1.0
176
     0
 90
        2
176
     1
  1
strokes_ogs.tif
176
     1
290
     0
176
     1
 40
1.0
176
     1
 40
1.0
176
     1
  0
VISUALSTYLE
  5
3F
102
{ACAD_REACTORS
330
29
102
}
330
29
100
AcDbVisualStyle
  2
JitterOff
 70
    20
177
     3
291
     1
 70
    58
 90
        2
176
     0
 90
        2
176
     0
 90
        0
176
     0
 90
        0
176
     0
 40
0.6
176
     0
 40
30.0
176
     0
 62
     7
420
 16777215
176
     0
 90
        1
176
     0
 90
        4
176
     0
 62
     7
176
     0
 62
   257
176
     0
 90
        1
176
     0
 90
        1
176
     0
 40
1.0
176
     0
 90
       10
176
     2
 62
     7
176
     0
 40
1.0
176
     0
 90
        1
176
     0
 90
        6
176
     0
 90
        2
176
     0
 62
     7
176
     0
 90
        5
176
     0
 90
        0
176
     0
 90
        0
176
     0
290
     0
176
     0
 90
        1
176
     0
 40
0.0
176
     0
 90
        0
176
     0
290
     0
176
     1
290
     1
176
     1
290
     1
176
     1
290
     0
176
     1
290
     0
176
     1
290
     0
176
     1
290
     0
176
     1
290
     0
176
     1
290
     0
176
     1
 90
       50
176
     0
 40
0.0
176
     0
 40
1.0
176
     0
 90
        0
176
     0
 62
    18
420
        0
176
     0
 90
       50
176
     0
 90
        3
176
     0
 62
     5
420
      255
176
     0
290
     0
176
     1
 90
       50
176
     0
 90
       50
176
     0
 90
       50
176
     0
290
     0
176
     1
 90
       50
176
     0
 62
   256
176
     0
 40
1.0
176
     0
 90
        2
176
     0
  1
strokes_ogs.tif
176
     0
290
     0
176
     1
 40
1.0
176
     0
 40
1.0
176
     0
  0
VISUALSTYLE
  5
37
102
{ACAD_REACTORS
330
29
102
}
330
29
100
AcDbVisualStyle
  2
Linepattern
 70
    14
177
     3
291
     1
 70
    58
 90
        2
176
     1
 90
        2
176
     1
 90
        0
176
     1
 90
        0
176
     1
 40
0.6
176
     1
 40
30.0
176
     1
 62
     7
420
 16777215
176
     1
 90
        1
176
     1
 90
        4
176
     1
 62
     7
176
     1
 62
   257
176
     1
 90
        7
176
     1
 90
        7
176
     1
 40
1.0
176
     1
 90
        8
176
     1
 62
     7
176
     1
 40
1.0
176
     1
 90
        1
176
     1
 90
        6
176
     1
 90
        2
176
     1
 62
     7
176
     1
 90
        5
176
     1
 90
        0
176
     1
 90
        0
176
     1
290
     0
176
     1
 90
        1
176
     1
 40
0.0
176
     1
 90
        0
176
     1
290
     0
176
     1
290
     1
176
     1
290
     1
176
     1
290
     0
176
     1
290
     0
176
     1
290
     0
176
     1
290
     0
176
     1
290
     0
176
     1
290
     0
176
     1
 90
       50
176
     1
 40
0.0
176
     1
 40
1.0
176
     1
 90
        0
176
     1
 62
    18
420
        0
176
     1
 90
       50
176
     1
 90
        3
176
     1
 62
     5
420
      255
176
     1
290
     0
176
     1
 90
       50
176
     1
 90
       50
176
     1
 90
       50
176
     1
290
     0
176
     1
 90
       50
176
     1
 62
   256
176
     0
 40
1.0
176
     0
 90
        2
176
     1
  1
strokes_ogs.tif
176
     1
290
     0
176
     1
 40
1.0
176
     1
 40
1.0
176
     1
  0
VISUALSTYLE
  5
40
102
{ACAD_REACTORS
330
29
102
}
330
29
100
AcDbVisualStyle
  2
OverhangOff
 70
    21
177
     3
291
     1
 70
    58
 90
        2
176
     0
 90
        2
176
     0
 90
        0
176
     0
 90
        0
176
     0
 40
0.6
176
     0
 40
30.0
176
     0
 62
     7
420
 16777215
176
     0
 90
        1
176
     0
 90
        4
176
     0
 62
     7
176
     0
 62
   257
176
     0
 90
        1
176
     0
 90
        1
176
     0
 40
1.0
176
     0
 90
        9
176
     2
 62
     7
176
     0
 40
1.0
176
     0
 90
        1
176
     0
 90
        6
176
     0
 90
        2
176
     0
 62
     7
176
     0
 90
        5
176
     0
 90
        0
176
     0
 90
        0
176
     0
290
     0
176
     0
 90
        1
176
     0
 40
0.0
176
     0
 90
        0
176
     0
290
     0
176
     1
290
     1
176
     1
290
     1
176
     1
290
     0
176
     1
290
     0
176
     1
290
     0
176
     1
290
     0
176
     1
290
     0
176
     1
290
     0
176
     1
 90
       50
176
     0
 40
0.0
176
     0
 40
1.0
176
     0
 90
        0
176
     0
 62
    18
420
        0
176
     0
 90
       50
176
     0
 90
        3
176
     0
 62
     5
420
      255
176
     0
290
     0
176
     1
 90
       50
176
     0
 90
       50
176
     0
 90
       50
176
     0
290
     0
176
     1
 90
       50
176
     0
 62
   256
176
     0
 40
1.0
176
     0
 90
        2
176
     0
  1
strokes_ogs.tif
176
     0
290
     0
176
     1
 40
1.0
176
     0
 40
1.0
176
     0
  0
VISUALSTYLE
  5
33
102
{ACAD_REACTORS
330
29
102
}
330
29
100
AcDbVisualStyle
  2
Realistic
 70
     8
177
     3
291
     0
 70
    58
 90
        2
176
     1
 90
        3
176
     1
 90
        0
176
     1
 90
        2
176
     1
 40
0.6
176
     1
 40
30.0
176
     1
 62
     7
420
 16777215
176
     1
 90
        0
176
     1
 90
        0
176
     1
 62
     7
176
     1
 62
   257
176
     1
 90
        1
176
     1
 90
        1
176
     1
 40
1.0
176
     1
 90
        8
176
     1
 62
   257
176
     1
 40
1.0
176
     1
 90
        1
176
     1
 90
        6
176
     1
 90
        2
176
     1
 62
     7
176
     1
 90
        3
176
     1
 90
        0
176
     1
 90
        0
176
     1
290
     0
176
     1
 90
       13
176
     1
 40
0.0
176
     1
 90
        0
176
     1
290
     0
176
     1
290
     1
176
     1
290
     1
176
     1
290
     0
176
     1
290
     0
176
     1
290
     0
176
     1
290
     0
176
     1
290
     0
176
     1
290
     0
176
     1
 90
       50
176
     1
 40
0.0
176
     1
 40
1.0
176
     1
 90
        0
176
     1
 62
    18
420
        0
176
     1
 90
       50
176
     1
 90
        3
176
     1
 62
     5
420
      255
176
     1
290
     0
176
     1
 90
       50
176
     1
 90
       50
176
     1
 90
       50
176
     1
290
     0
176
     1
 90
       50
176
     1
 62
   256
176
     0
 40
1.0
176
     0
 90
        2
176
     1
  1
strokes_ogs.tif
176
     1
290
     0
176
     1
 40
1.0
176
     1
 40
1.0
176
     1
  0
VISUALSTYLE
  5
3E
102
{ACAD_REACTORS
330
29
102
}
330
29
100
AcDbVisualStyle
  2
Shaded
 70
    27
177
     3
291
     0
 70
    58
 90
        2
176
     1
 90
        2
176
     1
 90
        1
176
     1
 90
        2
176
     1
 40
0.6
176
     1
 40
30.0
176
     1
 62
     7
420
 16777215
176
     1
 90
        0
176
     1
 90
        4
176
     1
 62
     7
176
     1
 62
   257
176
     1
 90
        1
176
     1
 90
        1
176
     1
 40
1.0
176
     1
 90
        8
176
     1
 62
   257
176
     1
 40
1.0
176
     1
 90
        1
176
     1
 90
        6
176
     1
 90
        2
176
     1
 62
     8
420
  7895160
176
     1
 90
        3
176
     1
 90
        0
176
     1
 90
        0
176
     1
290
     0
176
     1
 90
        5
176
     1
 40
0.0
176
     1
 90
        0
176
     1
290
     0
176
     1
290
     1
176
     1
290
     1
176
     1
290
     0
176
     1
290
     0
176
     1
290
     0
176
     1
290
     0
176
     1
290
     0
176
     1
290
     0
176
     1
 90
       50
176
     1
 40
0.0
176
     1
 40
1.0
176
     1
 90
        0
176
     1
 62
    18
420
        0
176
     1
 90
       50
176
     1
 90
        3
176
     1
 62
     5
420
      255
176
     1
290
     0
176
     1
 90
       50
176
     1
 90
       50
176
     1
 90
       50
176
     1
290
     0
176
     1
 90
       50
176
     1
 62
   256
176
     0
 40
1.0
176
     0
 90
        2
176
     1
  1
strokes_ogs.tif
176
     1
290
     0
176
     1
 40
1.0
176
     1
 40
1.0
176
     1
  0
VISUALSTYLE
  5
3D
102
{ACAD_REACTORS
330
29
102
}
330
29
100
AcDbVisualStyle
  2
Shaded with edges
 70
    26
177
     3
291
     0
 70
    58
 90
        2
176
     1
 90
        2
176
     1
 90
        1
176
     1
 90
        2
176
     1
 40
0.6
176
     1
 40
30.0
176
     1
 62
     7
420
 16777215
176
     1
 90
        1
176
     1
 90
        2
176
     1
 62
     7
176
     1
 62
   257
176
     1
 90
        2
176
     1
 90
        1
176
     1
 40
1.0
176
     1
 90
        8
176
     1
 62
   257
176
     1
 40
1.0
176
     1
 90
        1
176
     1
 90
        6
176
     1
 90
        2
176
     1
 62
     7
176
     1
 90
        3
176
     1
 90
        0
176
     1
 90
        0
176
     1
290
     0
176
     1
 90
        5
176
     1
 40
0.0
176
     1
 90
        0
176
     1
290
     0
176
     1
290
     1
176
     1
290
     1
176
     1
290
     0
176
     1
290
     0
176
     1
290
     0
176
     1
290
     0
176
     1
290
     0
176
     1
290
     0
176
     1
 90
       50
176
     1
 40
0.0
176
     1
 40
1.0
176
     1
 90
        0
176
     1
 62
    18
420
        0
176
     1
 90
       50
176
     1
 90
        3
176
     1
 62
     5
420
      255
176
     1
290
     0
176
     1
 90
       50
176
     1
 90
       50
176
     1
 90
       50
176
     1
290
     0
176
     1
 90
       50
176
     1
 62
   256
176
     0
 40
1.0
176
     0
 90
        2
176
     1
  1
strokes_ogs.tif
176
     1
290
     0
176
     1
 40
1.0
176
     1
 40
1.0
176
     1
  0
VISUALSTYLE
  5
3A
102
{ACAD_REACTORS
330
29
102
}
330
29
100
AcDbVisualStyle
  2
Shades of Gray
 70
    23
177
     3
291
     0
 70
    58
 90
        2
176
     1
 90
        2
176
     1
 90
        3
176
     1
 90
        0
176
     1
 40
0.6
176
     1
 40
30.0
176
     1
 62
     7
420
 16777215
176
     1
 90
        2
176
     1
 90
        2
176
     1
 62
     7
176
     1
 62
     7
176
     1
 90
        1
176
     1
 90
        1
176
     1
 40
40.0
176
     1
 90
        8
176
     1
 62
     7
176
     1
 40
1.0
176
     1
 90
        1
176
     1
 90
        6
176
     1
 90
        2
176
     1
 62
     7
176
     1
 90
        3
176
     1
 90
        0
176
     1
 90
        0
176
     1
290
     0
176
     1
 90
        1
176
     1
 40
0.0
176
     1
 90
        0
176
     1
290
     0
176
     1
290
     1
176
     1
290
     1
176
     1
290
     0
176
     1
290
     0
176
     1
290
     0
176
     1
290
     0
176
     1
290
     0
176
     1
290
     0
176
     1
 90
       50
176
     1
 40
0.0
176
     1
 40
1.0
176
     1
 90
        0
176
     1
 62
    18
420
        0
176
     1
 90
       50
176
     1
 90
        3
176
     1
 62
     5
420
      255
176
     1
290
     0
176
     1
 90
       50
176
     1
 90
       50
176
     1
 90
       50
176
     1
290
     0
176
     1
 90
       50
176
     1
 62
   256
176
     0
 40
1.0
176
     0
 90
        2
176
     1
  1
strokes_ogs.tif
176
     1
290
     0
176
     1
 40
1.0
176
     1
 40
1.0
176
     1
  0
VISUALSTYLE
  5
3B
102
{ACAD_REACTORS
330
29
102
}
330
29
100
AcDbVisualStyle
  2
Sketchy
 70
    24
177
     3
291
     0
 70
    58
 90
        1
176
     1
 90
        2
176
     1
 90
        2
176
     1
 90
        0
176
     1
 40
0.6
176
     1
 40
30.0
176
     1
 62
     7
420
 16777215
176
     1
 90
        2
176
     1
 90
        2
176
     1
 62
     7
176
     1
 62
     7
176
     1
 90
        1
176
     1
 90
        1
176
     1
 40
40.0
176
     1
 90
       11
176
     1
 62
     7
176
     1
 40
1.0
176
     1
 90
        1
176
     1
 90
        6
176
     1
 90
        2
176
     1
 62
     7
176
     1
 90
        6
176
     1
 90
        0
176
     1
 90
        0
176
     1
290
     0
176
     1
 90
        1
176
     1
 40
0.0
176
     1
 90
        0
176
     1
290
     0
176
     1
290
     1
176
     1
290
     1
176
     1
290
     0
176
     1
290
     0
176
     1
290
     0
176
     1
290
     0
176
     1
290
     0
176
     1
290
     0
176
     1
 90
       50
176
     1
 40
0.0
176
     1
 40
1.0
176
     1
 90
        0
176
     1
 62
    18
420
        0
176
     1
 90
       50
176
     1
 90
        3
176
     1
 62
     5
420
      255
176
     1
290
     0
176
     1
 90
       50
176
     1
 90
       50
176
     1
 90
       50
176
     1
290
     0
176
     1
 90
       50
176
     1
 62
   256
176
     0
 40
1.0
176
     0
 90
        2
176
     1
  1
strokes_ogs.tif
176
     1
290
     0
176
     1
 40
1.0
176
     1
 40
1.0
176
     1
  0
VISUALSTYLE
  5
36
102
{ACAD_REACTORS
330
29
102
}
330
29
100
AcDbVisualStyle
  2
Thicken
 70
    13
177
     3
291
     1
 70
    58
 90
        2
176
     1
 90
        2
176
     1
 90
        0
176
     1
 90
        0
176
     1
 40
0.6
176
     1
 40
30.0
176
     1
 62
     7
420
 16777215
176
     1
 90
        1
176
     1
 90
        4
176
     1
 62
     7
176
     1
 62
   257
176
     1
 90
        1
176
     1
 90
        1
176
     1
 40
1.0
176
     1
 90
       12
176
     1
 62
     7
176
     1
 40
1.0
176
     1
 90
        1
176
     1
 90
        6
176
     1
 90
        2
176
     1
 62
     7
176
     1
 90
        5
176
     1
 90
        0
176
     1
 90
        0
176
     1
290
     0
176
     1
 90
        1
176
     1
 40
0.0
176
     1
 90
        0
176
     1
290
     0
176
     1
290
     1
176
     1
290
     1
176
     1
290
     0
176
     1
290
     0
176
     1
290
     0
176
     1
290
     0
176
     1
290
     0
176
     1
290
     0
176
     1
 90
       50
176
     1
 40
0.0
176
     1
 40
1.0
176
     1
 90
        0
176
     1
 62
    18
420
        0
176
     1
 90
       50
176
     1
 90
        3
176
     1
 62
     5
420
      255
176
     1
290
     0
176
     1
 90
       50
176
     1
 90
       50
176
     1
 90
       50
176
     1
290
     0
176
     1
 90
       50
176
     1
 62
   256
176
     0
 40
1.0
176
     0
 90
        2
176
     1
  1
strokes_ogs.tif
176
     1
290
     0
176
     1
 40
1.0
176
     1
 40
1.0
176
     1
  0
VISUALSTYLE
  5
30
102
{ACAD_REACTORS
330
29
102
}
330
29
100
AcDbVisualStyle
  2
Wireframe
 70
     5
177
     3
291
     0
 70
    58
 90
        0
176
     1
 90
        2
176
     1
 90
        0
176
     1
 90
        0
176
     1
 40
0.6
176
     1
 40
30.0
176
     1
 62
     7
420
 16777215
176
     1
 90
        1
176
     1
 90
        4
176
     1
 62
     7
176
     1
 62
   257
176
     1
 90
        1
176
     1
 90
        1
176
     1
 40
1.0
176
     1
 90
        0
176
     1
 62
   257
176
     1
 40
1.0
176
     1
 90
        1
176
     1
 90
        6
176
     1
 90
        2
176
     1
 62
     7
176
     1
 90
        3
176
     1
 90
        0
176
     1
 90
        0
176
     1
290
     0
176
     1
 90
        1
176
     1
 40
0.0
176
     1
 90
        0
176
     1
290
     0
176
     1
290
     1
176
     1
290
     1
176
     1
290
     0
176
     1
290
     0
176
     1
290
     0
176
     1
290
     0
176
     1
290
     0
176
     1
290
     0
176
     1
 90
       50
176
     1
 40
0.0
176
     1
 40
1.0
176
     1
 90
        0
176
     1
 62
    18
420
        0
176
     1
 90
       50
176
     1
 90
        3
176
     1
 62
     5
420
      255
176
     1
290
     0
176
     1
 90
       50
176
     1
 90
       50
176
     1
 90
       50
176
     1
290
     0
176
     1
 90
       50
176
     1
 62
   256
176
     0
 40
1.0
176
     0
 90
        2
176
     1
  1
strokes_ogs.tif
176
     1
290
     0
176
     1
 40
1.0
176
     1
 40
1.0
176
     1
  0
VISUALSTYLE
  5
3C
102
{ACAD_REACTORS
330
29
102
}
330
29
100
AcDbVisualStyle
  2
X-Ray
 70
    25
177
     3
291
     0
 70
    58
 90
        2
176
     1
 90
        2
176
     1
 90
        1
176
     1
 90
        1
176
     1
 40
0.5
176
     1
 40
30.0
176
     1
 62
     7
420
 16777215
176
     1
 90
        1
176
     1
 90
        0
176
     1
 62
     7
176
     1
 62
   257
176
     1
 90
        1
176
     1
 90
        1
176
     1
 40
1.0
176
     1
 90
        8
176
     1
 62
     7
176
     1
 40
1.0
176
     1
 90
        1
176
     1
 90
        6
176
     1
 90
        2
176
     1
 62
     7
176
     1
 90
        3
176
     1
 90
        0
176
     1
 90
        0
176
     1
290
     0
176
     1
 90
       13
176
     1
 40
0.0
176
     1
 90
        0
176
     1
290
     0
176
     1
290
     1
176
     1
290
     1
176
     1
290
     0
176
     1
290
     0
176
     1
290
     0
176
     1
290
     0
176
     1
290
     0
176
     1
290
     0
176
     1
 90
       50
176
     1
 40
0.0
176
     1
 40
1.0
176
     1
 90
        0
176
     1
 62
    18
420
        0
176
     1
 90
       50
176
     1
 90
        3
176
     1
 62
     5
420
      255
176
     1
290
     0
176
     1
 90
       50
176
     1
 90
       50
176
     1
 90
       50
176
     1
290
     0
176
     1
 90
       50
176
     1
 62
   256
176
     0
 40
1.0
176
     0
 90
        2
176
     1
  1
strokes_ogs.tif
176
     1
290
     0
176
     1
 40
1.0
176
     1
 40
1.0
176
     1
  0
DICTIONARYVAR
  5
667
102
{ACAD_REACTORS
330
661
102
}
330
661
100
DictionaryVariables
280
     0
  1
1:1
  0
DICTIONARYVAR
  5
663
102
{ACAD_REACTORS
330
661
102
}
330
661
100
DictionaryVariables
280
     0
  1
STANDARD
  0
DICTIONARYVAR
  5
662
102
{ACAD_REACTORS
330
661
102
}
330
661
100
DictionaryVariables
280
     0
  1
STANDARD
  0
DICTIONARYVAR
  5
664
102
{ACAD_REACTORS
330
661
102
}
330
661
100
DictionaryVariables
280
     0
  1
Imperial24
  0
DICTIONARYVAR
  5
665
102
{ACAD_REACTORS
330
661
102
}
330
661
100
DictionaryVariables
280
     0
  1
Imperial24
  0
DICTIONARYVAR
  5
669
102
{ACAD_REACTORS
330
661
102
}
330
661
100
DictionaryVariables
280
     0
  1
1
  0
DICTIONARYVAR
  5
66A
102
{ACAD_REACTORS
330
661
102
}
330
661
100
DictionaryVariables
280
     0
  1
15
  0
DICTIONARYVAR
  5
668
102
{ACAD_REACTORS
330
661
102
}
330
661
100
DictionaryVariables
280
     0
  1
0
  0
DICTIONARYVAR
  5
666
102
{ACAD_REACTORS
330
661
102
}
330
661
100
DictionaryVariables
280
     0
  1
0
  0
DICTIONARY
  5
1A
330
19
100
AcDbDictionary
280
     1
281
     1
  3
BUMPTILE
360
1C
  3
DIFFUSETILE
360
1B
  3
OPACITYTILE
360
1F
  3
REFLECTIONTILE
360
1E
  3
REFRACTIONTILE
360
20
  3
SPECULARTILE
360
1D
  0
DICTIONARY
  5
12
330
11
100
AcDbDictionary
280
     1
281
     1
  3
BUMPTILE
360
14
  3
DIFFUSETILE
360
13
  3
OPACITYTILE
360
17
  3
REFLECTIONTILE
360
16
  3
REFRACTIONTILE
360
18
  3
SPECULARTILE
360
15
  0
DICTIONARY
  5
22
330
21
100
AcDbDictionary
280
     1
281
     1
  3
BUMPTILE
360
24
  3
DIFFUSETILE
360
23
  3
OPACITYTILE
360
27
  3
REFLECTIONTILE
360
26
  3
REFRACTIONTILE
360
28
  3
SPECULARTILE
360
25
  0
DICTIONARY
  5
66C
330
64
100
AcDbDictionary
280
     1
281
     1
  3
ACAD_ROUNDTRIP_2008_TABLESTYLE_CELLSTYLEMAP
360
66D
  0
XRECORD
  5
1C
102
{ACAD_REACTORS
330
1A
102
}
330
1A
100
AcDbXrecord
280
     1
270
     1
271
     1
  0
XRECORD
  5
1B
102
{ACAD_REACTORS
330
1A
102
}
330
1A
100
AcDbXrecord
280
     1
270
     1
271
     1
  0
XRECORD
  5
1F
102
{ACAD_REACTORS
330
1A
102
}
330
1A
100
AcDbXrecord
280
     1
270
     1
271
     1
  0
XRECORD
  5
1E
102
{ACAD_REACTORS
330
1A
102
}
330
1A
100
AcDbXrecord
280
     1
270
     1
271
     1
  0
XRECORD
  5
20
102
{ACAD_REACTORS
330
1A
102
}
330
1A
100
AcDbXrecord
280
     1
270
     1
271
     1
  0
XRECORD
  5
1D
102
{ACAD_REACTORS
330
1A
102
}
330
1A
100
AcDbXrecord
280
     1
270
     1
271
     1
  0
XRECORD
  5
14
102
{ACAD_REACTORS
330
12
102
}
330
12
100
AcDbXrecord
280
     1
270
     1
271
     1
  0
XRECORD
  5
13
102
{ACAD_REACTORS
330
12
102
}
330
12
100
AcDbXrecord
280
     1
270
     1
271
     1
  0
XRECORD
  5
17
102
{ACAD_REACTORS
330
12
102
}
330
12
100
AcDbXrecord
280
     1
270
     1
271
     1
  0
XRECORD
  5
16
102
{ACAD_REACTORS
330
12
102
}
330
12
100
AcDbXrecord
280
     1
270
     1
271
     1
  0
XRECORD
  5
18
102
{ACAD_REACTORS
330
12
102
}
330
12
100
AcDbXrecord
280
     1
270
     1
271
     1
  0
XRECORD
  5
15
102
{ACAD_REACTORS
330
12
102
}
330
12
100
AcDbXrecord
280
     1
270
     1
271
     1
  0
XRECORD
  5
24
102
{ACAD_REACTORS
330
22
102
}
330
22
100
AcDbXrecord
280
     1
270
     1
271
     1
  0
XRECORD
  5
23
102
{ACAD_REACTORS
330
22
102
}
330
22
100
AcDbXrecord
280
     1
270
     1
271
     1
  0
XRECORD
  5
27
102
{ACAD_REACTORS
330
22
102
}
330
22
100
AcDbXrecord
280
     1
270
     1
271
     1
  0
XRECORD
  5
26
102
{ACAD_REACTORS
330
22
102
}
330
22
100
AcDbXrecord
280
     1
270
     1
271
     1
  0
XRECORD
  5
28
102
{ACAD_REACTORS
330
22
102
}
330
22
100
AcDbXrecord
280
     1
270
     1
271
     1
  0
XRECORD
  5
25
102
{ACAD_REACTORS
330
22
102
}
330
22
100
AcDbXrecord
280
     1
270
     1
271
     1
  0
CELLSTYLEMAP
  5
66D
102
{ACAD_REACTORS
330
66C
102
}
330
66C
100
AcDbCellStyleMap
 90
        3
300
CELLSTYLE
  1
TABLEFORMAT_BEGIN
 90
        5
170
     1
 91
        0
 92
    32768
 62
   257
 93
        1
300
CONTENTFORMAT
  1
CONTENTFORMAT_BEGIN
 90
        0
 91
        0
 92
      512
 93
        0
300

 40
0.0
140
1.0
 94
        5
 62
     0
340
55
144
0.25
309
CONTENTFORMAT_END
171
     0
 94
        0
309
TABLEFORMAT_END
  1
CELLSTYLE_BEGIN
 90
        1
 91
        1
300
_TITLE
309
CELLSTYLE_END
300
CELLSTYLE
  1
TABLEFORMAT_BEGIN
 90
        5
170
     1
 91
        0
 92
        0
 62
   257
 93
        1
300
CONTENTFORMAT
  1
CONTENTFORMAT_BEGIN
 90
        0
 91
        0
 92
      512
 93
        0
300

 40
0.0
140
1.0
 94
        5
 62
     0
340
55
144
0.18
309
CONTENTFORMAT_END
171
     0
 94
        0
309
TABLEFORMAT_END
  1
CELLSTYLE_BEGIN
 90
        2
 91
        1
300
_HEADER
309
CELLSTYLE_END
300
CELLSTYLE
  1
TABLEFORMAT_BEGIN
 90
        5
170
     1
 91
        0
 92
        0
 62
   257
 93
        1
300
CONTENTFORMAT
  1
CONTENTFORMAT_BEGIN
 90
        0
 91
        0
 92
      512
 93
        0
300

 40
0.0
140
1.0
 94
        2
 62
     0
340
55
144
0.18
309
CONTENTFORMAT_END
171
     0
 94
        0
309
TABLEFORMAT_END
  1
CELLSTYLE_BEGIN
 90
        3
 91
        2
300
_DATA
309
CELLSTYLE_END
  0
ENDSEC
  0
EOF
