  0
SECTION
  2
HEADER
  9
$ACADVER
  1
AC1032
  9
$ACADMAINTVER
 90
      197
  9
$DWGCODEPAGE
  3
ANSI_932
  9
$LASTSAVEDBY
  1
hiro-ichiyama
  9
$REQUIREDVERSIONS
160
                 0
  9
$INSBASE
 10
0.0
 20
0.0
 30
0.0
  9
$EXTMIN
 10
33.21607020415422
 20
27.50035294226882
 30
-0.0000000349181948
  9
$EXTMAX
 10
793.6254795757941
 20
574.6841904908465
 30
0.0000000814935747
  9
$LIMMIN
 10
0.0
 20
0.0
  9
$LIMMAX
 10
594.0
 20
841.0
  9
$ORTHOMODE
 70
     0
  9
$REGENMODE
 70
     1
  9
$FILLMODE
 70
     1
  9
$QTEXTMODE
 70
     0
  9
$MIRRTEXT
 70
     0
  9
$LTSCALE
 40
20.0
  9
$ATTMODE
 70
     1
  9
$TEXTSIZE
 40
5.300000190734863
  9
$TRACEWID
 40
0.05
  9
$TEXTSTYLE
  7
STANDARD
  9
$CLAYER
  8
0
  9
$CELTYPE
  6
CONTINUOUS
  9
$CECOLOR
 62
   256
  9
$CELTSCALE
 40
1.0
  9
$DISPSILH
 70
     0
  9
$DIMSCALE
 40
1.0
  9
$DIMASZ
 40
1.0
  9
$DIMEXO
 40
0.8
  9
$DIMDLI
 40
0.38
  9
$DIMRND
 40
0.0
  9
$DIMDLE
 40
0.0
  9
$DIMEXE
 40
2.0
  9
$DIMTP
 40
0.0
  9
$DIMTM
 40
0.0
  9
$DIMTXT
 40
3.1
  9
$DIMCEN
 40
0.09
  9
$DIMTSZ
 40
0.0
  9
$DIMTOL
 70
     0
  9
$DIMLIM
 70
     0
  9
$DIMTIH
 70
     0
  9
$DIMTOH
 70
     0
  9
$DIMSE1
 70
     0
  9
$DIMSE2
 70
     0
  9
$DIMTAD
 70
     1
  9
$DIMZIN
 70
     0
  9
$DIMBLK
  1

  9
$DIMASO
 70
     1
  9
$DIMSHO
 70
     1
  9
$DIMPOST
  1

  9
$DIMAPOST
  1

  9
$DIMALT
 70
     0
  9
$DIMALTD
 70
     2
  9
$DIMALTF
 40
25.4
  9
$DIMLFAC
 40
1.0
  9
$DIMTOFL
 70
     0
  9
$DIMTVP
 40
0.5
  9
$DIMTIX
 70
     0
  9
$DIMSOXD
 70
     0
  9
$DIMSAH
 70
     0
  9
$DIMBLK1
  1

  9
$DIMBLK2
  1

  9
$DIMSTYLE
  2
Standard
  9
$DIMCLRD
 70
     0
  9
$DIMCLRE
 70
     0
  9
$DIMCLRT
 70
     0
  9
$DIMTFAC
 40
1.0
  9
$DIMGAP
 40
0.09
  9
$DIMJUST
 70
     0
  9
$DIMSD1
 70
     0
  9
$DIMSD2
 70
     0
  9
$DIMTOLJ
 70
     1
  9
$DIMTZIN
 70
     0
  9
$DIMALTZ
 70
     0
  9
$DIMALTTZ
 70
     0
  9
$DIMUPT
 70
     0
  9
$DIMDEC
 70
     4
  9
$DIMTDEC
 70
     4
  9
$DIMALTU
 70
     2
  9
$DIMALTTD
 70
     2
  9
$DIMTXSTY
  7
STANDARD
  9
$DIMAUNIT
 70
     0
  9
$DIMADEC
 70
     0
  9
$DIMALTRND
 40
0.0
  9
$DIMAZIN
 70
     0
  9
$DIMDSEP
 70
    46
  9
$DIMATFIT
 70
     3
  9
$DIMFRAC
 70
     0
  9
$DIMLDRBLK
  1

  9
$DIMLUNIT
 70
     2
  9
$DIMLWD
 70
    -2
  9
$DIMLWE
 70
    -2
  9
$DIMTMOVE
 70
     0
  9
$DIMFXL
 40
1.0
  9
$DIMFXLON
 70
     0
  9
$DIMJOGANG
 40
0.7853981633974483
  9
$DIMTFILL
 70
     0
  9
$DIMTFILLCLR
 70
     0
  9
$DIMARCSYM
 70
     0
  9
$DIMLTYPE
  6

  9
$DIMLTEX1
  6

  9
$DIMLTEX2
  6

  9
$DIMTXTDIRECTION
 70
     0
  9
$LUNITS
 70
     2
  9
$LUPREC
 70
     4
  9
$SKETCHINC
 40
0.1
  9
$FILLETRAD
 40
0.0
  9
$AUNITS
 70
     0
  9
$AUPREC
 70
     0
  9
$MENU
  1
.
  9
$ELEVATION
 40
0.0
  9
$PELEVATION
 40
0.0
  9
$THICKNESS
 40
0.0
  9
$LIMCHECK
 70
     0
  9
$CHAMFERA
 40
0.0
  9
$CHAMFERB
 40
0.0
  9
$CHAMFERC
 40
0.0
  9
$CHAMFERD
 40
0.0
  9
$SKPOLY
 70
     0
  9
$TDCREATE
 40
2459991.738240741
  9
$TDUCREATE
 40
2459991.363240741
  9
$TDUPDATE
 40
2459991.752708334
  9
$TDUUPDATE
 40
2459991.377708333
  9
$TDINDWG
 40
0.0039699074
  9
$TDUSRTIMER
 40
0.0039699074
  9
$USRTIMER
 70
     1
  9
$ANGBASE
 50
0.0
  9
$ANGDIR
 70
     0
  9
$PDMODE
 70
     0
  9
$PDSIZE
 40
0.0
  9
$PLINEWID
 40
0.0
  9
$SPLFRAME
 70
     0
  9
$SPLINETYPE
 70
     6
  9
$SPLINESEGS
 70
     8
  9
$HANDSEED
  5
61F
  9
$SURFTAB1
 70
     6
  9
$SURFTAB2
 70
     6
  9
$SURFTYPE
 70
     6
  9
$SURFU
 70
     6
  9
$SURFV
 70
     6
  9
$UCSBASE
  2

  9
$UCSNAME
  2

  9
$UCSORG
 10
0.0
 20
0.0
 30
0.0
  9
$UCSXDIR
 10
1.0
 20
0.0
 30
0.0
  9
$UCSYDIR
 10
0.0
 20
1.0
 30
0.0
  9
$UCSORTHOREF
  2

  9
$UCSORTHOVIEW
 70
     0
  9
$UCSORGTOP
 10
0.0
 20
0.0
 30
0.0
  9
$UCSORGBOTTOM
 10
0.0
 20
0.0
 30
0.0
  9
$UCSORGLEFT
 10
0.0
 20
0.0
 30
0.0
  9
$UCSORGRIGHT
 10
0.0
 20
0.0
 30
0.0
  9
$UCSORGFRONT
 10
0.0
 20
0.0
 30
0.0
  9
$UCSORGBACK
 10
0.0
 20
0.0
 30
0.0
  9
$PUCSBASE
  2

  9
$PUCSNAME
  2

  9
$PUCSORG
 10
0.0
 20
0.0
 30
0.0
  9
$PUCSXDIR
 10
1.0
 20
0.0
 30
0.0
  9
$PUCSYDIR
 10
0.0
 20
1.0
 30
0.0
  9
$PUCSORTHOREF
  2

  9
$PUCSORTHOVIEW
 70
     0
  9
$PUCSORGTOP
 10
0.0
 20
0.0
 30
0.0
  9
$PUCSORGBOTTOM
 10
0.0
 20
0.0
 30
0.0
  9
$PUCSORGLEFT
 10
0.0
 20
0.0
 30
0.0
  9
$PUCSORGRIGHT
 10
0.0
 20
0.0
 30
0.0
  9
$PUCSORGFRONT
 10
0.0
 20
0.0
 30
0.0
  9
$PUCSORGBACK
 10
0.0
 20
0.0
 30
0.0
  9
$USERI1
 70
     0
  9
$USERI2
 70
     0
  9
$USERI3
 70
     0
  9
$USERI4
 70
     0
  9
$USERI5
 70
     0
  9
$USERR1
 40
0.0
  9
$USERR2
 40
0.0
  9
$USERR3
 40
0.0
  9
$USERR4
 40
0.0
  9
$USERR5
 40
0.0
  9
$WORLDVIEW
 70
     1
  9
$SHADEDGE
 70
     3
  9
$SHADEDIF
 70
    70
  9
$TILEMODE
 70
     1
  9
$MAXACTVP
 70
    64
  9
$PINSBASE
 10
0.0
 20
0.0
 30
0.0
  9
$PLIMCHECK
 70
     0
  9
$PEXTMIN
 10
1.000000000000000E+20
 20
1.000000000000000E+20
 30
1.000000000000000E+20
  9
$PEXTMAX
 10
-1.000000000000000E+20
 20
-1.000000000000000E+20
 30
-1.000000000000000E+20
  9
$PLIMMIN
 10
0.0
 20
0.0
  9
$PLIMMAX
 10
12.0
 20
9.0
  9
$UNITMODE
 70
     0
  9
$VISRETAIN
 70
     1
  9
$PLINEGEN
 70
     0
  9
$PSLTSCALE
 70
     1
  9
$TREEDEPTH
 70
  3020
  9
$CMLSTYLE
  2
Standard
  9
$CMLJUST
 70
     0
  9
$CMLSCALE
 40
1.0
  9
$PROXYGRAPHICS
 70
     1
  9
$MEASUREMENT
 70
     1
  9
$CELWEIGHT
370
    -1
  9
$ENDCAPS
280
     0
  9
$JOINSTYLE
280
     0
  9
$LWDISPLAY
290
     0
  9
$INSUNITS
 70
     0
  9
$HYPERLINKBASE
  1

  9
$STYLESHEET
  1

  9
$XEDIT
290
     1
  9
$CEPSNTYPE
380
     0
  9
$PSTYLEMODE
290
     1
  9
$FINGERPRINTGUID
  2
{6796C39A-9AD2-8443-AC85-0937F77E8794}
  9
$VERSIONGUID
  2
{541B6E21-C931-AE42-A95C-EEEED3555CD9}
  9
$EXTNAMES
290
     1
  9
$PSVPSCALE
 40
0.0
  9
$OLESTARTUP
290
     0
  9
$SORTENTS
280
   127
  9
$INDEXCTL
280
     0
  9
$HIDETEXT
280
     0
  9
$XCLIPFRAME
280
     2
  9
$HALOGAP
280
     0
  9
$OBSCOLOR
 70
   257
  9
$OBSLTYPE
280
     0
  9
$INTERSECTIONDISPLAY
280
     0
  9
$INTERSECTIONCOLOR
 70
   257
  9
$DIMASSOC
280
     1
  9
$PROJECTNAME
  1

  9
$CAMERADISPLAY
290
     0
  9
$LENSLENGTH
 40
50.0
  9
$CAMERAHEIGHT
 40
0.0
  9
$STEPSPERSEC
 40
2.0
  9
$STEPSIZE
 40
6.0
  9
$3DDWFPREC
 40
2.0
  9
$PSOLWIDTH
 40
0.25
  9
$PSOLHEIGHT
 40
4.0
  9
$LOFTANG1
 40
1.570796326794896
  9
$LOFTANG2
 40
1.570796326794896
  9
$LOFTMAG1
 40
0.0
  9
$LOFTMAG2
 40
0.0
  9
$LOFTPARAM
 70
     7
  9
$LOFTNORMALS
280
     1
  9
$LATITUDE
 40
37.795
  9
$LONGITUDE
 40
-122.394
  9
$NORTHDIRECTION
 40
0.0
  9
$TIMEZONE
 70
 -8000
  9
$LIGHTGLYPHDISPLAY
280
     1
  9
$TILEMODELIGHTSYNCH
280
     1
  9
$CMATERIAL
347
11
  9
$SOLIDHIST
280
     0
  9
$SHOWHIST
280
     1
  9
$DWFFRAME
280
     2
  9
$DGNFRAME
280
     0
  9
$REALWORLDSCALE
290
     1
  9
$INTERFERECOLOR
 62
     1
  9
$INTERFEREOBJVS
345
33
  9
$INTERFEREVPVS
346
30
  9
$CSHADOW
280
     0
  9
$SHADOWPLANELOCATION
 40
0.0
  0
ENDSEC
  0
SECTION
  2
CLASSES
  0
CLASS
  1
ACDBDICTIONARYWDFLT
  2
AcDbDictionaryWithDefault
  3
ObjectDBX Classes
 90
        0
 91
        1
280
     0
281
     0
  0
CLASS
  1
MATERIAL
  2
AcDbMaterial
  3
ObjectDBX Classes
 90
     1153
 91
        3
280
     0
281
     0
  0
CLASS
  1
VISUALSTYLE
  2
AcDbVisualStyle
  3
ObjectDBX Classes
 90
     4095
 91
       24
280
     0
281
     0
  0
CLASS
  1
SCALE
  2
AcDbScale
  3
ObjectDBX Classes
 90
     1153
 91
       17
280
     0
281
     0
  0
CLASS
  1
TABLESTYLE
  2
AcDbTableStyle
  3
ObjectDBX Classes
 90
     4095
 91
        1
280
     0
281
     0
  0
CLASS
  1
MLEADERSTYLE
  2
AcDbMLeaderStyle
  3
ACDB_MLEADERSTYLE_CLASS
 90
     4095
 91
        1
280
     0
281
     0
  0
CLASS
  1
ACDBSECTIONVIEWSTYLE
  2
AcDbSectionViewStyle
  3
ObjectDBX Classes
 90
     1025
 91
        2
280
     0
281
     0
  0
CLASS
  1
ACDBDETAILVIEWSTYLE
  2
AcDbDetailViewStyle
  3
ObjectDBX Classes
 90
     1025
 91
        2
280
     0
281
     0
  0
CLASS
  1
DICTIONARYVAR
  2
AcDbDictionaryVar
  3
ObjectDBX Classes
 90
        0
 91
        9
280
     0
281
     0
  0
CLASS
  1
CELLSTYLEMAP
  2
AcDbCellStyleMap
  3
ObjectDBX Classes
 90
     1152
 91
        2
280
     0
281
     0
  0
ENDSEC
  0
SECTION
  2
TABLES
  0
TABLE
  2
VPORT
  5
8
330
0
100
AcDbSymbolTable
 70
     1
  0
VPORT
  5
85
330
8
100
AcDbSymbolTableRecord
100
AcDbViewportTableRecord
  2
*Active
 70
     0
 10
0.0
 20
0.0
 11
1.0
 21
1.0
 12
413.4207748899741
 22
301.0922717165577
 13
0.0
 23
0.0
 14
1.0
 24
1.0
 15
0.0
 25
0.0
 16
0.0
 26
0.0
 36
1.0
 17
0.0
 27
0.0
 37
0.0
 40
551.1585385477198
 41
2.295757575757575
 42
50.0
 43
0.0
 44
0.0
 50
0.0
 51
0.0
 71
     0
 72
   100
 73
     1
 74
     1
 75
     0
 76
     0
 77
     0
 78
     0
281
     0
 65
     1
110
0.0
120
0.0
130
0.0
111
1.0
121
0.0
131
0.0
112
0.0
122
1.0
132
0.0
 79
     0
146
0.0
348
2F
 60
     3
 61
     5
292
     1
282
     1
141
0.0
142
0.0
 63
   250
421
  3355443
1001
ACAD_NAV_VCDISPLAY
1070
     3
  0
ENDTAB
  0
TABLE
  2
LTYPE
  5
5
330
0
100
AcDbSymbolTable
 70
     5
  0
LTYPE
  5
5A
330
5
100
AcDbSymbolTableRecord
100
AcDbLinetypeTableRecord
  2
ByBlock
 70
     0
  3

 72
    65
 73
     0
 40
0.0
  0
LTYPE
  5
5B
330
5
100
AcDbSymbolTableRecord
100
AcDbLinetypeTableRecord
  2
ByLayer
 70
     0
  3

 72
    65
 73
     0
 40
0.0
  0
LTYPE
  5
5C
330
5
100
AcDbSymbolTableRecord
100
AcDbLinetypeTableRecord
  2
CONTINUOUS
 70
     0
  3
Solid line (NEC CAE2D for Win R15.2 : 2020.12.23)
 72
    65
 73
     0
 40
0.0
  0
LTYPE
  5
73
330
5
100
AcDbSymbolTableRecord
100
AcDbLinetypeTableRecord
  2
DASHED
 70
     0
  3
__ __ __ __ __ __ __ __ __ __ __ __ __ _
 72
    65
 73
     2
 40
0.75
 49
0.5
 74
     0
 49
-0.25
 74
     0
  0
LTYPE
  5
74
330
5
100
AcDbSymbolTableRecord
100
AcDbLinetypeTableRecord
  2
HIDDEN
 70
     0
  3
__ __ __ __ __ __ __ __ __ __ __ __ __ __
 72
    65
 73
     2
 40
0.375
 49
0.25
 74
     0
 49
-0.125
 74
     0
  0
LTYPE
  5
75
330
5
100
AcDbSymbolTableRecord
100
AcDbLinetypeTableRecord
  2
CENTER
 70
     0
  3
____ _ ____ _ ____ _ ____ _ ____ _ ____
 72
    65
 73
     4
 40
2.0
 49
1.25
 74
     0
 49
-0.25
 74
     0
 49
0.25
 74
     0
 49
-0.25
 74
     0
  0
ENDTAB
  0
TABLE
  2
LAYER
  5
2
330
0
100
AcDbSymbolTable
 70
    11
  0
LAYER
  5
54
102
{ACAD_XDICTIONARY
360
5EE
102
}
330
2
100
AcDbSymbolTableRecord
100
AcDbLayerTableRecord
  2
0
 70
     0
 62
     7
  6
CONTINUOUS
370
    -3
390
F
347
21
348
0
  0
LAYER
  5
76
102
{ACAD_XDICTIONARY
360
5F0
102
}
330
2
100
AcDbSymbolTableRecord
100
AcDbLayerTableRecord
  2
DXF0
 70
     0
 62
     3
  6
CONTINUOUS
370
    -3
390
F
347
21
348
0
  0
LAYER
  5
77
102
{ACAD_XDICTIONARY
360
5F2
102
}
330
2
100
AcDbSymbolTableRecord
100
AcDbLayerTableRecord
  2
LOUVER
 70
     0
 62
     4
  6
CONTINUOUS
370
    -3
390
F
347
21
348
0
  0
LAYER
  5
78
102
{ACAD_XDICTIONARY
360
5F4
102
}
330
2
100
AcDbSymbolTableRecord
100
AcDbLayerTableRecord
  2
UKEZAI
 70
     0
 62
     5
  6
CONTINUOUS
370
    -3
390
F
347
21
348
0
  0
LAYER
  5
79
102
{ACAD_XDICTIONARY
360
5F6
102
}
330
2
100
AcDbSymbolTableRecord
100
AcDbLayerTableRecord
  2
ANCHOR
 70
     0
 62
     2
  6
CONTINUOUS
370
    -3
390
F
347
21
348
0
  0
LAYER
  5
7A
102
{ACAD_XDICTIONARY
360
5F8
102
}
330
2
100
AcDbSymbolTableRecord
100
AcDbLayerTableRecord
  2
KUTAI
 70
     0
 62
     6
  6
CONTINUOUS
370
    -3
390
F
347
21
348
0
  0
LAYER
  5
7B
102
{ACAD_XDICTIONARY
360
5FA
102
}
330
2
100
AcDbSymbolTableRecord
100
AcDbLayerTableRecord
  2
WASHER
 70
     0
 62
     2
  6
CONTINUOUS
370
    -3
390
F
347
21
348
0
  0
LAYER
  5
7C
102
{ACAD_XDICTIONARY
360
5FC
102
}
330
2
100
AcDbSymbolTableRecord
100
AcDbLayerTableRecord
  2
COMMENT
 70
     0
 62
     3
  6
CONTINUOUS
370
    -3
390
F
347
21
348
0
  0
LAYER
  5
7D
102
{ACAD_XDICTIONARY
360
5FE
102
}
330
2
100
AcDbSymbolTableRecord
100
AcDbLayerTableRecord
  2
WAKU
 70
     0
 62
     1
  6
CONTINUOUS
370
    -3
390
F
347
21
348
0
  0
LAYER
  5
7E
102
{ACAD_XDICTIONARY
360
600
102
}
330
2
100
AcDbSymbolTableRecord
100
AcDbLayerTableRecord
  2
UNTITLED0001023
 70
     0
 62
     6
  6
CONTINUOUS
370
    -3
390
F
347
21
348
0
  0
LAYER
  5
7F
102
{ACAD_XDICTIONARY
360
602
102
}
330
2
100
AcDbSymbolTableRecord
100
AcDbLayerTableRecord
  2
DXF1023
 70
     0
 62
    16
  6
CONTINUOUS
370
    -3
390
F
347
21
348
0
  0
ENDTAB
  0
TABLE
  2
STYLE
  5
3
330
0
100
AcDbSymbolTable
 70
     5
  0
STYLE
  5
55
330
3
100
AcDbSymbolTableRecord
100
AcDbTextStyleTableRecord
  2
STANDARD
 70
     0
 40
0.0
 41
1.0
 50
0.0
 71
     0
 42
5.300000190734863
  3
TXT
  4

  0
STYLE
  5
59
330
3
100
AcDbSymbolTableRecord
100
AcDbTextStyleTableRecord
  2
Annotative
 70
     0
 40
0.0
 41
1.0
 50
0.0
 71
     0
 42
0.2
  3
txt
  4

1001
AcadAnnotative
1000
AnnotativeData
1002
{
1070
     1
1070
     1
1002
}
  0
STYLE
  5
80
330
3
100
AcDbSymbolTableRecord
100
AcDbTextStyleTableRecord
  2
ANKTATE
 70
     4
 40
0.0
 41
1.0
 50
0.0
 71
     0
 42
5.300000190734863
  3
TXT
  4

  0
STYLE
  5
81
330
3
100
AcDbSymbolTableRecord
100
AcDbTextStyleTableRecord
  2
KNJYOKO
 70
     0
 40
0.0
 41
1.0
 50
0.0
 71
     0
 42
5.300000190734863
  3
TXT
  4
BIGFONT
  0
STYLE
  5
82
330
3
100
AcDbSymbolTableRecord
100
AcDbTextStyleTableRecord
  2
KNJTATE
 70
     4
 40
0.0
 41
1.0
 50
0.0
 71
     0
 42
5.300000190734863
  3
TXT
  4
BIGFONT
  0
ENDTAB
  0
TABLE
  2
VIEW
  5
6
330
0
100
AcDbSymbolTable
 70
     0
  0
ENDTAB
  0
TABLE
  2
UCS
  5
7
330
0
100
AcDbSymbolTable
 70
     0
  0
ENDTAB
  0
TABLE
  2
APPID
  5
9
330
0
100
AcDbSymbolTable
 70
     4
  0
APPID
  5
56
330
9
100
AcDbSymbolTableRecord
100
AcDbRegAppTableRecord
  2
ACAD
 70
     0
  0
APPID
  5
5D
330
9
100
AcDbSymbolTableRecord
100
AcDbRegAppTableRecord
  2
AcadAnnotative
 70
     0
  0
APPID
  5
5EC
330
9
100
AcDbSymbolTableRecord
100
AcDbRegAppTableRecord
  2
ACAD_EXEMPT_FROM_CAD_STANDARDS
 70
     0
  0
APPID
  5
60E
330
9
100
AcDbSymbolTableRecord
100
AcDbRegAppTableRecord
  2
ACAD_NAV_VCDISPLAY
 70
     0
  0
ENDTAB
  0
TABLE
  2
DIMSTYLE
  5
A
330
0
100
AcDbSymbolTable
 70
     3
100
AcDbDimStyleTable
 71
     0
  0
DIMSTYLE
105
57
102
{ACAD_REACTORS
330
3E5
330
3E6
330
3E7
330
3E8
330
43E
330
43F
330
48F
330
490
330
491
330
4E1
330
4E2
330
4E3
330
59E
330
59F
330
5A0
330
5A1
330
5A2
330
5A3
330
5A4
330
5A5
330
5A6
330
5A7
330
5A8
330
5A9
102
}
330
A
100
AcDbSymbolTableRecord
100
AcDbDimStyleTableRecord
  2
Standard
 70
     0
340
55
  0
DIMSTYLE
105
58
330
A
100
AcDbSymbolTableRecord
100
AcDbDimStyleTableRecord
  2
Annotative
 70
     0
340
55
1001
AcadAnnotative
1000
AnnotativeData
1002
{
1070
     1
1070
     1
1002
}
  0
ENDTAB
  0
TABLE
  2
BLOCK_RECORD
  5
1
330
0
100
AcDbSymbolTable
 70
    26
  0
BLOCK_RECORD
  5
6F
330
1
100
AcDbSymbolTableRecord
100
AcDbBlockTableRecord
  2
*Model_Space
340
72
 70
     0
280
     1
281
     0
  0
BLOCK_RECORD
  5
6B
330
1
100
AcDbSymbolTableRecord
100
AcDbBlockTableRecord
  2
*Paper_Space
340
6E
 70
     0
280
     1
281
     0
  0
BLOCK_RECORD
  5
86
330
1
100
AcDbSymbolTableRecord
100
AcDbBlockTableRecord
  2
*X0
340
0
102
{BLKREFS
331
225
102
}
 70
     0
280
     1
281
     0
  0
BLOCK_RECORD
  5
97
330
1
100
AcDbSymbolTableRecord
100
AcDbBlockTableRecord
  2
*D1
340
0
 70
     0
280
     1
281
     0
  0
BLOCK_RECORD
  5
A5
330
1
100
AcDbSymbolTableRecord
100
AcDbBlockTableRecord
  2
*D2
340
0
 70
     0
280
     1
281
     0
  0
BLOCK_RECORD
  5
B3
330
1
100
AcDbSymbolTableRecord
100
AcDbBlockTableRecord
  2
*D3
340
0
 70
     0
280
     1
281
     0
  0
BLOCK_RECORD
  5
C1
330
1
100
AcDbSymbolTableRecord
100
AcDbBlockTableRecord
  2
*D4
340
0
 70
     0
280
     1
281
     0
  0
BLOCK_RECORD
  5
CF
330
1
100
AcDbSymbolTableRecord
100
AcDbBlockTableRecord
  2
*D5
340
0
 70
     0
280
     1
281
     0
  0
BLOCK_RECORD
  5
DE
330
1
100
AcDbSymbolTableRecord
100
AcDbBlockTableRecord
  2
*D6
340
0
 70
     0
280
     1
281
     0
  0
BLOCK_RECORD
  5
ED
330
1
100
AcDbSymbolTableRecord
100
AcDbBlockTableRecord
  2
*D7
340
0
 70
     0
280
     1
281
     0
  0
BLOCK_RECORD
  5
FB
330
1
100
AcDbSymbolTableRecord
100
AcDbBlockTableRecord
  2
*D8
340
0
 70
     0
280
     1
281
     0
  0
BLOCK_RECORD
  5
109
330
1
100
AcDbSymbolTableRecord
100
AcDbBlockTableRecord
  2
*D9
340
0
 70
     0
280
     1
281
     0
  0
BLOCK_RECORD
  5
117
330
1
100
AcDbSymbolTableRecord
100
AcDbBlockTableRecord
  2
*D10
340
0
 70
     0
280
     1
281
     0
  0
BLOCK_RECORD
  5
125
330
1
100
AcDbSymbolTableRecord
100
AcDbBlockTableRecord
  2
*D11
340
0
 70
     0
280
     1
281
     0
  0
BLOCK_RECORD
  5
133
330
1
100
AcDbSymbolTableRecord
100
AcDbBlockTableRecord
  2
*D12
340
0
 70
     0
280
     1
281
     0
  0
BLOCK_RECORD
  5
141
330
1
100
AcDbSymbolTableRecord
100
AcDbBlockTableRecord
  2
*D13
340
0
 70
     0
280
     1
281
     0
  0
BLOCK_RECORD
  5
14F
330
1
100
AcDbSymbolTableRecord
100
AcDbBlockTableRecord
  2
*D14
340
0
 70
     0
280
     1
281
     0
  0
BLOCK_RECORD
  5
15E
330
1
100
AcDbSymbolTableRecord
100
AcDbBlockTableRecord
  2
*D15
340
0
 70
     0
280
     1
281
     0
  0
BLOCK_RECORD
  5
16C
330
1
100
AcDbSymbolTableRecord
100
AcDbBlockTableRecord
  2
*D16
340
0
 70
     0
280
     1
281
     0
  0
BLOCK_RECORD
  5
17B
330
1
100
AcDbSymbolTableRecord
100
AcDbBlockTableRecord
  2
*D17
340
0
 70
     0
280
     1
281
     0
  0
BLOCK_RECORD
  5
189
330
1
100
AcDbSymbolTableRecord
100
AcDbBlockTableRecord
  2
*D18
340
0
 70
     0
280
     1
281
     0
  0
BLOCK_RECORD
  5
198
330
1
100
AcDbSymbolTableRecord
100
AcDbBlockTableRecord
  2
*D19
340
0
 70
     0
280
     1
281
     0
  0
BLOCK_RECORD
  5
1A7
330
1
100
AcDbSymbolTableRecord
100
AcDbBlockTableRecord
  2
*D20
340
0
 70
     0
280
     1
281
     0
  0
BLOCK_RECORD
  5
1B5
330
1
100
AcDbSymbolTableRecord
100
AcDbBlockTableRecord
  2
*D21
340
0
 70
     0
280
     1
281
     0
  0
BLOCK_RECORD
  5
1C3
330
1
100
AcDbSymbolTableRecord
100
AcDbBlockTableRecord
  2
*D22
340
0
 70
     0
280
     1
281
     0
  0
BLOCK_RECORD
  5
1D1
330
1
100
AcDbSymbolTableRecord
100
AcDbBlockTableRecord
  2
*D23
340
0
 70
     0
280
     1
281
     0
  0
BLOCK_RECORD
  5
1DF
330
1
100
AcDbSymbolTableRecord
100
AcDbBlockTableRecord
  2
*D24
340
0
 70
     0
280
     1
281
     0
  0
ENDTAB
  0
ENDSEC
  0
SECTION
  2
BLOCKS
  0
BLOCK
  5
70
330
6F
100
AcDbEntity
  8
0
100
AcDbBlockBegin
  2
*Model_Space
 70
     0
 10
0.0
 20
0.0
 30
0.0
  3
*Model_Space
  1

  0
ENDBLK
  5
71
330
6F
100
AcDbEntity
  8
0
100
AcDbBlockEnd
  0
BLOCK
  5
6C
330
6B
100
AcDbEntity
 67
     1
  8
0
100
AcDbBlockBegin
  2
*Paper_Space
 70
     0
 10
0.0
 20
0.0
 30
0.0
  3
*Paper_Space
  1

  0
ENDBLK
  5
6D
330
6B
100
AcDbEntity
 67
     1
  8
0
100
AcDbBlockEnd
  0
BLOCK
  5
87
330
86
100
AcDbEntity
  8
KUTAI
  6
ByBlock
 62
    12
100
AcDbBlockBegin
  2
*X0
 70
     1
 10
0.0
 20
0.0
 30
0.0
  3
*X0
  1

  0
LINE
  5
88
330
86
100
AcDbEntity
  8
KUTAI
  6
ByBlock
 62
     0
100
AcDbLine
 10
227.7273721234332
 20
97.33644960962564
 30
0.0
 11
229.3273721234318
 21
98.93644960962369
 31
0.0
  0
LINE
  5
89
330
86
100
AcDbEntity
  8
KUTAI
  6
ByBlock
 62
     0
100
AcDbLine
 10
228.0509278357716
 20
96.24579175751655
 30
0.0
 11
229.3908846518857
 21
97.58574857507472
 31
0.0
  0
LINE
  5
8A
330
86
100
AcDbEntity
  8
KUTAI
  6
ByBlock
 62
     0
100
AcDbLine
 10
227.7273721234332
 20
118.549653045222
 30
0.0
 11
229.3273721234303
 21
120.1496530452196
 31
0.0
  0
LINE
  5
8B
330
86
100
AcDbEntity
  8
KUTAI
  6
ByBlock
 62
     0
100
AcDbLine
 10
256.1273721234334
 20
146.949653045222
 30
0.0
 11
257.7273721234319
 21
148.5496530452206
 31
0.0
  0
LINE
  5
8C
330
86
100
AcDbEntity
  8
KUTAI
  6
ByBlock
 62
     0
100
AcDbLine
 10
227.7273721234328
 20
117.1354394828478
 30
0.0
 11
229.3273721234318
 21
118.7354394828473
 31
0.0
  0
LINE
  5
8D
330
86
100
AcDbEntity
  8
KUTAI
  6
ByBlock
 62
     0
100
AcDbLine
 10
256.1273721234338
 20
145.5354394828493
 30
0.0
 11
257.7273721234333
 21
147.1354394828488
 31
0.0
  0
LINE
  5
8E
330
86
100
AcDbEntity
  8
KUTAI
  6
ByBlock
 62
     0
100
AcDbLine
 10
227.7273721234315
 20
139.7628564808165
 30
0.0
 11
229.3273721234309
 21
141.362856480816
 31
0.0
  0
LINE
  5
8F
330
86
100
AcDbEntity
  8
KUTAI
  6
ByBlock
 62
     0
100
AcDbLine
 10
241.7009652522406
 20
153.7364496096257
 30
0.0
 11
243.3009652522401
 21
155.3364496096252
 31
0.0
  0
LINE
  5
90
330
86
100
AcDbEntity
  8
KUTAI
  6
ByBlock
 62
     0
100
AcDbLine
 10
227.7273721234324
 20
138.3486429184442
 30
0.0
 11
229.3273721234314
 21
139.9486429184427
 31
0.0
  0
LINE
  5
91
330
86
100
AcDbEntity
  8
KUTAI
  6
ByBlock
 62
     0
100
AcDbLine
 10
243.1151788146158
 20
153.7364496096271
 30
0.0
 11
244.7151788146125
 21
155.3364496096243
 31
0.0
  0
LINE
  5
92
330
86
100
AcDbEntity
  8
KUTAI
  6
ByBlock
 62
     0
100
AcDbLine
 10
246.9405755590291
 20
95.33644960962515
 30
0.0
 11
248.5405755590272
 21
96.93644960962277
 31
0.0
  0
LINE
  5
93
330
86
100
AcDbEntity
  8
KUTAI
  6
ByBlock
 62
     0
100
AcDbLine
 10
256.1273721234341
 20
104.5232461740302
 30
0.0
 11
256.9405755590264
 21
105.3364496096224
 31
0.0
  0
LINE
  5
94
330
86
100
AcDbEntity
  8
KUTAI
  6
ByBlock
 62
     0
100
AcDbLine
 10
248.3547891214028
 20
95.33644960962559
 30
0.0
 11
249.9547891214004
 21
96.93644960962316
 31
0.0
  0
LINE
  5
95
330
86
100
AcDbEntity
  8
KUTAI
  6
ByBlock
 62
     0
100
AcDbLine
 10
256.1273721234347
 20
103.109032611657
 30
0.0
 11
257.727372123431
 21
104.7090326116537
 31
0.0
  0
ENDBLK
  5
96
330
86
100
AcDbEntity
  8
KUTAI
  6
ByBlock
 62
    12
100
AcDbBlockEnd
  0
BLOCK
  5
98
330
97
100
AcDbEntity
  8
DXF0
  6
Continuous
 62
     3
100
AcDbBlockBegin
  2
*D1
 70
     1
 10
0.0
 20
0.0
 30
0.0
  3
*D1
  1

  0
LINE
  5
99
330
97
100
AcDbEntity
  8
DXF0
  6
ByBlock
 62
     0
440
 16777216
100
AcDbLine
 10
214.0562019761849
 20
420.7555691123014
 30
0.0
 11
214.0562019761849
 21
430.7555691123065
 31
0.0
  0
LWPOLYLINE
  5
9A
330
97
100
AcDbEntity
  8
DXF0
  6
ByBlock
 62
     0
440
 16777216
100
AcDbPolyline
 90
        2
 70
     1
 43
0.5
 10
214.3062019761849
 20
420.7555691123014
 42
1.0
 10
213.8062019761849
 20
420.7555691123014
 42
1.0
  0
LWPOLYLINE
  5
9E
330
97
100
AcDbEntity
  8
DXF0
  6
ByBlock
 62
     0
440
 16777216
100
AcDbPolyline
 90
        2
 70
     1
 43
0.5
 10
214.3062019761849
 20
430.7555691123065
 42
1.0
 10
213.8062019761849
 20
430.7555691123065
 42
1.0
  0
LINE
  5
A2
330
97
100
AcDbEntity
  8
DXF0
  6
ByBlock
 62
     0
440
 16777216
100
AcDbLine
 10
217.5387701870565
 20
430.7555691123065
 30
0.0
 11
212.0562019761849
 21
430.7555691123065
 31
0.0
  0
TEXT
  5
A3
330
97
100
AcDbEntity
  8
DXF0
  6
ByBlock
 62
     0
440
 16777216
100
AcDbText
 10
213.5562019761849
 20
423.1555690288574
 30
0.0
 40
3.099999904632568
  1
10
 50
90.0
100
AcDbText
  0
ENDBLK
  5
A4
330
97
100
AcDbEntity
  8
DXF0
  6
Continuous
 62
     3
100
AcDbBlockEnd
  0
BLOCK
  5
A6
330
A5
100
AcDbEntity
  8
DXF0
  6
Continuous
 62
     3
100
AcDbBlockBegin
  2
*D2
 70
     1
 10
0.0
 20
0.0
 30
0.0
  3
*D2
  1

  0
LINE
  5
A7
330
A5
100
AcDbEntity
  8
DXF0
  6
ByBlock
 62
     0
440
 16777216
100
AcDbLine
 10
223.4493718243026
 20
420.7555691123014
 30
0.0
 11
223.4493718243026
 21
425.4023853659829
 31
0.0
  0
LWPOLYLINE
  5
A8
330
A5
100
AcDbEntity
  8
DXF0
  6
ByBlock
 62
     0
440
 16777216
100
AcDbPolyline
 90
        2
 70
     1
 43
0.5
 10
223.6993718243026
 20
420.7555691123014
 42
1.0
 10
223.1993718243026
 20
420.7555691123014
 42
1.0
  0
LWPOLYLINE
  5
AC
330
A5
100
AcDbEntity
  8
DXF0
  6
ByBlock
 62
     0
440
 16777216
100
AcDbPolyline
 90
        2
 70
     1
 43
0.5
 10
223.6993718243026
 20
421.7555691123208
 42
1.0
 10
223.1993718243026
 20
421.7555691123208
 42
1.0
  0
LINE
  5
B0
330
A5
100
AcDbEntity
  8
DXF0
  6
ByBlock
 62
     0
440
 16777216
100
AcDbLine
 10
226.9273721114498
 20
421.7555691123208
 30
0.0
 11
221.4493718243026
 21
421.7555691123208
 31
0.0
  0
TEXT
  5
B1
330
A5
100
AcDbEntity
  8
DXF0
  6
ByBlock
 62
     0
440
 16777216
100
AcDbText
 10
222.9493718243026
 20
422.8023853979737
 30
0.0
 40
3.099999904632568
  1
1
 50
90.0
100
AcDbText
  0
ENDBLK
  5
B2
330
A5
100
AcDbEntity
  8
DXF0
  6
Continuous
 62
     3
100
AcDbBlockEnd
  0
BLOCK
  5
B4
330
B3
100
AcDbEntity
  8
DXF0
  6
Continuous
 62
     3
100
AcDbBlockBegin
  2
*D3
 70
     1
 10
0.0
 20
0.0
 30
0.0
  3
*D3
  1

  0
LINE
  5
B5
330
B3
100
AcDbEntity
  8
DXF0
  6
ByBlock
 62
     0
440
 16777216
100
AcDbLine
 10
227.7273721233707
 20
420.9555691003748
 30
0.0
 11
227.7273721233707
 21
359.4651527131575
 31
0.0
  0
LINE
  5
B6
330
B3
100
AcDbEntity
  8
DXF0
  6
ByBlock
 62
     0
440
 16777216
100
AcDbLine
 10
227.7273721233707
 20
361.4651527131575
 30
0.0
 11
242.7273721234328
 21
361.4651527131575
 31
0.0
  0
LWPOLYLINE
  5
B7
330
B3
100
AcDbEntity
  8
DXF0
  6
ByBlock
 62
     0
440
 16777216
100
AcDbPolyline
 90
        2
 70
     1
 43
0.5
 10
227.9773721233707
 20
361.4651527131575
 42
1.0
 10
227.4773721233707
 20
361.4651527131575
 42
1.0
  0
LWPOLYLINE
  5
BB
330
B3
100
AcDbEntity
  8
DXF0
  6
ByBlock
 62
     0
440
 16777216
100
AcDbPolyline
 90
        2
 70
     1
 43
0.5
 10
242.9773721234328
 20
361.4651527131575
 42
1.0
 10
242.4773721234328
 20
361.4651527131575
 42
1.0
  0
TEXT
  5
BF
330
B3
100
AcDbEntity
  8
DXF0
  6
ByBlock
 62
     0
440
 16777216
100
AcDbText
 10
232.6273720399552
 20
361.9651527131575
 30
0.0
 40
3.099999904632568
  1
15
100
AcDbText
  0
ENDBLK
  5
C0
330
B3
100
AcDbEntity
  8
DXF0
  6
Continuous
 62
     3
100
AcDbBlockEnd
  0
BLOCK
  5
C2
330
C1
100
AcDbEntity
  8
DXF0
  6
Continuous
 62
     3
100
AcDbBlockBegin
  2
*D4
 70
     1
 10
0.0
 20
0.0
 30
0.0
  3
*D4
  1

  0
LINE
  5
C3
330
C1
100
AcDbEntity
  8
DXF0
  6
ByBlock
 62
     0
440
 16777216
100
AcDbLine
 10
242.7273721234328
 20
361.4651527131575
 30
0.0
 11
257.727372123513
 21
361.4651527131575
 31
0.0
  0
LWPOLYLINE
  5
C4
330
C1
100
AcDbEntity
  8
DXF0
  6
ByBlock
 62
     0
440
 16777216
100
AcDbPolyline
 90
        2
 70
     1
 43
0.5
 10
242.9773721234328
 20
361.4651527131575
 42
1.0
 10
242.4773721234328
 20
361.4651527131575
 42
1.0
  0
LWPOLYLINE
  5
C8
330
C1
100
AcDbEntity
  8
DXF0
  6
ByBlock
 62
     0
440
 16777216
100
AcDbPolyline
 90
        2
 70
     1
 43
0.5
 10
257.977372123513
 20
361.4651527131575
 42
1.0
 10
257.477372123513
 20
361.4651527131575
 42
1.0
  0
LINE
  5
CC
330
C1
100
AcDbEntity
  8
DXF0
  6
ByBlock
 62
     0
440
 16777216
100
AcDbLine
 10
257.727372123513
 20
420.9555691004176
 30
0.0
 11
257.727372123513
 21
359.4651527131575
 31
0.0
  0
TEXT
  5
CD
330
C1
100
AcDbEntity
  8
DXF0
  6
ByBlock
 62
     0
440
 16777216
100
AcDbText
 10
247.6273720400264
 20
361.9651527131575
 30
0.0
 40
3.099999904632568
  1
15
100
AcDbText
  0
ENDBLK
  5
CE
330
C1
100
AcDbEntity
  8
DXF0
  6
Continuous
 62
     3
100
AcDbBlockEnd
  0
BLOCK
  5
D0
330
CF
100
AcDbEntity
  8
DXF0
  6
Continuous
 62
     3
100
AcDbBlockBegin
  2
*D5
 70
     1
 10
0.0
 20
0.0
 30
0.0
  3
*D5
  1

  0
LINE
  5
D1
330
CF
100
AcDbEntity
  8
DXF0
  6
ByBlock
 62
     0
440
 16777216
100
AcDbLine
 10
592.7412277189412
 20
435.9555691003749
 30
0.0
 11
592.7412277189412
 21
364.8104966934158
 31
0.0
  0
LINE
  5
D2
330
CF
100
AcDbEntity
  8
DXF0
  6
ByBlock
 62
     0
440
 16777216
100
AcDbLine
 10
592.7412277189412
 20
366.8104966934158
 30
0.0
 11
607.7412277190031
 21
366.8104966934158
 31
0.0
  0
LWPOLYLINE
  5
D3
330
CF
100
AcDbEntity
  8
DXF0
  6
ByBlock
 62
     0
440
 16777216
100
AcDbPolyline
 90
        2
 70
     1
 43
0.5
 10
592.9912277189412
 20
366.8104966934158
 42
1.0
 10
592.4912277189412
 20
366.8104966934158
 42
1.0
  0
LWPOLYLINE
  5
D7
330
CF
100
AcDbEntity
  8
DXF0
  6
ByBlock
 62
     0
440
 16777216
100
AcDbPolyline
 90
        2
 70
     1
 43
0.5
 10
607.9912277190032
 20
366.8104966934158
 42
1.0
 10
607.4912277190032
 20
366.8104966934158
 42
1.0
  0
LINE
  5
DB
330
CF
100
AcDbEntity
  8
DXF0
  6
ByBlock
 62
     0
440
 16777216
100
AcDbLine
 10
607.7412277190031
 20
373.7441334421002
 30
0.0
 11
607.7412277190031
 21
364.8104966934158
 31
0.0
  0
TEXT
  5
DC
330
CF
100
AcDbEntity
  8
DXF0
  6
ByBlock
 62
     0
440
 16777216
100
AcDbText
 10
597.6412276355256
 20
367.3104966934158
 30
0.0
 40
3.099999904632568
  1
15
100
AcDbText
  0
ENDBLK
  5
DD
330
CF
100
AcDbEntity
  8
DXF0
  6
Continuous
 62
     3
100
AcDbBlockEnd
  0
BLOCK
  5
DF
330
DE
100
AcDbEntity
  8
DXF0
  6
Continuous
 62
     3
100
AcDbBlockBegin
  2
*D6
 70
     1
 10
0.0
 20
0.0
 30
0.0
  3
*D6
  1

  0
LINE
  5
E0
330
DE
100
AcDbEntity
  8
DXF0
  6
ByBlock
 62
     0
440
 16777216
100
AcDbLine
 10
607.7412277190031
 20
373.7441334421002
 30
0.0
 11
607.7412277190031
 21
364.8104966934158
 31
0.0
  0
LINE
  5
E1
330
DE
100
AcDbEntity
  8
DXF0
  6
ByBlock
 62
     0
440
 16777216
100
AcDbLine
 10
607.7412277190031
 20
366.8104966934158
 30
0.0
 11
622.7412277190836
 21
366.8104966934158
 31
0.0
  0
LWPOLYLINE
  5
E2
330
DE
100
AcDbEntity
  8
DXF0
  6
ByBlock
 62
     0
440
 16777216
100
AcDbPolyline
 90
        2
 70
     1
 43
0.5
 10
607.9912277190032
 20
366.8104966934158
 42
1.0
 10
607.4912277190032
 20
366.8104966934158
 42
1.0
  0
LWPOLYLINE
  5
E6
330
DE
100
AcDbEntity
  8
DXF0
  6
ByBlock
 62
     0
440
 16777216
100
AcDbPolyline
 90
        2
 70
     1
 43
0.5
 10
622.9912277190837
 20
366.8104966934158
 42
1.0
 10
622.4912277190838
 20
366.8104966934158
 42
1.0
  0
LINE
  5
EA
330
DE
100
AcDbEntity
  8
DXF0
  6
ByBlock
 62
     0
440
 16777216
100
AcDbLine
 10
622.7412277190836
 20
435.9555691004175
 30
0.0
 11
622.7412277190836
 21
364.8104966934158
 31
0.0
  0
TEXT
  5
EB
330
DE
100
AcDbEntity
  8
DXF0
  6
ByBlock
 62
     0
440
 16777216
100
AcDbText
 10
612.6412276355968
 20
367.3104966934158
 30
0.0
 40
3.099999904632568
  1
15
100
AcDbText
  0
ENDBLK
  5
EC
330
DE
100
AcDbEntity
  8
DXF0
  6
Continuous
 62
     3
100
AcDbBlockEnd
  0
BLOCK
  5
EE
330
ED
100
AcDbEntity
  8
DXF0
  6
Continuous
 62
     3
100
AcDbBlockBegin
  2
*D7
 70
     1
 10
0.0
 20
0.0
 30
0.0
  3
*D7
  1

  0
LINE
  5
EF
330
ED
100
AcDbEntity
  8
DXF0
  6
ByBlock
 62
     0
440
 16777216
100
AcDbLine
 10
214.0562019761849
 20
158.336449609626
 30
0.0
 11
214.0562019761849
 21
168.3364496096311
 31
0.0
  0
LWPOLYLINE
  5
F0
330
ED
100
AcDbEntity
  8
DXF0
  6
ByBlock
 62
     0
440
 16777216
100
AcDbPolyline
 90
        2
 70
     1
 43
0.5
 10
214.3062019761849
 20
158.336449609626
 42
1.0
 10
213.8062019761849
 20
158.336449609626
 42
1.0
  0
LWPOLYLINE
  5
F4
330
ED
100
AcDbEntity
  8
DXF0
  6
ByBlock
 62
     0
440
 16777216
100
AcDbPolyline
 90
        2
 70
     1
 43
0.5
 10
214.3062019761849
 20
168.3364496096311
 42
1.0
 10
213.8062019761849
 20
168.3364496096311
 42
1.0
  0
LINE
  5
F8
330
ED
100
AcDbEntity
  8
DXF0
  6
ByBlock
 62
     0
440
 16777216
100
AcDbLine
 10
217.5387701870563
 20
168.3364496096311
 30
0.0
 11
212.0562019761849
 21
168.3364496096311
 31
0.0
  0
TEXT
  5
F9
330
ED
100
AcDbEntity
  8
DXF0
  6
ByBlock
 62
     0
440
 16777216
100
AcDbText
 10
213.5562019761849
 20
160.7364495261821
 30
0.0
 40
3.099999904632568
  1
10
 50
90.0
100
AcDbText
  0
ENDBLK
  5
FA
330
ED
100
AcDbEntity
  8
DXF0
  6
Continuous
 62
     3
100
AcDbBlockEnd
  0
BLOCK
  5
FC
330
FB
100
AcDbEntity
  8
DXF0
  6
Continuous
 62
     3
100
AcDbBlockBegin
  2
*D8
 70
     1
 10
0.0
 20
0.0
 30
0.0
  3
*D8
  1

  0
LINE
  5
FD
330
FB
100
AcDbEntity
  8
DXF0
  6
ByBlock
 62
     0
440
 16777216
100
AcDbLine
 10
227.7273721233708
 20
158.5364495976995
 30
0.0
 11
227.7273721233708
 21
113.4831130290865
 31
0.0
  0
LINE
  5
FE
330
FB
100
AcDbEntity
  8
DXF0
  6
ByBlock
 62
     0
440
 16777216
100
AcDbLine
 10
227.7273721233708
 20
115.4831130290865
 30
0.0
 11
242.7273721234328
 21
115.4831130290865
 31
0.0
  0
LWPOLYLINE
  5
FF
330
FB
100
AcDbEntity
  8
DXF0
  6
ByBlock
 62
     0
440
 16777216
100
AcDbPolyline
 90
        2
 70
     1
 43
0.5
 10
227.9773721233708
 20
115.4831130290865
 42
1.0
 10
227.4773721233708
 20
115.4831130290865
 42
1.0
  0
LWPOLYLINE
  5
103
330
FB
100
AcDbEntity
  8
DXF0
  6
ByBlock
 62
     0
440
 16777216
100
AcDbPolyline
 90
        2
 70
     1
 43
0.5
 10
242.9773721234328
 20
115.4831130290865
 42
1.0
 10
242.4773721234328
 20
115.4831130290865
 42
1.0
  0
TEXT
  5
107
330
FB
100
AcDbEntity
  8
DXF0
  6
ByBlock
 62
     0
440
 16777216
100
AcDbText
 10
232.6273720399553
 20
115.9831130290865
 30
0.0
 40
3.099999904632568
  1
15
100
AcDbText
  0
ENDBLK
  5
108
330
FB
100
AcDbEntity
  8
DXF0
  6
Continuous
 62
     3
100
AcDbBlockEnd
  0
BLOCK
  5
10A
330
109
100
AcDbEntity
  8
DXF0
  6
Continuous
 62
     3
100
AcDbBlockBegin
  2
*D9
 70
     1
 10
0.0
 20
0.0
 30
0.0
  3
*D9
  1

  0
LINE
  5
10B
330
109
100
AcDbEntity
  8
DXF0
  6
ByBlock
 62
     0
440
 16777216
100
AcDbLine
 10
242.7273721234328
 20
115.4831130290865
 30
0.0
 11
257.7273721235131
 21
115.4831130290865
 31
0.0
  0
LWPOLYLINE
  5
10C
330
109
100
AcDbEntity
  8
DXF0
  6
ByBlock
 62
     0
440
 16777216
100
AcDbPolyline
 90
        2
 70
     1
 43
0.5
 10
242.9773721234328
 20
115.4831130290865
 42
1.0
 10
242.4773721234328
 20
115.4831130290865
 42
1.0
  0
LWPOLYLINE
  5
110
330
109
100
AcDbEntity
  8
DXF0
  6
ByBlock
 62
     0
440
 16777216
100
AcDbPolyline
 90
        2
 70
     1
 43
0.5
 10
257.9773721235131
 20
115.4831130290865
 42
1.0
 10
257.4773721235132
 20
115.4831130290865
 42
1.0
  0
LINE
  5
114
330
109
100
AcDbEntity
  8
DXF0
  6
ByBlock
 62
     0
440
 16777216
100
AcDbLine
 10
257.7273721235131
 20
158.5364495977422
 30
0.0
 11
257.7273721235131
 21
113.4831130290865
 31
0.0
  0
TEXT
  5
115
330
109
100
AcDbEntity
  8
DXF0
  6
ByBlock
 62
     0
440
 16777216
100
AcDbText
 10
247.6273720400264
 20
115.9831130290865
 30
0.0
 40
3.099999904632568
  1
15
100
AcDbText
  0
ENDBLK
  5
116
330
109
100
AcDbEntity
  8
DXF0
  6
Continuous
 62
     3
100
AcDbBlockEnd
  0
BLOCK
  5
118
330
117
100
AcDbEntity
  8
DXF0
  6
Continuous
 62
     3
100
AcDbBlockBegin
  2
*D10
 70
     1
 10
0.0
 20
0.0
 30
0.0
  3
*D10
  1

  0
LINE
  5
119
330
117
100
AcDbEntity
  8
DXF0
  6
ByBlock
 62
     0
440
 16777216
100
AcDbLine
 10
579.070057571755
 20
156.8364496096264
 30
0.0
 11
579.070057571755
 21
166.8364496096315
 31
0.0
  0
LWPOLYLINE
  5
11A
330
117
100
AcDbEntity
  8
DXF0
  6
ByBlock
 62
     0
440
 16777216
100
AcDbPolyline
 90
        2
 70
     1
 43
0.5
 10
579.3200575717548
 20
156.8364496096264
 42
1.0
 10
578.8200575717548
 20
156.8364496096264
 42
1.0
  0
LWPOLYLINE
  5
11E
330
117
100
AcDbEntity
  8
DXF0
  6
ByBlock
 62
     0
440
 16777216
100
AcDbPolyline
 90
        2
 70
     1
 43
0.5
 10
579.3200575717548
 20
166.8364496096315
 42
1.0
 10
578.8200575717548
 20
166.8364496096315
 42
1.0
  0
LINE
  5
122
330
117
100
AcDbEntity
  8
DXF0
  6
ByBlock
 62
     0
440
 16777216
100
AcDbLine
 10
582.5526257826266
 20
166.8364496096315
 30
0.0
 11
577.0700575717548
 21
166.8364496096315
 31
0.0
  0
TEXT
  5
123
330
117
100
AcDbEntity
  8
DXF0
  6
ByBlock
 62
     0
440
 16777216
100
AcDbText
 10
578.570057571755
 20
159.2364495261825
 30
0.0
 40
3.099999904632568
  1
10
 50
90.0
100
AcDbText
  0
ENDBLK
  5
124
330
117
100
AcDbEntity
  8
DXF0
  6
Continuous
 62
     3
100
AcDbBlockEnd
  0
BLOCK
  5
126
330
125
100
AcDbEntity
  8
DXF0
  6
Continuous
 62
     3
100
AcDbBlockBegin
  2
*D11
 70
     1
 10
0.0
 20
0.0
 30
0.0
  3
*D11
  1

  0
LINE
  5
127
330
125
100
AcDbEntity
  8
DXF0
  6
ByBlock
 62
     0
440
 16777216
100
AcDbLine
 10
592.7412277189412
 20
157.0364495976999
 30
0.0
 11
592.7412277189412
 21
113.4831130290865
 31
0.0
  0
LINE
  5
128
330
125
100
AcDbEntity
  8
DXF0
  6
ByBlock
 62
     0
440
 16777216
100
AcDbLine
 10
592.7412277189412
 20
115.4831130290865
 30
0.0
 11
607.7412277190031
 21
115.4831130290865
 31
0.0
  0
LWPOLYLINE
  5
129
330
125
100
AcDbEntity
  8
DXF0
  6
ByBlock
 62
     0
440
 16777216
100
AcDbPolyline
 90
        2
 70
     1
 43
0.5
 10
592.9912277189412
 20
115.4831130290865
 42
1.0
 10
592.4912277189412
 20
115.4831130290865
 42
1.0
  0
LWPOLYLINE
  5
12D
330
125
100
AcDbEntity
  8
DXF0
  6
ByBlock
 62
     0
440
 16777216
100
AcDbPolyline
 90
        2
 70
     1
 43
0.5
 10
607.9912277190032
 20
115.4831130290865
 42
1.0
 10
607.4912277190032
 20
115.4831130290865
 42
1.0
  0
TEXT
  5
131
330
125
100
AcDbEntity
  8
DXF0
  6
ByBlock
 62
     0
440
 16777216
100
AcDbText
 10
597.6412276355256
 20
115.9831130290865
 30
0.0
 40
3.099999904632568
  1
15
100
AcDbText
  0
ENDBLK
  5
132
330
125
100
AcDbEntity
  8
DXF0
  6
Continuous
 62
     3
100
AcDbBlockEnd
  0
BLOCK
  5
134
330
133
100
AcDbEntity
  8
DXF0
  6
Continuous
 62
     3
100
AcDbBlockBegin
  2
*D12
 70
     1
 10
0.0
 20
0.0
 30
0.0
  3
*D12
  1

  0
LINE
  5
135
330
133
100
AcDbEntity
  8
DXF0
  6
ByBlock
 62
     0
440
 16777216
100
AcDbLine
 10
607.7412277190031
 20
115.4831130290865
 30
0.0
 11
622.7412277190836
 21
115.4831130290865
 31
0.0
  0
LWPOLYLINE
  5
136
330
133
100
AcDbEntity
  8
DXF0
  6
ByBlock
 62
     0
440
 16777216
100
AcDbPolyline
 90
        2
 70
     1
 43
0.5
 10
607.9912277190032
 20
115.4831130290865
 42
1.0
 10
607.4912277190032
 20
115.4831130290865
 42
1.0
  0
LWPOLYLINE
  5
13A
330
133
100
AcDbEntity
  8
DXF0
  6
ByBlock
 62
     0
440
 16777216
100
AcDbPolyline
 90
        2
 70
     1
 43
0.5
 10
622.9912277190837
 20
115.4831130290865
 42
1.0
 10
622.4912277190838
 20
115.4831130290865
 42
1.0
  0
LINE
  5
13E
330
133
100
AcDbEntity
  8
DXF0
  6
ByBlock
 62
     0
440
 16777216
100
AcDbLine
 10
622.7412277190836
 20
157.0364495977426
 30
0.0
 11
622.7412277190836
 21
113.4831130290865
 31
0.0
  0
TEXT
  5
13F
330
133
100
AcDbEntity
  8
DXF0
  6
ByBlock
 62
     0
440
 16777216
100
AcDbText
 10
612.6412276355968
 20
115.9831130290865
 30
0.0
 40
3.099999904632568
  1
15
100
AcDbText
  0
ENDBLK
  5
140
330
133
100
AcDbEntity
  8
DXF0
  6
Continuous
 62
     3
100
AcDbBlockEnd
  0
BLOCK
  5
142
330
141
100
AcDbEntity
  8
DXF0
  6
Continuous
 62
     3
100
AcDbBlockBegin
  2
*D13
 70
     1
 10
0.0
 20
0.0
 30
0.0
  3
*D13
  1

  0
LINE
  5
143
330
141
100
AcDbEntity
  8
DXF0
  6
ByBlock
 62
     0
440
 16777216
100
AcDbLine
 10
226.9273721114702
 20
480.7555691120547
 30
0.0
 11
204.4757929060333
 21
480.7555691120547
 31
0.0
  0
LINE
  5
144
330
141
100
AcDbEntity
  8
DXF0
  6
ByBlock
 62
     0
440
 16777216
100
AcDbLine
 10
206.4757929060333
 20
480.7555691120547
 30
0.0
 11
206.4757929060333
 21
420.7555691123014
 31
0.0
  0
LWPOLYLINE
  5
145
330
141
100
AcDbEntity
  8
DXF0
  6
ByBlock
 62
     0
440
 16777216
100
AcDbPolyline
 90
        2
 70
     1
 43
0.5
 10
206.7257929060333
 20
480.7555691120547
 42
1.0
 10
206.2257929060333
 20
480.7555691120547
 42
1.0
  0
LWPOLYLINE
  5
149
330
141
100
AcDbEntity
  8
DXF0
  6
ByBlock
 62
     0
440
 16777216
100
AcDbPolyline
 90
        2
 70
     1
 43
0.5
 10
206.7257929060333
 20
420.7555691123014
 42
1.0
 10
206.2257929060333
 20
420.7555691123014
 42
1.0
  0
TEXT
  5
14D
330
141
100
AcDbEntity
  8
DXF0
  6
ByBlock
 62
     0
440
 16777216
100
AcDbText
 10
205.9757929060333
 20
448.1555690287315
 30
0.0
 40
3.099999904632568
  1
60
 50
90.0
100
AcDbText
  0
ENDBLK
  5
14E
330
141
100
AcDbEntity
  8
DXF0
  6
Continuous
 62
     3
100
AcDbBlockEnd
  0
BLOCK
  5
150
330
14F
100
AcDbEntity
  8
DXF0
  6
Continuous
 62
     3
100
AcDbBlockBegin
  2
*D14
 70
     1
 10
0.0
 20
0.0
 30
0.0
  3
*D14
  1

  0
LINE
  5
151
330
14F
100
AcDbEntity
  8
DXF0
  6
ByBlock
 62
     0
440
 16777216
100
AcDbLine
 10
227.727372123391
 20
481.5555691239755
 30
0.0
 11
227.727372123391
 21
493.1236603425904
 31
0.0
  0
LINE
  5
152
330
14F
100
AcDbEntity
  8
DXF0
  6
ByBlock
 62
     0
440
 16777216
100
AcDbLine
 10
227.727372123391
 20
491.1236603425904
 30
0.0
 11
257.7273721233361
 21
491.1236603425904
 31
0.0
  0
LWPOLYLINE
  5
153
330
14F
100
AcDbEntity
  8
DXF0
  6
ByBlock
 62
     0
440
 16777216
100
AcDbPolyline
 90
        2
 70
     1
 43
0.5
 10
227.9773721233911
 20
491.1236603425904
 42
1.0
 10
227.477372123391
 20
491.1236603425904
 42
1.0
  0
LWPOLYLINE
  5
157
330
14F
100
AcDbEntity
  8
DXF0
  6
ByBlock
 62
     0
440
 16777216
100
AcDbPolyline
 90
        2
 70
     1
 43
0.5
 10
257.9773721233361
 20
491.1236603425904
 42
1.0
 10
257.4773721233361
 20
491.1236603425904
 42
1.0
  0
LINE
  5
15B
330
14F
100
AcDbEntity
  8
DXF0
  6
ByBlock
 62
     0
440
 16777216
100
AcDbLine
 10
257.7273721233361
 20
481.5555691239755
 30
0.0
 11
257.7273721233361
 21
493.1236603425904
 31
0.0
  0
TEXT
  5
15C
330
14F
100
AcDbEntity
  8
DXF0
  6
ByBlock
 62
     0
440
 16777216
100
AcDbText
 10
240.1273720399171
 20
491.6236603425904
 30
0.0
 40
3.099999904632568
  1
30
100
AcDbText
  0
ENDBLK
  5
15D
330
14F
100
AcDbEntity
  8
DXF0
  6
Continuous
 62
     3
100
AcDbBlockEnd
  0
BLOCK
  5
15F
330
15E
100
AcDbEntity
  8
DXF0
  6
Continuous
 62
     3
100
AcDbBlockBegin
  2
*D15
 70
     1
 10
0.0
 20
0.0
 30
0.0
  3
*D15
  1

  0
LINE
  5
160
330
15E
100
AcDbEntity
  8
DXF0
  6
ByBlock
 62
     0
440
 16777216
100
AcDbLine
 10
591.9412277070406
 20
495.7555691120545
 30
0.0
 11
571.8375047445406
 21
495.7555691120545
 31
0.0
  0
LINE
  5
161
330
15E
100
AcDbEntity
  8
DXF0
  6
ByBlock
 62
     0
440
 16777216
100
AcDbLine
 10
573.8375047445406
 20
495.7555691120545
 30
0.0
 11
573.8375047445406
 21
435.7555691123014
 31
0.0
  0
LWPOLYLINE
  5
162
330
15E
100
AcDbEntity
  8
DXF0
  6
ByBlock
 62
     0
440
 16777216
100
AcDbPolyline
 90
        2
 70
     1
 43
0.5
 10
574.0875047445406
 20
495.7555691120545
 42
1.0
 10
573.5875047445406
 20
495.7555691120545
 42
1.0
  0
LWPOLYLINE
  5
166
330
15E
100
AcDbEntity
  8
DXF0
  6
ByBlock
 62
     0
440
 16777216
100
AcDbPolyline
 90
        2
 70
     1
 43
0.5
 10
574.0875047445406
 20
435.7555691123014
 42
1.0
 10
573.5875047445406
 20
435.7555691123014
 42
1.0
  0
TEXT
  5
16A
330
15E
100
AcDbEntity
  8
DXF0
  6
ByBlock
 62
     0
440
 16777216
100
AcDbText
 10
573.3375047445406
 20
463.1555690287314
 30
0.0
 40
3.099999904632568
  1
60
 50
90.0
100
AcDbText
  0
ENDBLK
  5
16B
330
15E
100
AcDbEntity
  8
DXF0
  6
Continuous
 62
     3
100
AcDbBlockEnd
  0
BLOCK
  5
16D
330
16C
100
AcDbEntity
  8
DXF0
  6
Continuous
 62
     3
100
AcDbBlockBegin
  2
*D16
 70
     1
 10
0.0
 20
0.0
 30
0.0
  3
*D16
  1

  0
LINE
  5
16E
330
16C
100
AcDbEntity
  8
DXF0
  6
ByBlock
 62
     0
440
 16777216
100
AcDbLine
 10
622.7412277189064
 20
496.5555691239756
 30
0.0
 11
622.7412277189064
 21
509.455522780035
 31
0.0
  0
LINE
  5
16F
330
16C
100
AcDbEntity
  8
DXF0
  6
ByBlock
 62
     0
440
 16777216
100
AcDbLine
 10
622.7412277189064
 20
507.455522780035
 30
0.0
 11
592.7412277189616
 21
507.455522780035
 31
0.0
  0
LWPOLYLINE
  5
170
330
16C
100
AcDbEntity
  8
DXF0
  6
ByBlock
 62
     0
440
 16777216
100
AcDbPolyline
 90
        2
 70
     1
 43
0.5
 10
622.9912277189064
 20
507.455522780035
 42
1.0
 10
622.4912277189064
 20
507.455522780035
 42
1.0
  0
LWPOLYLINE
  5
174
330
16C
100
AcDbEntity
  8
DXF0
  6
ByBlock
 62
     0
440
 16777216
100
AcDbPolyline
 90
        2
 70
     1
 43
0.5
 10
592.9912277189616
 20
507.455522780035
 42
1.0
 10
592.4912277189616
 20
507.455522780035
 42
1.0
  0
LINE
  5
178
330
16C
100
AcDbEntity
  8
DXF0
  6
ByBlock
 62
     0
440
 16777216
100
AcDbLine
 10
592.7412277189616
 20
496.5555691239756
 30
0.0
 11
592.7412277189616
 21
509.455522780035
 31
0.0
  0
TEXT
  5
179
330
16C
100
AcDbEntity
  8
DXF0
  6
ByBlock
 62
     0
440
 16777216
100
AcDbText
 10
605.1412276354875
 20
507.955522780035
 30
0.0
 40
3.099999904632568
  1
30
100
AcDbText
  0
ENDBLK
  5
17A
330
16C
100
AcDbEntity
  8
DXF0
  6
Continuous
 62
     3
100
AcDbBlockEnd
  0
BLOCK
  5
17C
330
17B
100
AcDbEntity
  8
DXF0
  6
Continuous
 62
     3
100
AcDbBlockBegin
  2
*D17
 70
     1
 10
0.0
 20
0.0
 30
0.0
  3
*D17
  1

  0
LINE
  5
17D
330
17B
100
AcDbEntity
  8
DXF0
  6
ByBlock
 62
     0
440
 16777216
100
AcDbLine
 10
205.8848378951716
 20
158.336449609626
 30
0.0
 11
205.8848378951716
 21
218.3364496093793
 31
0.0
  0
LWPOLYLINE
  5
17E
330
17B
100
AcDbEntity
  8
DXF0
  6
ByBlock
 62
     0
440
 16777216
100
AcDbPolyline
 90
        2
 70
     1
 43
0.5
 10
206.1348378951716
 20
158.336449609626
 42
1.0
 10
205.6348378951716
 20
158.336449609626
 42
1.0
  0
LWPOLYLINE
  5
182
330
17B
100
AcDbEntity
  8
DXF0
  6
ByBlock
 62
     0
440
 16777216
100
AcDbPolyline
 90
        2
 70
     1
 43
0.5
 10
206.1348378951716
 20
218.3364496093793
 42
1.0
 10
205.6348378951716
 20
218.3364496093793
 42
1.0
  0
LINE
  5
186
330
17B
100
AcDbEntity
  8
DXF0
  6
ByBlock
 62
     0
440
 16777216
100
AcDbLine
 10
226.9273721114702
 20
218.3364496093793
 30
0.0
 11
203.8848378951716
 21
218.3364496093793
 31
0.0
  0
TEXT
  5
187
330
17B
100
AcDbEntity
  8
DXF0
  6
ByBlock
 62
     0
440
 16777216
100
AcDbText
 10
205.3848378951716
 20
185.7364495260561
 30
0.0
 40
3.099999904632568
  1
60
 50
90.0
100
AcDbText
  0
ENDBLK
  5
188
330
17B
100
AcDbEntity
  8
DXF0
  6
Continuous
 62
     3
100
AcDbBlockEnd
  0
BLOCK
  5
18A
330
189
100
AcDbEntity
  8
DXF0
  6
Continuous
 62
     3
100
AcDbBlockBegin
  2
*D18
 70
     1
 10
0.0
 20
0.0
 30
0.0
  3
*D18
  1

  0
LINE
  5
18B
330
189
100
AcDbEntity
  8
DXF0
  6
ByBlock
 62
     0
440
 16777216
100
AcDbLine
 10
227.727372123391
 20
219.1364496213003
 30
0.0
 11
227.727372123391
 21
231.2577190016335
 31
0.0
  0
LINE
  5
18C
330
189
100
AcDbEntity
  8
DXF0
  6
ByBlock
 62
     0
440
 16777216
100
AcDbLine
 10
227.727372123391
 20
229.2577190016335
 30
0.0
 11
257.7273721233361
 21
229.2577190016335
 31
0.0
  0
LWPOLYLINE
  5
18D
330
189
100
AcDbEntity
  8
DXF0
  6
ByBlock
 62
     0
440
 16777216
100
AcDbPolyline
 90
        2
 70
     1
 43
0.5
 10
227.9773721233911
 20
229.2577190016335
 42
1.0
 10
227.477372123391
 20
229.2577190016335
 42
1.0
  0
LWPOLYLINE
  5
191
330
189
100
AcDbEntity
  8
DXF0
  6
ByBlock
 62
     0
440
 16777216
100
AcDbPolyline
 90
        2
 70
     1
 43
0.5
 10
257.9773721233361
 20
229.2577190016335
 42
1.0
 10
257.4773721233361
 20
229.2577190016335
 42
1.0
  0
LINE
  5
195
330
189
100
AcDbEntity
  8
DXF0
  6
ByBlock
 62
     0
440
 16777216
100
AcDbLine
 10
257.7273721233361
 20
219.1364496213003
 30
0.0
 11
257.7273721233361
 21
231.2577190016335
 31
0.0
  0
TEXT
  5
196
330
189
100
AcDbEntity
  8
DXF0
  6
ByBlock
 62
     0
440
 16777216
100
AcDbText
 10
240.1273720399171
 20
229.7577190016335
 30
0.0
 40
3.099999904632568
  1
30
100
AcDbText
  0
ENDBLK
  5
197
330
189
100
AcDbEntity
  8
DXF0
  6
Continuous
 62
     3
100
AcDbBlockEnd
  0
BLOCK
  5
199
330
198
100
AcDbEntity
  8
DXF0
  6
Continuous
 62
     3
100
AcDbBlockBegin
  2
*D19
 70
     1
 10
0.0
 20
0.0
 30
0.0
  3
*D19
  1

  0
LINE
  5
19A
330
198
100
AcDbEntity
  8
DXF0
  6
ByBlock
 62
     0
440
 16777216
100
AcDbLine
 10
592.7412277189614
 20
217.6364496213007
 30
0.0
 11
592.7412277189614
 21
231.2577190016335
 31
0.0
  0
LINE
  5
19B
330
198
100
AcDbEntity
  8
DXF0
  6
ByBlock
 62
     0
440
 16777216
100
AcDbLine
 10
592.7412277189614
 20
229.2577190016335
 30
0.0
 11
622.7412277189064
 21
229.2577190016335
 31
0.0
  0
LWPOLYLINE
  5
19C
330
198
100
AcDbEntity
  8
DXF0
  6
ByBlock
 62
     0
440
 16777216
100
AcDbPolyline
 90
        2
 70
     1
 43
0.5
 10
592.9912277189614
 20
229.2577190016335
 42
1.0
 10
592.4912277189614
 20
229.2577190016335
 42
1.0
  0
LWPOLYLINE
  5
1A0
330
198
100
AcDbEntity
  8
DXF0
  6
ByBlock
 62
     0
440
 16777216
100
AcDbPolyline
 90
        2
 70
     1
 43
0.5
 10
622.9912277189064
 20
229.2577190016335
 42
1.0
 10
622.4912277189064
 20
229.2577190016335
 42
1.0
  0
LINE
  5
1A4
330
198
100
AcDbEntity
  8
DXF0
  6
ByBlock
 62
     0
440
 16777216
100
AcDbLine
 10
622.7412277189064
 20
217.6364496213007
 30
0.0
 11
622.7412277189064
 21
231.2577190016335
 31
0.0
  0
TEXT
  5
1A5
330
198
100
AcDbEntity
  8
DXF0
  6
ByBlock
 62
     0
440
 16777216
100
AcDbText
 10
605.1412276354872
 20
229.7577190016335
 30
0.0
 40
3.099999904632568
  1
30
100
AcDbText
  0
ENDBLK
  5
1A6
330
198
100
AcDbEntity
  8
DXF0
  6
Continuous
 62
     3
100
AcDbBlockEnd
  0
BLOCK
  5
1A8
330
1A7
100
AcDbEntity
  8
DXF0
  6
Continuous
 62
     3
100
AcDbBlockBegin
  2
*D20
 70
     1
 10
0.0
 20
0.0
 30
0.0
  3
*D20
  1

  0
LINE
  5
1A9
330
1A7
100
AcDbEntity
  8
DXF0
  6
ByBlock
 62
     0
440
 16777216
100
AcDbLine
 10
591.9412277070405
 20
216.8364496093798
 30
0.0
 11
567.4013441526393
 21
216.8364496093798
 31
0.0
  0
LINE
  5
1AA
330
1A7
100
AcDbEntity
  8
DXF0
  6
ByBlock
 62
     0
440
 16777216
100
AcDbLine
 10
569.4013441526393
 20
216.8364496093798
 30
0.0
 11
569.4013441526393
 21
156.8364496096263
 31
0.0
  0
LWPOLYLINE
  5
1AB
330
1A7
100
AcDbEntity
  8
DXF0
  6
ByBlock
 62
     0
440
 16777216
100
AcDbPolyline
 90
        2
 70
     1
 43
0.5
 10
569.6513441526393
 20
216.8364496093798
 42
1.0
 10
569.1513441526393
 20
216.8364496093798
 42
1.0
  0
LWPOLYLINE
  5
1AF
330
1A7
100
AcDbEntity
  8
DXF0
  6
ByBlock
 62
     0
440
 16777216
100
AcDbPolyline
 90
        2
 70
     1
 43
0.5
 10
569.6513441526393
 20
156.8364496096263
 42
1.0
 10
569.1513441526393
 20
156.8364496096263
 42
1.0
  0
TEXT
  5
1B3
330
1A7
100
AcDbEntity
  8
DXF0
  6
ByBlock
 62
     0
440
 16777216
100
AcDbText
 10
568.9013441526395
 20
184.2364495260565
 30
0.0
 40
3.099999904632568
  1
60
 50
90.0
100
AcDbText
  0
ENDBLK
  5
1B4
330
1A7
100
AcDbEntity
  8
DXF0
  6
Continuous
 62
     3
100
AcDbBlockEnd
  0
BLOCK
  5
1B6
330
1B5
100
AcDbEntity
  8
DXF0
  6
Continuous
 62
     3
100
AcDbBlockBegin
  2
*D21
 70
     1
 10
0.0
 20
0.0
 30
0.0
  3
*D21
  1

  0
LINE
  5
1B7
330
1B5
100
AcDbEntity
  8
DXF0
  6
ByBlock
 62
     0
440
 16777216
100
AcDbLine
 10
580.558197715209
 20
435.7555691123014
 30
0.0
 11
580.558197715209
 21
445.7555691123065
 31
0.0
  0
LWPOLYLINE
  5
1B8
330
1B5
100
AcDbEntity
  8
DXF0
  6
ByBlock
 62
     0
440
 16777216
100
AcDbPolyline
 90
        2
 70
     1
 43
0.5
 10
580.8081977152088
 20
435.7555691123014
 42
1.0
 10
580.3081977152088
 20
435.7555691123014
 42
1.0
  0
LWPOLYLINE
  5
1BC
330
1B5
100
AcDbEntity
  8
DXF0
  6
ByBlock
 62
     0
440
 16777216
100
AcDbPolyline
 90
        2
 70
     1
 43
0.5
 10
580.8081977152088
 20
445.7555691123065
 42
1.0
 10
580.3081977152088
 20
445.7555691123065
 42
1.0
  0
LINE
  5
1C0
330
1B5
100
AcDbEntity
  8
DXF0
  6
ByBlock
 62
     0
440
 16777216
100
AcDbLine
 10
582.5526257826269
 20
445.7555691123065
 30
0.0
 11
578.5581977152088
 21
445.7555691123065
 31
0.0
  0
TEXT
  5
1C1
330
1B5
100
AcDbEntity
  8
DXF0
  6
ByBlock
 62
     0
440
 16777216
100
AcDbText
 10
580.058197715209
 20
438.1555690288573
 30
0.0
 40
3.099999904632568
  1
10
 50
90.0
100
AcDbText
  0
ENDBLK
  5
1C2
330
1B5
100
AcDbEntity
  8
DXF0
  6
Continuous
 62
     3
100
AcDbBlockEnd
  0
BLOCK
  5
1C4
330
1C3
100
AcDbEntity
  8
DXF0
  6
Continuous
 62
     3
100
AcDbBlockBegin
  2
*D22
 70
     1
 10
0.0
 20
0.0
 30
0.0
  3
*D22
  1

  0
LINE
  5
1C5
330
1C3
100
AcDbEntity
  8
DXF0
  6
ByBlock
 62
     0
440
 16777216
100
AcDbLine
 10
588.7219933086561
 20
435.7555691123014
 30
0.0
 11
588.7219933086561
 21
440.359220635642
 31
0.0
  0
LWPOLYLINE
  5
1C6
330
1C3
100
AcDbEntity
  8
DXF0
  6
ByBlock
 62
     0
440
 16777216
100
AcDbPolyline
 90
        2
 70
     1
 43
0.5
 10
588.9719933086561
 20
435.7555691123014
 42
1.0
 10
588.4719933086561
 20
435.7555691123014
 42
1.0
  0
LWPOLYLINE
  5
1CA
330
1C3
100
AcDbEntity
  8
DXF0
  6
ByBlock
 62
     0
440
 16777216
100
AcDbPolyline
 90
        2
 70
     1
 43
0.5
 10
588.9719933086561
 20
436.7555691120518
 42
1.0
 10
588.4719933086561
 20
436.7555691120518
 42
1.0
  0
LINE
  5
1CE
330
1C3
100
AcDbEntity
  8
DXF0
  6
ByBlock
 62
     0
440
 16777216
100
AcDbLine
 10
591.9412277070405
 20
436.7555691120514
 30
0.0
 11
586.7219933086561
 21
436.7555691120521
 31
0.0
  0
TEXT
  5
1CF
330
1C3
100
AcDbEntity
  8
DXF0
  6
ByBlock
 62
     0
440
 16777216
100
AcDbText
 10
588.221993308656
 20
437.7592206519921
 30
0.0
 40
3.099999904632568
  1
1
 50
90.0
100
AcDbText
  0
ENDBLK
  5
1D0
330
1C3
100
AcDbEntity
  8
DXF0
  6
Continuous
 62
     3
100
AcDbBlockEnd
  0
BLOCK
  5
1D2
330
1D1
100
AcDbEntity
  8
DXF0
  6
Continuous
 62
     3
100
AcDbBlockBegin
  2
*D23
 70
     1
 10
0.0
 20
0.0
 30
0.0
  3
*D23
  1

  0
LINE
  5
1D3
330
1D1
100
AcDbEntity
  8
DXF0
  6
ByBlock
 62
     0
440
 16777216
100
AcDbLine
 10
222.1339297969453
 20
158.336449609626
 30
0.0
 11
222.1339297969453
 21
163.2860665184031
 31
0.0
  0
LWPOLYLINE
  5
1D4
330
1D1
100
AcDbEntity
  8
DXF0
  6
ByBlock
 62
     0
440
 16777216
100
AcDbPolyline
 90
        2
 70
     1
 43
0.5
 10
222.3839297969453
 20
158.336449609626
 42
1.0
 10
221.8839297969453
 20
158.336449609626
 42
1.0
  0
LWPOLYLINE
  5
1D8
330
1D1
100
AcDbEntity
  8
DXF0
  6
ByBlock
 62
     0
440
 16777216
100
AcDbPolyline
 90
        2
 70
     1
 43
0.5
 10
222.3839297969453
 20
159.336449609376
 42
1.0
 10
221.8839297969453
 20
159.336449609376
 42
1.0
  0
LINE
  5
1DC
330
1D1
100
AcDbEntity
  8
DXF0
  6
ByBlock
 62
     0
440
 16777216
100
AcDbLine
 10
226.9273721114702
 20
159.336449609376
 30
0.0
 11
220.1339297969453
 21
159.336449609376
 31
0.0
  0
TEXT
  5
1DD
330
1D1
100
AcDbEntity
  8
DXF0
  6
ByBlock
 62
     0
440
 16777216
100
AcDbText
 10
221.6339297969453
 20
160.6860663324858
 30
0.0
 40
3.099999904632568
  1
1
 50
90.0
100
AcDbText
  0
ENDBLK
  5
1DE
330
1D1
100
AcDbEntity
  8
DXF0
  6
Continuous
 62
     3
100
AcDbBlockEnd
  0
BLOCK
  5
1E0
330
1DF
100
AcDbEntity
  8
DXF0
  6
Continuous
 62
     3
100
AcDbBlockBegin
  2
*D24
 70
     1
 10
0.0
 20
0.0
 30
0.0
  3
*D24
  1

  0
LINE
  5
1E1
330
1DF
100
AcDbEntity
  8
DXF0
  6
ByBlock
 62
     0
440
 16777216
100
AcDbLine
 10
587.5092086814666
 20
156.8364496096263
 30
0.0
 11
587.5092086814666
 21
161.0138594966903
 31
0.0
  0
LWPOLYLINE
  5
1E2
330
1DF
100
AcDbEntity
  8
DXF0
  6
ByBlock
 62
     0
440
 16777216
100
AcDbPolyline
 90
        2
 70
     1
 43
0.5
 10
587.7592086814664
 20
156.8364496096263
 42
1.0
 10
587.2592086814664
 20
156.8364496096263
 42
1.0
  0
LWPOLYLINE
  5
1E6
330
1DF
100
AcDbEntity
  8
DXF0
  6
ByBlock
 62
     0
440
 16777216
100
AcDbPolyline
 90
        2
 70
     1
 43
0.5
 10
587.7592086814664
 20
157.8364496093764
 42
1.0
 10
587.2592086814664
 20
157.8364496093764
 42
1.0
  0
LINE
  5
1EA
330
1DF
100
AcDbEntity
  8
DXF0
  6
ByBlock
 62
     0
440
 16777216
100
AcDbLine
 10
591.9412277070404
 20
157.8364496093764
 30
0.0
 11
585.5092086814664
 21
157.8364496093764
 31
0.0
  0
TEXT
  5
1EB
330
1DF
100
AcDbEntity
  8
DXF0
  6
ByBlock
 62
     0
440
 16777216
100
AcDbText
 10
587.0092086814666
 20
158.4138595206073
 30
0.0
 40
3.099999904632568
  1
1
 50
90.0
100
AcDbText
  0
ENDBLK
  5
1EC
330
1DF
100
AcDbEntity
  8
DXF0
  6
Continuous
 62
     3
100
AcDbBlockEnd
  0
ENDSEC
  0
SECTION
  2
ENTITIES
  0
LINE
  5
1ED
330
6F
100
AcDbEntity
  8
KUTAI
  6
Continuous
100
AcDbLine
 10
517.4856009406731
 20
335.7555691123014
 30
0.0
 11
692.665189448772
 21
335.7555691123014
 31
0.0
  0
LINE
  5
1EE
330
6F
100
AcDbEntity
  8
WASHER
  6
HIDDEN
100
AcDbLine
 10
239.5273721234329
 20
422.2555691123014
 30
0.0
 11
239.5273721234329
 21
424.2555691122945
 31
0.0
  0
LINE
  5
1EF
330
6F
100
AcDbEntity
  8
WASHER
  6
HIDDEN
100
AcDbLine
 10
245.9273721234328
 20
422.2555691123014
 30
0.0
 11
245.9273721234328
 21
424.2555691123081
 31
0.0
  0
LINE
  5
1F0
330
6F
100
AcDbEntity
  8
KUTAI
  6
Continuous
100
AcDbLine
 10
284.0129803851768
 20
384.6987978358873
 30
0.0
 11
320.0697516615908
 21
420.7555691123013
 31
0.0
  0
LINE
  5
1F1
330
6F
100
AcDbEntity
  8
KUTAI
  6
Continuous
100
AcDbLine
 10
276.941912573311
 20
384.698797835887
 30
0.0
 11
312.9986838497251
 21
420.7555691123012
 31
0.0
  0
LINE
  5
1F2
330
6F
100
AcDbEntity
  8
KUTAI
  6
Continuous
100
AcDbLine
 10
269.8708447614457
 20
384.6987978358873
 30
0.0
 11
305.9276160378598
 21
420.7555691123014
 31
0.0
  0
LINE
  5
1F3
330
6F
100
AcDbEntity
  8
KUTAI
  6
Continuous
100
AcDbLine
 10
148.4647851474592
 20
384.6987978358871
 30
0.0
 11
184.5215564238731
 21
420.755569112301
 31
0.0
  0
LINE
  5
1F4
330
6F
100
AcDbEntity
  8
KUTAI
  6
Continuous
100
AcDbLine
 10
141.3937173355937
 20
384.6987978358873
 30
0.0
 11
177.4504886120079
 21
420.7555691123013
 31
0.0
  0
LINE
  5
1F5
330
6F
100
AcDbEntity
  8
KUTAI
  6
Continuous
100
AcDbLine
 10
134.3226495237282
 20
384.6987978358871
 30
0.0
 11
170.3794208001424
 21
420.7555691123014
 31
0.0
  0
LINE
  5
1F6
330
6F
100
AcDbEntity
  8
KUTAI
  6
Continuous
100
AcDbLine
 10
572.1209905521602
 20
335.7555691123015
 30
0.0
 11
672.1209905521599
 21
435.7555691123014
 31
0.0
  0
LINE
  5
1F7
330
6F
100
AcDbEntity
  8
KUTAI
  6
Continuous
100
AcDbLine
 10
565.0499227402947
 20
335.7555691123015
 30
0.0
 11
665.0499227402946
 21
435.7555691123013
 31
0.0
  0
LINE
  5
1F8
330
6F
100
AcDbEntity
  8
ANCHOR
  6
HIDDEN
100
AcDbLine
 10
604.7412277190032
 20
429.1158044133073
 30
0.0
 11
604.7412277190032
 21
439.2555691123014
 31
0.0
  0
LINE
  5
1F9
330
6F
100
AcDbEntity
  8
ANCHOR
  6
HIDDEN
100
AcDbLine
 10
610.7412277190031
 20
429.1158044133073
 30
0.0
 11
610.7412277190031
 21
439.2555691123014
 31
0.0
  0
LINE
  5
1FA
330
6F
100
AcDbEntity
  8
ANCHOR
  6
CENTER
100
AcDbLine
 10
607.7412277190031
 20
114.6259139050352
 30
0.0
 11
607.7412277190031
 21
170.3068162692735
 31
0.0
  0
LINE
  5
1FB
330
6F
100
AcDbEntity
  8
KUTAI
  6
Continuous
100
AcDbLine
 10
132.4720475945935
 20
158.336449609626
 30
0.0
 11
334.6456117066339
 21
158.336449609626
 31
0.0
  0
LINE
  5
1FC
330
6F
100
AcDbEntity
  8
ANCHOR
  6
CENTER
100
AcDbLine
 10
242.7273721234328
 20
111.766394050431
 30
0.0
 11
242.7273721234328
 21
171.8068162692732
 31
0.0
  0
LINE
  5
1FD
330
6F
100
AcDbEntity
  8
ANCHOR
  6
Continuous
100
AcDbLine
 10
248.2273721234651
 20
161.8364496096299
 30
0.0
 11
237.2273721234651
 21
161.8364496096218
 31
0.0
  0
LINE
  5
1FE
330
6F
100
AcDbEntity
  8
ANCHOR
  6
Continuous
100
AcDbLine
 10
248.2273721234645
 20
161.8364496096304
 30
0.0
 11
248.2273721234648
 21
162.6364496096301
 31
0.0
  0
LINE
  5
1FF
330
6F
100
AcDbEntity
  8
ANCHOR
  6
Continuous
100
AcDbLine
 10
237.2273721234645
 20
161.8364496096219
 30
0.0
 11
237.2273721234648
 21
162.6364496096221
 31
0.0
  0
LINE
  5
200
330
6F
100
AcDbEntity
  8
ANCHOR
  6
Continuous
100
AcDbLine
 10
248.2273721234645
 20
162.6364496096301
 30
0.0
 11
237.2273721234645
 21
162.636449609622
 31
0.0
  0
ARC
  5
201
330
6F
100
AcDbEntity
  8
ANCHOR
  6
Continuous
100
AcDbCircle
 10
242.7273721234668
 20
158.7805672566849
 30
0.0
 40
5.555882352941173
100
AcDbArc
 50
43.94901598298635
 51
136.0509840170985
  0
LINE
  5
202
330
6F
100
AcDbEntity
  8
ANCHOR
  6
HIDDEN
100
AcDbLine
 10
240.7273721233263
 20
125.3364496096783
 30
0.0
 11
240.7273721232859
 21
161.8364496098018
 31
0.0
  0
LINE
  5
203
330
6F
100
AcDbEntity
  8
ANCHOR
  6
HIDDEN
100
AcDbLine
 10
244.7273721233263
 20
125.3364496091232
 30
0.0
 11
244.7273721232859
 21
161.8364496098174
 31
0.0
  0
LINE
  5
204
330
6F
100
AcDbEntity
  8
ANCHOR
  6
HIDDEN
100
AcDbLine
 10
241.7273721233181
 20
122.4137998789131
 30
0.0
 11
241.727372123322
 21
124.3364496096676
 31
0.0
  0
LINE
  5
205
330
6F
100
AcDbEntity
  8
ANCHOR
  6
HIDDEN
100
AcDbLine
 10
243.7273721233181
 20
122.4137998787172
 30
0.0
 11
243.727372123322
 21
124.3364496091297
 31
0.0
  0
LINE
  5
206
330
6F
100
AcDbEntity
  8
ANCHOR
  6
HIDDEN
100
AcDbLine
 10
242.7273721234784
 20
121.836449609625
 30
0.0
 11
241.7273721233177
 21
122.4137998789124
 31
0.0
  0
LINE
  5
207
330
6F
100
AcDbEntity
  8
ANCHOR
  6
HIDDEN
100
AcDbLine
 10
243.727372123317
 20
122.4137998787168
 30
0.0
 11
242.7273721234781
 21
121.836449609625
 31
0.0
  0
ARC
  5
208
330
6F
100
AcDbEntity
  8
ANCHOR
  6
HIDDEN
100
AcDbCircle
 10
242.7273721233194
 20
123.8364496091199
 30
0.0
 40
0.5
100
AcDbArc
 50
7.206793861208892
 51
172.7932061383134
  0
LINE
  5
209
330
6F
100
AcDbEntity
  8
ANCHOR
  6
HIDDEN
100
AcDbLine
 10
243.2234220397804
 20
123.8991750455848
 30
0.0
 11
243.7273721233182
 21
122.4137998787164
 31
0.0
  0
LINE
  5
20A
330
6F
100
AcDbEntity
  8
ANCHOR
  6
HIDDEN
100
AcDbLine
 10
242.2313222068599
 20
123.8991750455883
 30
0.0
 11
241.7273721233178
 21
122.4137998789128
 31
0.0
  0
LINE
  5
20B
330
6F
100
AcDbEntity
  8
ANCHOR
  6
HIDDEN
100
AcDbLine
 10
241.7273721233227
 20
124.3364496096696
 30
0.0
 11
240.7273721233254
 21
125.336449609679
 31
0.0
  0
LINE
  5
20C
330
6F
100
AcDbEntity
  8
ANCHOR
  6
HIDDEN
100
AcDbLine
 10
244.7273721233234
 20
125.3364496091232
 30
0.0
 11
243.7273721233232
 21
124.3364496091307
 31
0.0
  0
LINE
  5
20D
330
6F
100
AcDbEntity
  8
ANCHOR
  6
HIDDEN
100
AcDbLine
 10
244.727372123324
 20
125.3364496093916
 30
0.0
 11
240.727372123324
 21
125.3364496094064
 31
0.0
  0
LINE
  5
20E
330
6F
100
AcDbEntity
  8
ANCHOR
  6
HIDDEN
100
AcDbLine
 10
243.7273721233241
 20
124.3364496096263
 30
0.0
 11
241.7273721233241
 21
124.3364496096355
 31
0.0
  0
LINE
  5
20F
330
6F
100
AcDbEntity
  8
ANCHOR
  6
HIDDEN
100
AcDbLine
 10
243.9273721233238
 20
124.5364496091281
 30
0.0
 11
243.9273721232827
 21
161.8364496098135
 31
0.0
  0
LINE
  5
210
330
6F
100
AcDbEntity
  8
ANCHOR
  6
HIDDEN
100
AcDbLine
 10
241.5273721233242
 20
124.5364496096693
 30
0.0
 11
241.5273721232831
 21
161.8364496098043
 31
0.0
  0
LINE
  5
211
330
6F
100
AcDbEntity
  8
KUTAI
  6
Continuous
100
AcDbLine
 10
227.7273721234328
 20
97.33644960962593
 30
0.0
 11
227.7273721234328
 21
153.336449609626
 31
0.0
  0
LINE
  5
212
330
6F
100
AcDbEntity
  8
KUTAI
  6
Continuous
100
AcDbLine
 10
229.7273721234328
 20
95.33644960962595
 30
0.0
 11
255.7273721234328
 21
95.33644960962595
 31
0.0
  0
LINE
  5
213
330
6F
100
AcDbEntity
  8
KUTAI
  6
Continuous
100
AcDbLine
 10
230.3273721234328
 20
153.736449609626
 30
0.0
 11
255.1273721234328
 21
153.736449609626
 31
0.0
  0
LINE
  5
214
330
6F
100
AcDbEntity
  8
KUTAI
  6
Continuous
100
AcDbLine
 10
229.3273721234328
 20
97.93644960962595
 30
0.0
 11
229.3273721234328
 21
152.736449609626
 31
0.0
  0
LINE
  5
215
330
6F
100
AcDbEntity
  8
KUTAI
  6
Continuous
100
AcDbLine
 10
230.3273721234328
 20
96.93644960962595
 30
0.0
 11
255.1273721234329
 21
96.93644960962595
 31
0.0
  0
LINE
  5
216
330
6F
100
AcDbEntity
  8
KUTAI
  6
Continuous
100
AcDbLine
 10
256.1273721234328
 20
145.336449609626
 30
0.0
 11
257.7273721234328
 21
145.336449609626
 31
0.0
  0
LINE
  5
217
330
6F
100
AcDbEntity
  8
KUTAI
  6
Continuous
100
AcDbLine
 10
256.1273721234328
 20
105.336449609626
 30
0.0
 11
257.7273721234328
 21
105.336449609626
 31
0.0
  0
LINE
  5
218
330
6F
100
AcDbEntity
  8
KUTAI
  6
Continuous
100
AcDbLine
 10
256.1273721234328
 20
97.93644960962595
 30
0.0
 11
256.1273721234328
 21
105.336449609626
 31
0.0
  0
LINE
  5
219
330
6F
100
AcDbEntity
  8
KUTAI
  6
Continuous
100
AcDbLine
 10
256.1273721234328
 20
145.336449609626
 30
0.0
 11
256.1273721234328
 21
152.736449609626
 31
0.0
  0
LINE
  5
21A
330
6F
100
AcDbEntity
  8
KUTAI
  6
Continuous
100
AcDbLine
 10
257.7273721234328
 20
97.33644960962593
 30
0.0
 11
257.7273721234328
 21
105.336449609626
 31
0.0
  0
LINE
  5
21B
330
6F
100
AcDbEntity
  8
KUTAI
  6
Continuous
100
AcDbLine
 10
257.7273721234328
 20
145.336449609626
 30
0.0
 11
257.7273721234328
 21
153.336449609626
 31
0.0
  0
ARC
  5
21C
330
6F
100
AcDbEntity
  8
KUTAI
  6
Continuous
100
AcDbCircle
 10
255.7273721234328
 20
153.336449609626
 30
0.0
 40
2.0
100
AcDbArc
 50
0.0
 51
90.0
  0
ARC
  5
21D
330
6F
100
AcDbEntity
  8
KUTAI
  6
Continuous
100
AcDbCircle
 10
229.7273721234328
 20
153.336449609626
 30
0.0
 40
2.0
100
AcDbArc
 50
90.0
 51
180.0
  0
ARC
  5
21E
330
6F
100
AcDbEntity
  8
KUTAI
  6
Continuous
100
AcDbCircle
 10
229.7273721234328
 20
97.33644960962593
 30
0.0
 40
2.0
100
AcDbArc
 50
180.0
 51
270.0
  0
ARC
  5
21F
330
6F
100
AcDbEntity
  8
KUTAI
  6
Continuous
100
AcDbCircle
 10
255.7273721234328
 20
97.33644960962593
 30
0.0
 40
2.0
100
AcDbArc
 50
270.0
 51
0.0
  0
ARC
  5
220
330
6F
100
AcDbEntity
  8
KUTAI
  6
Continuous
100
AcDbCircle
 10
255.1273721234329
 20
97.93644960962595
 30
0.0
 40
1.0
100
AcDbArc
 50
270.0
 51
0.0
  0
ARC
  5
221
330
6F
100
AcDbEntity
  8
KUTAI
  6
Continuous
100
AcDbCircle
 10
255.1273721234328
 20
152.736449609626
 30
0.0
 40
1.0
100
AcDbArc
 50
0.0
 51
90.0
  0
ARC
  5
222
330
6F
100
AcDbEntity
  8
KUTAI
  6
Continuous
100
AcDbCircle
 10
230.3273721234328
 20
152.736449609626
 30
0.0
 40
1.0
100
AcDbArc
 50
90.0
 51
180.0
  0
ARC
  5
223
330
6F
100
AcDbEntity
  8
KUTAI
  6
Continuous
100
AcDbCircle
 10
230.3273721234328
 20
97.93644960962595
 30
0.0
 40
1.0
100
AcDbArc
 50
180.0
 51
270.0
  0
LINE
  5
224
330
6F
100
AcDbEntity
  8
KUTAI
  6
Continuous
100
AcDbLine
 10
132.4720475945935
 20
155.336449609626
 30
0.0
 11
334.6456117066339
 21
155.336449609626
 31
0.0
  0
INSERT
  5
225
330
6F
100
AcDbEntity
  8
KUTAI
  6
Continuous
100
AcDbBlockReference
  2
*X0
 10
0.0
 20
0.0
 30
0.0
  0
TEXT
  5
226
330
6F
100
AcDbEntity
  8
COMMENT
  6
Continuous
100
AcDbText
 10
349.9418172490461
 20
322.2594101746117
 30
0.0
 40
6.0
  1
RC納まり図
  7
KNJYOKO
100
AcDbText
  0
LINE
  5
227
330
6F
100
AcDbEntity
  8
COMMENT
  6
Continuous
100
AcDbLine
 10
343.7194436660042
 20
316.0977062953458
 30
0.0
 11
393.4272863119038
 21
316.0977062953458
 31
0.0
  0
LINE
  5
228
330
6F
100
AcDbEntity
  8
COMMENT
  6
Continuous
100
AcDbLine
 10
393.4272863119038
 20
316.0977062953458
 30
0.0
 11
393.4272863119038
 21
332.4572886387153
 31
0.0
  0
LINE
  5
229
330
6F
100
AcDbEntity
  8
COMMENT
  6
Continuous
100
AcDbLine
 10
393.4272863119038
 20
332.4572886387153
 30
0.0
 11
343.7194436660042
 21
332.4572886387153
 31
0.0
  0
LINE
  5
22A
330
6F
100
AcDbEntity
  8
COMMENT
  6
Continuous
100
AcDbLine
 10
343.7194436660042
 20
332.4572886387153
 30
0.0
 11
343.7194436660042
 21
316.0977062953458
 31
0.0
  0
TEXT
  5
22B
330
6F
100
AcDbEntity
  8
COMMENT
  6
Continuous
100
AcDbText
 10
727.6557351031136
 20
321.7013496810606
 30
0.0
 40
6.0
  1
ALC納まり図
  7
KNJYOKO
100
AcDbText
  0
LINE
  5
22C
330
6F
100
AcDbEntity
  8
COMMENT
  6
Continuous
100
AcDbLine
 10
723.8888328008928
 20
316.0977062953458
 30
0.0
 11
773.5966754467924
 21
316.0977062953458
 31
0.0
  0
LINE
  5
22D
330
6F
100
AcDbEntity
  8
COMMENT
  6
Continuous
100
AcDbLine
 10
773.5966754467924
 20
316.0977062953458
 30
0.0
 11
773.5966754467924
 21
332.4572886387153
 31
0.0
  0
LINE
  5
22E
330
6F
100
AcDbEntity
  8
COMMENT
  6
Continuous
100
AcDbLine
 10
773.5966754467924
 20
332.4572886387153
 30
0.0
 11
723.8888328008928
 21
332.4572886387153
 31
0.0
  0
LINE
  5
22F
330
6F
100
AcDbEntity
  8
COMMENT
  6
Continuous
100
AcDbLine
 10
723.8888328008928
 20
332.4572886387153
 30
0.0
 11
723.8888328008928
 21
316.0977062953458
 31
0.0
  0
TEXT
  5
230
330
6F
100
AcDbEntity
  8
COMMENT
  6
Continuous
100
AcDbText
 10
727.6696757584102
 20
53.68204903107908
 30
0.0
 40
6.0
  1
ECP納まり図
  7
KNJYOKO
100
AcDbText
  0
LINE
  5
231
330
6F
100
AcDbEntity
  8
COMMENT
  6
Continuous
100
AcDbLine
 10
723.8888328008928
 20
47.52034515181314
 30
0.0
 11
773.5966754467924
 21
47.52034515181314
 31
0.0
  0
LINE
  5
232
330
6F
100
AcDbEntity
  8
COMMENT
  6
Continuous
100
AcDbLine
 10
773.5966754467924
 20
47.52034515181314
 30
0.0
 11
773.5966754467924
 21
63.87992749518264
 31
0.0
  0
LINE
  5
233
330
6F
100
AcDbEntity
  8
COMMENT
  6
Continuous
100
AcDbLine
 10
773.5966754467924
 20
63.87992749518264
 30
0.0
 11
723.8888328008928
 21
63.87992749518264
 31
0.0
  0
LINE
  5
234
330
6F
100
AcDbEntity
  8
COMMENT
  6
Continuous
100
AcDbLine
 10
723.8888328008928
 20
63.87992749518264
 30
0.0
 11
723.8888328008928
 21
47.52034515181314
 31
0.0
  0
TEXT
  5
235
330
6F
100
AcDbEntity
  8
COMMENT
  6
Continuous
100
AcDbText
 10
349.941817249046
 20
53.68204903107908
 30
0.0
 40
6.0
  1
鉄骨納まり図
  7
KNJYOKO
100
AcDbText
  0
LINE
  5
236
330
6F
100
AcDbEntity
  8
COMMENT
  6
Continuous
100
AcDbLine
 10
343.7194436660041
 20
47.52034515181314
 30
0.0
 11
393.4272863119038
 21
47.52034515181314
 31
0.0
  0
LINE
  5
237
330
6F
100
AcDbEntity
  8
COMMENT
  6
Continuous
100
AcDbLine
 10
393.4272863119038
 20
47.52034515181314
 30
0.0
 11
393.4272863119038
 21
63.87992749518264
 31
0.0
  0
LINE
  5
238
330
6F
100
AcDbEntity
  8
COMMENT
  6
Continuous
100
AcDbLine
 10
393.4272863119038
 20
63.87992749518264
 30
0.0
 11
343.7194436660041
 21
63.87992749518264
 31
0.0
  0
LINE
  5
239
330
6F
100
AcDbEntity
  8
COMMENT
  6
Continuous
100
AcDbLine
 10
343.7194436660041
 20
63.87992749518264
 30
0.0
 11
343.7194436660041
 21
47.52034515181314
 31
0.0
  0
LINE
  5
23A
330
6F
100
AcDbEntity
  8
WAKU
  6
Continuous
100
AcDbLine
 10
33.25789717601344
 20
27.52034515181316
 30
0.0
 11
793.5966754467925
 21
27.52034515181316
 31
0.0
  0
LINE
  5
23B
330
6F
100
AcDbEntity
  8
WAKU
  6
Continuous
100
AcDbLine
 10
793.5966754467925
 20
27.52034515181316
 30
0.0
 11
793.5966754467925
 21
574.6750674359868
 31
0.0
  0
LINE
  5
23C
330
6F
100
AcDbEntity
  8
WAKU
  6
Continuous
100
AcDbLine
 10
33.25789717601344
 20
574.6750674359868
 30
0.0
 11
33.25789717601344
 21
27.52034515181316
 31
0.0
  0
LINE
  5
23D
330
6F
100
AcDbEntity
  8
WAKU
  6
Continuous
100
AcDbLine
 10
793.5966754467925
 20
296.0977062953458
 30
0.0
 11
33.25789717601344
 21
296.0977062953458
 31
0.0
  0
LINE
  5
23E
330
6F
100
AcDbEntity
  8
WAKU
  6
Continuous
100
AcDbLine
 10
413.4272863119038
 20
27.52034515181315
 30
0.0
 11
413.4272863119038
 21
549.6750674359868
 31
0.0
  0
LINE
  5
23F
330
6F
100
AcDbEntity
  8
WAKU
  6
Continuous
100
AcDbLine
 10
793.5966754467925
 20
574.6750674359868
 30
0.0
 11
33.25789717601344
 21
574.6750674359868
 31
0.0
  0
LINE
  5
240
330
6F
100
AcDbEntity
  8
WAKU
  6
Continuous
100
AcDbLine
 10
793.5966754467925
 20
549.6750674359868
 30
0.0
 11
33.25789717601344
 21
549.6750674359868
 31
0.0
  0
LINE
  5
241
330
6F
100
AcDbEntity
  8
UKEZAI
  6
Continuous
100
AcDbLine
 10
589.5412277200502
 20
156.8364496096264
 30
0.0
 11
625.9412277201533
 21
156.8364496096264
 31
0.0
  0
LINE
  5
242
330
6F
100
AcDbEntity
  8
ANCHOR
  6
CENTER
100
AcDbLine
 10
607.7412277190031
 20
374.5441334540211
 30
0.0
 11
607.7412277190031
 21
453.3511387659603
 31
0.0
  0
LINE
  5
243
330
6F
100
AcDbEntity
  8
ANCHOR
  6
Continuous
100
AcDbLine
 10
602.7412277189593
 20
443.2555691123011
 30
0.0
 11
612.7412277189592
 21
443.2555691123011
 31
0.0
  0
LINE
  5
244
330
6F
100
AcDbEntity
  8
ANCHOR
  6
Continuous
100
AcDbLine
 10
613.5147304108556
 20
442.8089871249161
 30
0.0
 11
613.5147304108556
 21
439.2555691123014
 31
0.0
  0
LINE
  5
245
330
6F
100
AcDbEntity
  8
ANCHOR
  6
Continuous
100
AcDbLine
 10
601.9677250270631
 20
442.8089871249161
 30
0.0
 11
601.9677250270631
 21
439.2555691123014
 31
0.0
  0
LINE
  5
246
330
6F
100
AcDbEntity
  8
ANCHOR
  6
Continuous
100
AcDbLine
 10
604.8544763730108
 20
442.7040143486999
 30
0.0
 11
604.8544763730108
 21
439.2555691123014
 31
0.0
  0
LINE
  5
247
330
6F
100
AcDbEntity
  8
ANCHOR
  6
Continuous
100
AcDbLine
 10
610.6279790649071
 20
442.7040143486999
 30
0.0
 11
610.6279790649071
 21
439.2555691123014
 31
0.0
  0
LINE
  5
248
330
6F
100
AcDbEntity
  8
ANCHOR
  6
Continuous
100
AcDbLine
 10
613.5147304108555
 20
442.8089871249165
 30
0.0
 11
612.7412277189587
 21
443.2555691123018
 31
0.0
  0
LINE
  5
249
330
6F
100
AcDbEntity
  8
ANCHOR
  6
Continuous
100
AcDbLine
 10
601.9677250270627
 20
442.8089871249158
 30
0.0
 11
602.7412277189593
 21
443.2555691123011
 31
0.0
  0
ARC
  5
24A
330
6F
100
AcDbEntity
  8
ANCHOR
  6
Continuous
100
AcDbCircle
 10
607.7412277189588
 20
435.4253892638076
 30
0.0
 40
7.830179848493714
100
AcDbArc
 50
68.36639223264487
 51
111.6336077673514
  0
ARC
  5
24B
330
6F
100
AcDbEntity
  8
ANCHOR
  6
Continuous
100
AcDbCircle
 10
603.4111007000368
 20
441.0911911138279
 30
0.0
 40
2.164377998473439
100
AcDbArc
 50
48.17345191046694
 51
89.9999999994255
  0
ARC
  5
24C
330
6F
100
AcDbEntity
  8
ANCHOR
  6
Continuous
100
AcDbCircle
 10
612.0713547378812
 20
441.0911911138265
 30
0.0
 40
2.16437799847471
100
AcDbArc
 50
89.9999999994255
 51
131.8265480895158
  0
LINE
  5
24D
330
6F
100
AcDbEntity
  8
ANCHOR
  6
Continuous
100
AcDbLine
 10
601.9677250270631
 20
439.2555691123014
 30
0.0
 11
613.5147304108556
 21
439.2555691123014
 31
0.0
  0
LINE
  5
24E
330
6F
100
AcDbEntity
  8
KUTAI
  6
Continuous
100
AcDbLine
 10
517.4856009406731
 20
435.7555691123014
 30
0.0
 11
692.665189448772
 21
435.7555691123014
 31
0.0
  0
ARC
  5
24F
330
6F
100
AcDbEntity
  8
ANCHOR
  6
HIDDEN
100
AcDbCircle
 10
615.1912277190031
 20
435.3555691123011
 30
0.0
 40
0.3
100
AcDbArc
 50
270.0
 51
0.0
  0
LINE
  5
250
330
6F
100
AcDbEntity
  8
ANCHOR
  6
HIDDEN
100
AcDbLine
 10
615.4912277190027
 20
435.3555691123013
 30
0.0
 11
615.4912277190027
 21
435.7555691123014
 31
0.0
  0
LINE
  5
251
330
6F
100
AcDbEntity
  8
ANCHOR
  6
HIDDEN
100
AcDbLine
 10
618.2412277190027
 20
435.7555691123014
 30
0.0
 11
618.2412277190027
 21
427.7555691123014
 31
0.0
  0
LINE
  5
252
330
6F
100
AcDbEntity
  8
ANCHOR
  6
HIDDEN
100
AcDbLine
 10
606.835506704211
 20
434.0555691123021
 30
0.0
 11
607.7412277190031
 21
427.7555691123021
 31
0.0
  0
LINE
  5
253
330
6F
100
AcDbEntity
  8
ANCHOR
  6
HIDDEN
100
AcDbLine
 10
607.7412277190031
 20
435.0555691123011
 30
0.0
 11
607.7412277190027
 21
427.7555691123046
 31
0.0
  0
ARC
  5
254
330
6F
100
AcDbEntity
  8
ANCHOR
  6
HIDDEN
100
AcDbCircle
 10
607.4652741066792
 20
433.8954668481942
 30
0.0
 40
1.192471240466957
100
AcDbArc
 50
7.715883603285383
 51
76.61971166401229
  0
LINE
  5
255
330
6F
100
AcDbEntity
  8
ANCHOR
  6
HIDDEN
100
AcDbLine
 10
608.6469487337948
 20
434.0555691123007
 30
0.0
 11
607.7412277190022
 21
427.755569112301
 31
0.0
  0
ARC
  5
256
330
6F
100
AcDbEntity
  8
ANCHOR
  6
HIDDEN
100
AcDbCircle
 10
608.0171813313262
 20
433.8954668481942
 30
0.0
 40
1.192471240466957
100
AcDbArc
 50
103.3802883359746
 51
172.2841163967017
  0
LINE
  5
257
330
6F
100
AcDbEntity
  8
ANCHOR
  6
HIDDEN
100
AcDbLine
 10
608.6469487337948
 20
434.0555691123013
 30
0.0
 11
613.7412277190027
 21
434.0555691123003
 31
0.0
  0
LINE
  5
258
330
6F
100
AcDbEntity
  8
ANCHOR
  6
HIDDEN
100
AcDbLine
 10
599.9912277190027
 20
435.3555691123013
 30
0.0
 11
599.9912277190027
 21
435.7555691123014
 31
0.0
  0
ARC
  5
259
330
6F
100
AcDbEntity
  8
ANCHOR
  6
HIDDEN
100
AcDbCircle
 10
600.7412277190027
 20
434.0555691123013
 30
0.0
 40
1.0
100
AcDbArc
 50
0.0
 51
90.0
  0
LINE
  5
25A
330
6F
100
AcDbEntity
  8
ANCHOR
  6
HIDDEN
100
AcDbLine
 10
597.2412277190036
 20
435.7555691123013
 30
0.0
 11
597.2412277190027
 21
427.7555691123013
 31
0.0
  0
ARC
  5
25B
330
6F
100
AcDbEntity
  8
ANCHOR
  6
HIDDEN
100
AcDbCircle
 10
600.291227719003
 20
435.3555691123011
 30
0.0
 40
0.3
100
AcDbArc
 50
180.0
 51
270.0
  0
LINE
  5
25C
330
6F
100
AcDbEntity
  8
ANCHOR
  6
HIDDEN
100
AcDbLine
 10
606.8355067042106
 20
434.0555691123011
 30
0.0
 11
601.7412277190027
 21
434.0555691123011
 31
0.0
  0
LINE
  5
25D
330
6F
100
AcDbEntity
  8
ANCHOR
  6
HIDDEN
100
AcDbLine
 10
597.2412277190036
 20
435.7555691123014
 30
0.0
 11
618.2412277190027
 21
435.7555691123014
 31
0.0
  0
ARC
  5
25E
330
6F
100
AcDbEntity
  8
ANCHOR
  6
HIDDEN
100
AcDbCircle
 10
614.7412277190027
 20
434.0555691123013
 30
0.0
 40
1.0
100
AcDbArc
 50
90.0
 51
180.0
  0
LINE
  5
25F
330
6F
100
AcDbEntity
  8
ANCHOR
  6
HIDDEN
100
AcDbLine
 10
600.291227719003
 20
435.055569112302
 30
0.0
 11
615.1912277190031
 21
435.0555691123001
 31
0.0
  0
LINE
  5
260
330
6F
100
AcDbEntity
  8
ANCHOR
  6
HIDDEN
100
AcDbLine
 10
613.9805777024335
 20
395.8623028133494
 30
0.0
 11
617.0805777024336
 21
390.4929453098862
 31
0.0
  0
LINE
  5
261
330
6F
100
AcDbEntity
  8
ANCHOR
  6
HIDDEN
100
AcDbLine
 10
616.0421196708518
 20
389.8933912858097
 30
0.0
 11
617.080577702433
 21
390.4929453098856
 31
0.0
  0
LINE
  5
262
330
6F
100
AcDbEntity
  8
ANCHOR
  6
HIDDEN
100
AcDbLine
 10
617.1027041099626
 20
411.0340409989897
 30
0.0
 11
614.2851055676681
 21
405.3201175062492
 31
0.0
  0
ARC
  5
263
330
6F
100
AcDbEntity
  8
ANCHOR
  6
HIDDEN
100
AcDbCircle
 10
600.3627507548399
 20
424.991693621243
 30
0.0
 40
14.09781378264538
100
AcDbArc
 50
261.9139567489959
 51
286.0860432509978
  0
LINE
  5
264
330
6F
100
AcDbEntity
  8
ANCHOR
  6
HIDDEN
100
AcDbLine
 10
611.340038142834
 20
389.8933912858098
 30
0.0
 11
611.340038142834
 21
395.9555691123011
 31
0.0
  0
LINE
  5
265
330
6F
100
AcDbEntity
  8
ANCHOR
  6
HIDDEN
100
AcDbLine
 10
604.1424172951714
 20
389.8933912858098
 30
0.0
 11
604.1424172951714
 21
395.9555691123011
 31
0.0
  0
LINE
  5
266
330
6F
100
AcDbEntity
  8
ANCHOR
  6
HIDDEN
100
AcDbLine
 10
602.2412277190027
 20
391.7555691123013
 30
0.0
 11
604.1424172951714
 21
391.7555691123013
 31
0.0
  0
LINE
  5
267
330
6F
100
AcDbEntity
  8
ANCHOR
  6
HIDDEN
100
AcDbLine
 10
613.2412277190027
 20
391.7555691123013
 30
0.0
 11
611.340038142834
 21
391.7555691123013
 31
0.0
  0
LINE
  5
268
330
6F
100
AcDbEntity
  8
ANCHOR
  6
HIDDEN
100
AcDbLine
 10
604.1424172951714
 20
395.9555691123011
 30
0.0
 11
602.9403357671542
 21
395.9555691123011
 31
0.0
  0
LINE
  5
269
330
6F
100
AcDbEntity
  8
ANCHOR
  6
HIDDEN
100
AcDbLine
 10
602.2412277190037
 20
405.0634744676818
 30
0.0
 11
602.2412277190031
 21
404.2555691123017
 31
0.0
  0
LINE
  5
26A
330
6F
100
AcDbEntity
  8
ANCHOR
  6
HIDDEN
100
AcDbLine
 10
612.9452349220048
 20
396.6555691123007
 30
0.0
 11
613.5475650005412
 21
395.6123028133487
 31
0.0
  0
LINE
  5
26B
330
6F
100
AcDbEntity
  8
ANCHOR
  6
HIDDEN
100
AcDbLine
 10
613.2412277190027
 20
405.0634744676816
 30
0.0
 11
613.2412277190027
 21
404.2555691123014
 31
0.0
  0
LINE
  5
26C
330
6F
100
AcDbEntity
  8
ANCHOR
  6
HIDDEN
100
AcDbLine
 10
613.7412277190027
 20
404.2555691123014
 30
0.0
 11
613.7412277190027
 21
396.655569112301
 31
0.0
  0
LINE
  5
26D
330
6F
100
AcDbEntity
  8
ANCHOR
  6
HIDDEN
100
AcDbLine
 10
606.8912277190035
 20
404.9555691123014
 30
0.0
 11
608.5912277190032
 21
404.9555691123014
 31
0.0
  0
LINE
  5
26E
330
6F
100
AcDbEntity
  8
ANCHOR
  6
HIDDEN
100
AcDbLine
 10
611.340038142834
 20
395.9555691123011
 30
0.0
 11
612.5421196708511
 21
395.9555691123011
 31
0.0
  0
LINE
  5
26F
330
6F
100
AcDbEntity
  8
ANCHOR
  6
HIDDEN
100
AcDbLine
 10
604.1424172951717
 20
395.862302813349
 30
0.0
 11
611.340038142834
 21
395.862302813349
 31
0.0
  0
LINE
  5
270
330
6F
100
AcDbEntity
  8
ANCHOR
  6
HIDDEN
100
AcDbLine
 10
604.1424172951714
 20
389.8933912858098
 30
0.0
 11
611.340038142834
 21
389.8933912858098
 31
0.0
  0
LINE
  5
271
330
6F
100
AcDbEntity
  8
ANCHOR
  6
HIDDEN
100
AcDbLine
 10
601.5018777355726
 20
395.8623028133494
 30
0.0
 11
598.4018777355727
 21
390.4929453098862
 31
0.0
  0
LINE
  5
272
330
6F
100
AcDbEntity
  8
ANCHOR
  6
HIDDEN
100
AcDbLine
 10
599.4403357671551
 20
389.8933912858103
 30
0.0
 11
598.4018777355733
 21
390.4929453098861
 31
0.0
  0
LINE
  5
273
330
6F
100
AcDbEntity
  8
ANCHOR
  6
HIDDEN
100
AcDbLine
 10
600.8324523097509
 20
390.7864447411873
 30
0.0
 11
599.4403357671544
 21
389.8933912858094
 31
0.0
  0
LINE
  5
274
330
6F
100
AcDbEntity
  8
ANCHOR
  6
HIDDEN
100
AcDbLine
 10
601.7412277190027
 20
404.2555691123014
 30
0.0
 11
601.7412277190027
 21
396.655569112301
 31
0.0
  0
LINE
  5
275
330
6F
100
AcDbEntity
  8
ANCHOR
  6
HIDDEN
100
AcDbLine
 10
600.8324523097512
 20
390.7864447411879
 30
0.0
 11
603.8168476568877
 21
395.9555691123006
 31
0.0
  0
LINE
  5
276
330
6F
100
AcDbEntity
  8
ANCHOR
  6
HIDDEN
100
AcDbLine
 10
599.4403357671548
 20
389.89339128581
 30
0.0
 11
602.9403357671546
 21
395.9555691123011
 31
0.0
  0
ARC
  5
277
330
6F
100
AcDbEntity
  8
ANCHOR
  6
HIDDEN
100
AcDbCircle
 10
603.4300332413833
 20
412.1501309669956
 30
0.0
 40
7.185677345199168
100
AcDbArc
 50
251.8977955235752
 51
296.102204476418
  0
LINE
  5
278
330
6F
100
AcDbEntity
  8
ANCHOR
  6
HIDDEN
100
AcDbLine
 10
602.5403357671542
 20
395.2627487892734
 30
0.0
 11
601.5018777355723
 21
395.8623028133492
 31
0.0
  0
LINE
  5
279
330
6F
100
AcDbEntity
  8
ANCHOR
  6
HIDDEN
100
AcDbLine
 10
602.5372205160011
 20
396.6555691123017
 30
0.0
 11
601.9348904374651
 21
395.6123028133495
 31
0.0
  0
LINE
  5
27A
330
6F
100
AcDbEntity
  8
ANCHOR
  6
HIDDEN
100
AcDbLine
 10
601.7412277190027
 20
396.655569112301
 30
0.0
 11
613.7412277190027
 21
396.655569112301
 31
0.0
  0
LINE
  5
27B
330
6F
100
AcDbEntity
  8
ANCHOR
  6
HIDDEN
100
AcDbLine
 10
601.7412277190032
 20
404.2555691123017
 30
0.0
 11
613.7412277190032
 21
404.2555691123017
 31
0.0
  0
LINE
  5
27C
330
6F
100
AcDbEntity
  8
ANCHOR
  6
HIDDEN
100
AcDbLine
 10
604.2689815650918
 20
411.4458560942687
 30
0.0
 11
606.8912277190032
 21
404.9555691123014
 31
0.0
  0
LINE
  5
27D
330
6F
100
AcDbEntity
  8
ANCHOR
  6
HIDDEN
100
AcDbLine
 10
611.213473872915
 20
411.4458560942696
 30
0.0
 11
608.5912277190034
 21
404.9555691123023
 31
0.0
  0
LINE
  5
27E
330
6F
100
AcDbEntity
  8
ANCHOR
  6
HIDDEN
100
AcDbLine
 10
598.3797513280424
 20
411.0340409989906
 30
0.0
 11
601.1973498703375
 21
405.32011750625
 31
0.0
  0
ARC
  5
27F
330
6F
100
AcDbEntity
  8
ANCHOR
  6
HIDDEN
100
AcDbCircle
 10
615.1197046831661
 20
424.991693621243
 30
0.0
 40
14.09781378264538
100
AcDbArc
 50
253.9139567490022
 51
278.086043251004
  0
LINE
  5
280
330
6F
100
AcDbEntity
  8
ANCHOR
  6
HIDDEN
100
AcDbLine
 10
616.0421196708518
 20
389.8933912858105
 30
0.0
 11
612.5421196708513
 21
395.9555691123018
 31
0.0
  0
LINE
  5
281
330
6F
100
AcDbEntity
  8
ANCHOR
  6
HIDDEN
100
AcDbLine
 10
612.9421196708504
 20
395.2627487892739
 30
0.0
 11
613.9805777024322
 21
395.8623028133495
 31
0.0
  0
ARC
  5
282
330
6F
100
AcDbEntity
  8
ANCHOR
  6
HIDDEN
100
AcDbCircle
 10
612.0524221966234
 20
412.1501309669956
 30
0.0
 40
7.185677345199168
100
AcDbArc
 50
243.897795523582
 51
288.1022044764124
  0
LINE
  5
283
330
6F
100
AcDbEntity
  8
ANCHOR
  6
HIDDEN
100
AcDbLine
 10
614.7465357453567
 20
410.8988195923592
 30
0.0
 11
618.2412277190027
 21
427.7555691123017
 31
0.0
  0
LINE
  5
284
330
6F
100
AcDbEntity
  8
ANCHOR
  6
HIDDEN
100
AcDbLine
 10
613.7412277190027
 20
434.0555691123011
 30
0.0
 11
613.7412277190027
 21
410.9614350808802
 31
0.0
  0
LINE
  5
285
330
6F
100
AcDbEntity
  8
ANCHOR
  6
HIDDEN
100
AcDbLine
 10
600.7359196926497
 20
410.8988195923586
 30
0.0
 11
597.2412277190032
 21
427.7555691123015
 31
0.0
  0
LINE
  5
286
330
6F
100
AcDbEntity
  8
ANCHOR
  6
HIDDEN
100
AcDbLine
 10
601.7412277190027
 20
434.0555691123011
 30
0.0
 11
601.7412277190027
 21
410.9614350808802
 31
0.0
  0
ARC
  5
287
330
6F
100
AcDbEntity
  8
ANCHOR
  6
HIDDEN
100
AcDbCircle
 10
602.2412277190027
 20
392.2555691123017
 30
0.0
 40
0.5
100
AcDbArc
 50
180.0
 51
270.0
  0
ARC
  5
288
330
6F
100
AcDbEntity
  8
ANCHOR
  6
HIDDEN
100
AcDbCircle
 10
613.2412277190027
 20
392.2555691123017
 30
0.0
 40
0.5
100
AcDbArc
 50
270.0
 51
0.0
  0
LINE
  5
289
330
6F
100
AcDbEntity
  8
ANCHOR
  6
HIDDEN
100
AcDbLine
 10
614.6500031282547
 20
390.7864447411879
 30
0.0
 11
611.6656077811179
 21
395.9555691123015
 31
0.0
  0
LINE
  5
28A
330
6F
100
AcDbEntity
  8
ANCHOR
  6
HIDDEN
100
AcDbLine
 10
614.6500031282546
 20
390.7864447411877
 30
0.0
 11
616.0421196708512
 21
389.8933912858098
 31
0.0
  0
TEXT
  5
28B
330
6F
100
AcDbEntity
  8
WAKU
  6
Continuous
100
AcDbText
 10
38.64675006063919
 20
555.4024753726626
 30
0.0
 40
12.0
  1
外装ルーバー　スカイフィット　直付タイプ
  7
KNJYOKO
100
AcDbText
  0
LINE
  5
28C
330
6F
100
AcDbEntity
  8
ANCHOR
  6
CENTER
100
AcDbLine
 10
242.7273721234328
 20
359.5441334540212
 30
0.0
 11
242.7273721234328
 21
434.1898308268228
 31
0.0
  0
LINE
  5
28D
330
6F
100
AcDbEntity
  8
WASHER
  6
Continuous
100
AcDbLine
 10
233.7273721234328
 20
424.2555691123016
 30
0.0
 11
251.7273721234328
 21
424.2555691123016
 31
0.0
  0
LINE
  5
28E
330
6F
100
AcDbEntity
  8
WASHER
  6
Continuous
100
AcDbLine
 10
251.7273721234328
 20
422.2555691123016
 30
0.0
 11
251.7273721234328
 21
424.2555691123016
 31
0.0
  0
LINE
  5
28F
330
6F
100
AcDbEntity
  8
WASHER
  6
Continuous
100
AcDbLine
 10
233.7273721234328
 20
422.2555691123016
 30
0.0
 11
233.7273721234328
 21
424.2555691123016
 31
0.0
  0
LINE
  5
290
330
6F
100
AcDbEntity
  8
KUTAI
  6
Continuous
100
AcDbLine
 10
335.1307796053935
 20
420.7555691123014
 30
0.0
 11
132.957215493353
 21
420.7555691123014
 31
0.0
  0
LINE
  5
291
330
6F
100
AcDbEntity
  8
ANCHOR
  6
CENTER
100
AcDbLine
 10
236.7877330595503
 20
430.7555691122847
 30
0.0
 11
218.3387701989774
 21
430.7555691123065
 31
0.0
  0
LINE
  5
292
330
6F
100
AcDbEntity
  8
ANCHOR
  6
HIDDEN
100
AcDbLine
 10
237.2273721245227
 20
432.7555691123916
 30
0.0
 11
227.7273721231939
 21
432.7555691124318
 31
0.0
  0
LINE
  5
293
330
6F
100
AcDbEntity
  8
ANCHOR
  6
HIDDEN
100
AcDbLine
 10
237.2273721250777
 20
428.7555691123916
 30
0.0
 11
227.7273721231783
 21
428.7555691124318
 31
0.0
  0
LINE
  5
294
330
6F
100
AcDbEntity
  8
ANCHOR
  6
HIDDEN
100
AcDbLine
 10
240.1500218552881
 20
431.7555691124002
 30
0.0
 11
238.2273721245333
 21
431.7555691123963
 31
0.0
  0
LINE
  5
295
330
6F
100
AcDbEntity
  8
ANCHOR
  6
HIDDEN
100
AcDbLine
 10
240.150021855484
 20
429.7555691124002
 30
0.0
 11
238.2273721250713
 21
429.7555691123965
 31
0.0
  0
LINE
  5
296
330
6F
100
AcDbEntity
  8
ANCHOR
  6
HIDDEN
100
AcDbLine
 10
240.7273721245755
 20
430.7555691122401
 30
0.0
 11
240.1500218552879
 21
431.755569112401
 31
0.0
  0
LINE
  5
297
330
6F
100
AcDbEntity
  8
ANCHOR
  6
HIDDEN
100
AcDbLine
 10
240.1500218554848
 20
429.7555691124018
 30
0.0
 11
240.7273721245764
 21
430.7555691122408
 31
0.0
  0
ARC
  5
298
330
6F
100
AcDbEntity
  8
ANCHOR
  6
HIDDEN
100
AcDbCircle
 10
238.7273721250807
 20
430.7555691123988
 30
0.0
 40
0.5
100
AcDbArc
 50
97.20679386168658
 51
262.7932061387912
  0
LINE
  5
299
330
6F
100
AcDbEntity
  8
ANCHOR
  6
HIDDEN
100
AcDbLine
 10
238.6646466886157
 20
430.2595191959378
 30
0.0
 11
240.150021855484
 21
429.7555691124001
 31
0.0
  0
LINE
  5
29A
330
6F
100
AcDbEntity
  8
ANCHOR
  6
HIDDEN
100
AcDbLine
 10
238.6646466886122
 20
431.2516190288588
 30
0.0
 11
240.1500218552879
 21
431.755569112401
 31
0.0
  0
LINE
  5
29B
330
6F
100
AcDbEntity
  8
ANCHOR
  6
HIDDEN
100
AcDbLine
 10
238.2273721245318
 20
431.7555691123957
 30
0.0
 11
237.2273721245223
 21
432.7555691123933
 31
0.0
  0
LINE
  5
29C
330
6F
100
AcDbEntity
  8
ANCHOR
  6
HIDDEN
100
AcDbLine
 10
237.2273721250782
 20
428.7555691123956
 30
0.0
 11
238.2273721250707
 21
429.7555691123957
 31
0.0
  0
LINE
  5
29D
330
6F
100
AcDbEntity
  8
ANCHOR
  6
HIDDEN
100
AcDbLine
 10
237.2273721248092
 20
428.755569112394
 30
0.0
 11
237.2273721247944
 21
432.755569112394
 31
0.0
  0
LINE
  5
29E
330
6F
100
AcDbEntity
  8
ANCHOR
  6
HIDDEN
100
AcDbLine
 10
238.2273721245752
 20
429.7555691123944
 30
0.0
 11
238.2273721245659
 21
431.7555691123944
 31
0.0
  0
LINE
  5
29F
330
6F
100
AcDbEntity
  8
ANCHOR
  6
HIDDEN
100
AcDbLine
 10
238.0273721250729
 20
429.5555691123944
 30
0.0
 11
227.7273721231823
 21
429.5555691124355
 31
0.0
  0
LINE
  5
2A0
330
6F
100
AcDbEntity
  8
ANCHOR
  6
HIDDEN
100
AcDbLine
 10
238.0273721245317
 20
431.9555691123941
 30
0.0
 11
227.7273721231914
 21
431.9555691124351
 31
0.0
  0
LINE
  5
2A1
330
6F
100
AcDbEntity
  8
ANCHOR
  6
Continuous
100
AcDbLine
 10
225.7050615420443
 20
431.2537673600242
 30
0.0
 11
225.7050615420448
 21
430.2573708645423
 31
0.0
  0
LINE
  5
2A2
330
6F
100
AcDbEntity
  8
ANCHOR
  6
Continuous
100
AcDbLine
 10
225.7050615420441
 20
431.2537673600249
 30
0.0
 11
225.2273721233696
 21
431.2537673600249
 31
0.0
  0
LINE
  5
2A3
330
6F
100
AcDbEntity
  8
ANCHOR
  6
Continuous
100
AcDbLine
 10
225.7050615420445
 20
430.2573708645426
 30
0.0
 11
225.2273721233702
 21
430.2573708645426
 31
0.0
  0
LINE
  5
2A4
330
6F
100
AcDbEntity
  8
ANCHOR
  6
Continuous
100
AcDbLine
 10
227.2273721233867
 20
426.0555691122816
 30
0.0
 11
227.7273721233867
 21
426.0555691122817
 31
0.0
  0
ARC
  5
2A5
330
6F
100
AcDbEntity
  8
ANCHOR
  6
Continuous
100
AcDbCircle
 10
231.3188375176927
 20
430.5799376789665
 30
0.0
 40
6.099999999999998
100
AcDbArc
 50
183.0312034848472
 51
227.876411461438
  0
LINE
  5
2A6
330
6F
100
AcDbEntity
  8
ANCHOR
  6
Continuous
100
AcDbLine
 10
227.2273721233527
 20
435.4555691122836
 30
0.0
 11
227.2273721233875
 21
426.0555691122821
 31
0.0
  0
ARC
  5
2A7
330
6F
100
AcDbEntity
  8
ANCHOR
  6
Continuous
100
AcDbCircle
 10
231.3188375176927
 20
430.931200545604
 30
0.0
 40
6.099999999999998
100
AcDbArc
 50
132.1235885386251
 51
176.9687965152159
  0
LINE
  5
2A8
330
6F
100
AcDbEntity
  8
ANCHOR
  6
Continuous
100
AcDbLine
 10
227.7273721233533
 20
435.4555691122849
 30
0.0
 11
227.727372123388
 21
426.0555691122834
 31
0.0
  0
LINE
  5
2A9
330
6F
100
AcDbEntity
  8
ANCHOR
  6
Continuous
100
AcDbLine
 10
227.2273721233822
 20
435.4555691122833
 30
0.0
 11
227.7273721233822
 21
435.4555691122836
 31
0.0
  0
LINE
  5
2AA
330
6F
100
AcDbEntity
  8
WASHER
  6
Continuous
100
AcDbLine
 10
233.7273721234328
 20
422.2555691123016
 30
0.0
 11
251.7273721234328
 21
422.2555691123016
 31
0.0
  0
LINE
  5
2AB
330
6F
100
AcDbEntity
  8
ANCHOR
  6
HIDDEN
100
AcDbLine
 10
242.7273721234749
 20
413.7555691123123
 30
0.0
 11
243.0273721234833
 21
413.7555691123123
 31
0.0
  0
LINE
  5
2AC
330
6F
100
AcDbEntity
  8
ANCHOR
  6
HIDDEN
100
AcDbLine
 10
243.0273721235101
 20
388.2555691123124
 30
0.0
 11
243.0273721234819
 21
413.7555691123126
 31
0.0
  0
LINE
  5
2AD
330
6F
100
AcDbEntity
  8
ANCHOR
  6
HIDDEN
100
AcDbLine
 10
241.0689159441696
 20
380.4272652920454
 30
0.0
 11
238.6982166493243
 21
380.6863360534823
 31
0.0
  0
LINE
  5
2AE
330
6F
100
AcDbEntity
  8
ANCHOR
  6
HIDDEN
100
AcDbLine
 10
238.7273721234806
 20
415.7555691123032
 30
0.0
 11
238.0273721234752
 21
420.7555691123014
 31
0.0
  0
LINE
  5
2AF
330
6F
100
AcDbEntity
  8
ANCHOR
  6
HIDDEN
100
AcDbLine
 10
242.7273721234893
 20
413.7555691123115
 30
0.0
 11
242.4273721234827
 21
413.7555691123107
 31
0.0
  0
LINE
  5
2B0
330
6F
100
AcDbEntity
  8
ANCHOR
  6
HIDDEN
100
AcDbLine
 10
242.4273721235109
 20
388.2555691123109
 30
0.0
 11
242.4273721234825
 21
413.7555691123114
 31
0.0
  0
LINE
  5
2B1
330
6F
100
AcDbEntity
  8
ANCHOR
  6
HIDDEN
100
AcDbLine
 10
238.7273721234866
 20
410.2555691123031
 30
0.0
 11
239.7273721234866
 21
409.7555691123057
 31
0.0
  0
LINE
  5
2B2
330
6F
100
AcDbEntity
  8
ANCHOR
  6
HIDDEN
100
AcDbLine
 10
239.7273721234872
 20
409.7555691123059
 30
0.0
 11
239.9773721234958
 21
401.7555691123066
 31
0.0
  0
LINE
  5
2B3
330
6F
100
AcDbEntity
  8
ANCHOR
  6
HIDDEN
100
AcDbLine
 10
238.7273721234875
 20
410.2555691123034
 30
0.0
 11
238.7273721234759
 21
420.7555691123033
 31
0.0
  0
LINE
  5
2B4
330
6F
100
AcDbEntity
  8
ANCHOR
  6
HIDDEN
100
AcDbLine
 10
241.8918576058291
 20
383.3551940858354
 30
0.0
 11
237.6324027755069
 21
383.8206686437424
 31
0.0
  0
LINE
  5
2B5
330
6F
100
AcDbEntity
  8
ANCHOR
  6
HIDDEN
100
AcDbLine
 10
242.0004911829198
 20
384.3492759466138
 30
0.0
 11
238.3871895621033
 21
384.7441386794126
 31
0.0
  0
LINE
  5
2B6
330
6F
100
AcDbEntity
  8
ANCHOR
  6
HIDDEN
100
AcDbLine
 10
238.6982166493257
 20
380.6863360534813
 30
0.0
 11
237.6324027755076
 21
383.8206686437419
 31
0.0
  0
LINE
  5
2B7
330
6F
100
AcDbEntity
  8
ANCHOR
  6
HIDDEN
100
AcDbLine
 10
237.6324027755062
 20
383.8206686437413
 30
0.0
 11
238.3871895621033
 21
384.7441386794122
 31
0.0
  0
LINE
  5
2B8
330
6F
100
AcDbEntity
  8
ANCHOR
  6
HIDDEN
100
AcDbLine
 10
242.1091247600114
 20
385.3433578073914
 30
0.0
 11
237.8496699296875
 21
385.8088323652984
 31
0.0
  0
LINE
  5
2B9
330
6F
100
AcDbEntity
  8
ANCHOR
  6
HIDDEN
100
AcDbLine
 10
238.387189562104
 20
384.7441386794113
 30
0.0
 11
237.8496699296887
 21
385.8088323652977
 31
0.0
  0
LINE
  5
2BA
330
6F
100
AcDbEntity
  8
ANCHOR
  6
HIDDEN
100
AcDbLine
 10
242.2720751256486
 20
386.8344805985589
 30
0.0
 11
238.0126202953246
 21
387.299955156466
 31
0.0
  0
LINE
  5
2BB
330
6F
100
AcDbEntity
  8
ANCHOR
  6
HIDDEN
100
AcDbLine
 10
237.8496699296879
 20
385.8088323652983
 30
0.0
 11
238.0126202953238
 21
387.2999551564657
 31
0.0
  0
LINE
  5
2BC
330
6F
100
AcDbEntity
  8
ANCHOR
  6
HIDDEN
100
AcDbLine
 10
238.1918656975243
 20
388.9401902267449
 30
0.0
 11
238.4471546036877
 21
391.2762825995788
 31
0.0
  0
LINE
  5
2BD
330
6F
100
AcDbEntity
  8
ANCHOR
  6
HIDDEN
100
AcDbLine
 10
242.3263919141914
 20
387.3315215289492
 30
0.0
 11
238.7130902933712
 21
387.7263842617482
 31
0.0
  0
LINE
  5
2BE
330
6F
100
AcDbEntity
  8
ANCHOR
  6
HIDDEN
100
AcDbLine
 10
242.380708702738
 20
387.8285624593377
 30
0.0
 11
238.7674070819162
 21
388.2234251921369
 31
0.0
  0
LINE
  5
2BF
330
6F
100
AcDbEntity
  8
ANCHOR
  6
HIDDEN
100
AcDbLine
 10
238.713090293372
 20
387.7263842617474
 30
0.0
 11
238.0126202953234
 21
387.2999551564657
 31
0.0
  0
LINE
  5
2C0
330
6F
100
AcDbEntity
  8
ANCHOR
  6
HIDDEN
100
AcDbLine
 10
238.7130902933732
 20
387.726384261747
 30
0.0
 11
238.7674070819173
 21
388.2234251921363
 31
0.0
  0
LINE
  5
2C1
330
6F
100
AcDbEntity
  8
ANCHOR
  6
HIDDEN
100
AcDbLine
 10
238.7674070819151
 20
388.223425192137
 30
0.0
 11
238.1918656975218
 21
388.9401902267455
 31
0.0
  0
LINE
  5
2C2
330
6F
100
AcDbEntity
  8
ANCHOR
  6
HIDDEN
100
AcDbLine
 10
242.0258493024886
 20
390.8852017220569
 30
0.0
 11
238.4471546036859
 21
391.2762825995792
 31
0.0
  0
LINE
  5
2C3
330
6F
100
AcDbEntity
  8
ANCHOR
  6
HIDDEN
100
AcDbLine
 10
239.0933078131907
 20
391.2056707744712
 30
0.0
 11
239.1476246017349
 21
391.7027117048602
 31
0.0
  0
LINE
  5
2C4
330
6F
100
AcDbEntity
  8
ANCHOR
  6
HIDDEN
100
AcDbLine
 10
242.0801660910341
 20
391.3822426524466
 30
0.0
 11
239.1476246017333
 21
391.7027117048613
 31
0.0
  0
LINE
  5
2C5
330
6F
100
AcDbEntity
  8
ANCHOR
  6
HIDDEN
100
AcDbLine
 10
239.147624601732
 20
391.702711704859
 30
0.0
 11
238.5720832173386
 21
392.4194767394674
 31
0.0
  0
LINE
  5
2C6
330
6F
100
AcDbEntity
  8
ANCHOR
  6
HIDDEN
100
AcDbLine
 10
238.8273721235076
 20
392.4055691122989
 30
0.0
 11
238.8273721235049
 21
394.7555691123039
 31
0.0
  0
LINE
  5
2C7
330
6F
100
AcDbEntity
  8
ANCHOR
  6
HIDDEN
100
AcDbLine
 10
242.4273721235044
 20
394.7555691123111
 30
0.0
 11
238.8273721235041
 21
394.7555691123032
 31
0.0
  0
LINE
  5
2C8
330
6F
100
AcDbEntity
  8
ANCHOR
  6
HIDDEN
100
AcDbLine
 10
239.4773721234997
 20
394.7555691123043
 30
0.0
 11
239.477372123498
 21
395.2555691123043
 31
0.0
  0
LINE
  5
2C9
330
6F
100
AcDbEntity
  8
ANCHOR
  6
HIDDEN
100
AcDbLine
 10
242.4273721235045
 20
395.2555691123116
 30
0.0
 11
239.4773721234983
 21
395.255569112305
 31
0.0
  0
LINE
  5
2CA
330
6F
100
AcDbEntity
  8
ANCHOR
  6
HIDDEN
100
AcDbLine
 10
239.4773721234978
 20
395.2555691123055
 30
0.0
 11
238.8273721235016
 21
395.905569112299
 31
0.0
  0
LINE
  5
2CB
330
6F
100
AcDbEntity
  8
ANCHOR
  6
HIDDEN
100
AcDbLine
 10
238.8273721235035
 20
395.9055691122987
 30
0.0
 11
238.8273721235008
 21
398.2555691123037
 31
0.0
  0
LINE
  5
2CC
330
6F
100
AcDbEntity
  8
ANCHOR
  6
HIDDEN
100
AcDbLine
 10
242.427372123501
 20
398.2555691123121
 30
0.0
 11
238.8273721235007
 21
398.255569112304
 31
0.0
  0
LINE
  5
2CD
330
6F
100
AcDbEntity
  8
ANCHOR
  6
HIDDEN
100
AcDbLine
 10
239.4773721234977
 20
398.2555691123051
 30
0.0
 11
239.4773721234961
 21
398.7555691123051
 31
0.0
  0
LINE
  5
2CE
330
6F
100
AcDbEntity
  8
ANCHOR
  6
HIDDEN
100
AcDbLine
 10
242.4273721235005
 20
398.7555691123121
 30
0.0
 11
239.4773721234961
 21
398.7555691123055
 31
0.0
  0
LINE
  5
2CF
330
6F
100
AcDbEntity
  8
ANCHOR
  6
HIDDEN
100
AcDbLine
 10
239.4773721234947
 20
398.755569112305
 30
0.0
 11
238.8273721234982
 21
399.4055691122983
 31
0.0
  0
LINE
  5
2D0
330
6F
100
AcDbEntity
  8
ANCHOR
  6
HIDDEN
100
AcDbLine
 10
238.8273721235006
 20
398.2555691123037
 30
0.0
 11
238.8273721234967
 21
401.7555691123041
 31
0.0
  0
LINE
  5
2D1
330
6F
100
AcDbEntity
  8
ANCHOR
  6
HIDDEN
100
AcDbLine
 10
242.4273721234962
 20
401.7555691123114
 30
0.0
 11
238.7273721233555
 21
401.7555691123034
 31
0.0
  0
LINE
  5
2D2
330
6F
100
AcDbEntity
  8
ANCHOR
  6
HIDDEN
100
AcDbLine
 10
242.4273721234953
 20
402.2555691123117
 30
0.0
 11
239.9617471234946
 21
402.2555691123062
 31
0.0
  0
LINE
  5
2D3
330
6F
100
AcDbEntity
  8
ANCHOR
  6
HIDDEN
100
AcDbLine
 10
242.4273721234893
 20
405.2555691123123
 30
0.0
 11
239.8679971234922
 21
405.2555691123066
 31
0.0
  0
LINE
  5
2D4
330
6F
100
AcDbEntity
  8
ANCHOR
  6
HIDDEN
100
AcDbLine
 10
242.4273721234866
 20
405.7555691123117
 30
0.0
 11
239.8523721234913
 21
405.7555691123061
 31
0.0
  0
LINE
  5
2D5
330
6F
100
AcDbEntity
  8
ANCHOR
  6
HIDDEN
100
AcDbLine
 10
242.4273721234815
 20
408.7555691123113
 30
0.0
 11
239.758622123488
 21
408.7555691123055
 31
0.0
  0
LINE
  5
2D6
330
6F
100
AcDbEntity
  8
ANCHOR
  6
HIDDEN
100
AcDbLine
 10
242.4273721234794
 20
409.2555691123116
 30
0.0
 11
239.7429971234878
 21
409.2555691123059
 31
0.0
  0
LINE
  5
2D7
330
6F
100
AcDbEntity
  8
ANCHOR
  6
HIDDEN
100
AcDbLine
 10
242.4273721235093
 20
388.2555691122993
 30
0.0
 11
241.6202736631017
 21
380.8699894338886
 31
0.0
  0
ARC
  5
2D8
330
6F
100
AcDbEntity
  8
ANCHOR
  6
HIDDEN
100
AcDbCircle
 10
241.123232732715
 20
380.9243062224343
 30
0.0
 40
0.5
100
AcDbArc
 50
263.7634467283077
 51
353.7634467282444
  0
LINE
  5
2D9
330
6F
100
AcDbEntity
  8
ANCHOR
  6
HIDDEN
100
AcDbLine
 10
242.7273720779525
 20
413.7555691123126
 30
0.0
 11
242.4273720779441
 21
413.7555691123101
 31
0.0
  0
LINE
  5
2DA
330
6F
100
AcDbEntity
  8
ANCHOR
  6
HIDDEN
100
AcDbLine
 10
242.4273720781444
 20
388.2555691123097
 30
0.0
 11
242.4273720779464
 21
413.7555691123096
 31
0.0
  0
LINE
  5
2DB
330
6F
100
AcDbEntity
  8
ANCHOR
  6
HIDDEN
100
AcDbLine
 10
244.3858282575542
 20
380.4272652920598
 30
0.0
 11
246.7565275523973
 21
380.6863360535178
 31
0.0
  0
LINE
  5
2DC
330
6F
100
AcDbEntity
  8
ANCHOR
  6
HIDDEN
100
AcDbLine
 10
246.7273720779321
 20
415.7555691123386
 30
0.0
 11
247.4273720778932
 21
420.7555691123438
 31
0.0
  0
LINE
  5
2DD
330
6F
100
AcDbEntity
  8
ANCHOR
  6
HIDDEN
100
AcDbLine
 10
242.7273720779369
 20
413.7555691123115
 30
0.0
 11
243.0273720779452
 21
413.7555691123138
 31
0.0
  0
LINE
  5
2DE
330
6F
100
AcDbEntity
  8
ANCHOR
  6
HIDDEN
100
AcDbLine
 10
243.0273720781441
 20
388.2555691123138
 30
0.0
 11
243.0273720779462
 21
413.7555691123138
 31
0.0
  0
LINE
  5
2DF
330
6F
100
AcDbEntity
  8
ANCHOR
  6
HIDDEN
100
AcDbLine
 10
246.7273720779745
 20
410.255569112339
 30
0.0
 11
245.7273720779772
 21
409.7555691123321
 31
0.0
  0
LINE
  5
2E0
330
6F
100
AcDbEntity
  8
ANCHOR
  6
HIDDEN
100
AcDbLine
 10
245.7273720779773
 20
409.7555691123321
 30
0.0
 11
245.4773720780396
 21
401.7555691123305
 31
0.0
  0
LINE
  5
2E1
330
6F
100
AcDbEntity
  8
ANCHOR
  6
HIDDEN
100
AcDbLine
 10
246.727372077972
 20
410.2555691123393
 30
0.0
 11
246.7273720778905
 21
420.7555691123394
 31
0.0
  0
LINE
  5
2E2
330
6F
100
AcDbEntity
  8
ANCHOR
  6
HIDDEN
100
AcDbLine
 10
243.5628865958693
 20
383.3551940858422
 30
0.0
 11
247.8223414261872
 21
383.8206686437871
 31
0.0
  0
LINE
  5
2E3
330
6F
100
AcDbEntity
  8
ANCHOR
  6
HIDDEN
100
AcDbLine
 10
243.4542530187665
 20
384.3492759466191
 30
0.0
 11
247.0675546395795
 21
384.7441386794498
 31
0.0
  0
LINE
  5
2E4
330
6F
100
AcDbEntity
  8
ANCHOR
  6
HIDDEN
100
AcDbLine
 10
246.7565275523973
 20
380.6863360535178
 30
0.0
 11
247.8223414261875
 21
383.8206686437874
 31
0.0
  0
LINE
  5
2E5
330
6F
100
AcDbEntity
  8
ANCHOR
  6
HIDDEN
100
AcDbLine
 10
247.8223414261859
 20
383.8206686437874
 30
0.0
 11
247.0675546395812
 21
384.7441386794509
 31
0.0
  0
LINE
  5
2E6
330
6F
100
AcDbEntity
  8
ANCHOR
  6
HIDDEN
100
AcDbLine
 10
243.3456194416708
 20
385.3433578073973
 30
0.0
 11
247.6050742719883
 21
385.8088323653418
 31
0.0
  0
LINE
  5
2E7
330
6F
100
AcDbEntity
  8
ANCHOR
  6
HIDDEN
100
AcDbLine
 10
247.0675546395805
 20
384.7441386794516
 30
0.0
 11
247.6050742719866
 21
385.8088323653429
 31
0.0
  0
LINE
  5
2E8
330
6F
100
AcDbEntity
  8
ANCHOR
  6
HIDDEN
100
AcDbLine
 10
243.1826690760211
 20
386.8344805985625
 30
0.0
 11
247.442123906341
 21
387.2999551565073
 31
0.0
  0
LINE
  5
2E9
330
6F
100
AcDbEntity
  8
ANCHOR
  6
HIDDEN
100
AcDbLine
 10
247.6050742719885
 20
385.8088323653417
 30
0.0
 11
247.4421239063395
 21
387.2999551565077
 31
0.0
  0
LINE
  5
2EA
330
6F
100
AcDbEntity
  8
ANCHOR
  6
HIDDEN
100
AcDbLine
 10
247.2628785041254
 20
388.940190226785
 30
0.0
 11
247.0075895979412
 21
391.2762825996169
 31
0.0
  0
LINE
  5
2EB
330
6F
100
AcDbEntity
  8
ANCHOR
  6
HIDDEN
100
AcDbLine
 10
243.1283522874705
 20
387.3315215289524
 30
0.0
 11
246.7416539082872
 21
387.7263842617834
 31
0.0
  0
LINE
  5
2EC
330
6F
100
AcDbEntity
  8
ANCHOR
  6
HIDDEN
100
AcDbLine
 10
243.0740354989202
 20
387.8285624593409
 30
0.0
 11
246.6873371197386
 21
388.2234251921723
 31
0.0
  0
LINE
  5
2ED
330
6F
100
AcDbEntity
  8
ANCHOR
  6
HIDDEN
100
AcDbLine
 10
246.7416539082859
 20
387.7263842617834
 30
0.0
 11
247.4421239063382
 21
387.299955156508
 31
0.0
  0
LINE
  5
2EE
330
6F
100
AcDbEntity
  8
ANCHOR
  6
HIDDEN
100
AcDbLine
 10
246.7416539082867
 20
387.7263842617828
 30
0.0
 11
246.6873371197381
 21
388.2234251921718
 31
0.0
  0
LINE
  5
2EF
330
6F
100
AcDbEntity
  8
ANCHOR
  6
HIDDEN
100
AcDbLine
 10
246.6873371197379
 20
388.2234251921718
 30
0.0
 11
247.2628785041248
 21
388.9401902267853
 31
0.0
  0
LINE
  5
2F0
330
6F
100
AcDbEntity
  8
ANCHOR
  6
HIDDEN
100
AcDbLine
 10
243.4288948991427
 20
390.885201722063
 30
0.0
 11
247.007589597942
 21
391.2762825996168
 31
0.0
  0
LINE
  5
2F1
330
6F
100
AcDbEntity
  8
ANCHOR
  6
HIDDEN
100
AcDbLine
 10
246.3614363884375
 20
391.2056707745028
 30
0.0
 11
246.3071195998888
 21
391.7027117048917
 31
0.0
  0
LINE
  5
2F2
330
6F
100
AcDbEntity
  8
ANCHOR
  6
HIDDEN
100
AcDbLine
 10
243.3745781105925
 20
391.3822426524523
 30
0.0
 11
246.3071195998906
 21
391.7027117048929
 31
0.0
  0
LINE
  5
2F3
330
6F
100
AcDbEntity
  8
ANCHOR
  6
HIDDEN
100
AcDbLine
 10
246.3071195998912
 20
391.7027117048917
 30
0.0
 11
246.8826609842781
 21
392.4194767395053
 31
0.0
  0
LINE
  5
2F4
330
6F
100
AcDbEntity
  8
ANCHOR
  6
HIDDEN
100
AcDbLine
 10
246.6273720781127
 20
392.4055691123328
 30
0.0
 11
246.6273720780944
 21
394.7555691123378
 31
0.0
  0
LINE
  5
2F5
330
6F
100
AcDbEntity
  8
ANCHOR
  6
HIDDEN
100
AcDbLine
 10
243.027372078093
 20
394.7555691123138
 30
0.0
 11
246.6273720780934
 21
394.7555691123378
 31
0.0
  0
LINE
  5
2F6
330
6F
100
AcDbEntity
  8
ANCHOR
  6
HIDDEN
100
AcDbLine
 10
245.977372078096
 20
394.7555691123339
 30
0.0
 11
245.9773720780933
 21
395.2555691123339
 31
0.0
  0
LINE
  5
2F7
330
6F
100
AcDbEntity
  8
ANCHOR
  6
HIDDEN
100
AcDbLine
 10
243.0273720780882
 20
395.255569112315
 30
0.0
 11
245.9773720780926
 21
395.2555691123346
 31
0.0
  0
LINE
  5
2F8
330
6F
100
AcDbEntity
  8
ANCHOR
  6
HIDDEN
100
AcDbLine
 10
245.9773720780935
 20
395.255569112332
 30
0.0
 11
246.627372078084
 21
395.905569112331
 31
0.0
  0
LINE
  5
2F9
330
6F
100
AcDbEntity
  8
ANCHOR
  6
HIDDEN
100
AcDbLine
 10
246.6273720780855
 20
395.9055691123328
 30
0.0
 11
246.6273720780672
 21
398.2555691123378
 31
0.0
  0
LINE
  5
2FA
330
6F
100
AcDbEntity
  8
ANCHOR
  6
HIDDEN
100
AcDbLine
 10
243.0273720780668
 20
398.2555691123138
 30
0.0
 11
246.6273720780671
 21
398.2555691123378
 31
0.0
  0
LINE
  5
2FB
330
6F
100
AcDbEntity
  8
ANCHOR
  6
HIDDEN
100
AcDbLine
 10
245.9773720780699
 20
398.2555691123334
 30
0.0
 11
245.9773720780672
 21
398.7555691123334
 31
0.0
  0
LINE
  5
2FC
330
6F
100
AcDbEntity
  8
ANCHOR
  6
HIDDEN
100
AcDbLine
 10
243.0273720780612
 20
398.7555691123147
 30
0.0
 11
245.9773720780656
 21
398.7555691123343
 31
0.0
  0
LINE
  5
2FD
330
6F
100
AcDbEntity
  8
ANCHOR
  6
HIDDEN
100
AcDbLine
 10
245.9773720780665
 20
398.7555691123338
 30
0.0
 11
246.627372078057
 21
399.4055691123331
 31
0.0
  0
LINE
  5
2FE
330
6F
100
AcDbEntity
  8
ANCHOR
  6
HIDDEN
100
AcDbLine
 10
246.6273720780676
 20
398.2555691123384
 30
0.0
 11
246.6273720780405
 21
401.7555691123387
 31
0.0
  0
LINE
  5
2FF
330
6F
100
AcDbEntity
  8
ANCHOR
  6
HIDDEN
100
AcDbLine
 10
243.0273720780384
 20
401.7555691123145
 30
0.0
 11
246.727372078181
 21
401.7555691123391
 31
0.0
  0
LINE
  5
300
330
6F
100
AcDbEntity
  8
ANCHOR
  6
HIDDEN
100
AcDbLine
 10
243.0273720780355
 20
402.2555691123142
 30
0.0
 11
245.4929970780345
 21
402.2555691123306
 31
0.0
  0
LINE
  5
301
330
6F
100
AcDbEntity
  8
ANCHOR
  6
HIDDEN
100
AcDbLine
 10
243.0273720780167
 20
405.2555691123147
 30
0.0
 11
245.586747078012
 21
405.2555691123318
 31
0.0
  0
LINE
  5
302
330
6F
100
AcDbEntity
  8
ANCHOR
  6
HIDDEN
100
AcDbLine
 10
243.027372078013
 20
405.7555691123138
 30
0.0
 11
245.6023720780082
 21
405.755569112331
 31
0.0
  0
LINE
  5
303
330
6F
100
AcDbEntity
  8
ANCHOR
  6
HIDDEN
100
AcDbLine
 10
243.0273720779926
 20
408.7555691123137
 30
0.0
 11
245.6961220779842
 21
408.7555691123314
 31
0.0
  0
LINE
  5
304
330
6F
100
AcDbEntity
  8
ANCHOR
  6
HIDDEN
100
AcDbLine
 10
243.0273720779903
 20
409.2555691123138
 30
0.0
 11
245.7117470779819
 21
409.2555691123318
 31
0.0
  0
LINE
  5
305
330
6F
100
AcDbEntity
  8
ANCHOR
  6
HIDDEN
100
AcDbLine
 10
243.0273720781426
 20
388.2555691123027
 30
0.0
 11
243.8344705386157
 21
380.8699894338989
 31
0.0
  0
ARC
  5
306
330
6F
100
AcDbEntity
  8
ANCHOR
  6
HIDDEN
100
AcDbCircle
 10
244.3315114690056
 20
380.9243062224484
 30
0.0
 40
0.5
100
AcDbArc
 50
186.2365532722638
 51
276.2365532722005
  0
LINE
  5
307
330
6F
100
AcDbEntity
  8
ANCHOR
  6
HIDDEN
100
AcDbLine
 10
238.727372123356
 20
401.755569112304
 30
0.0
 11
237.1158880971461
 21
409.5915833560878
 31
0.0
  0
LINE
  5
308
330
6F
100
AcDbEntity
  8
ANCHOR
  6
HIDDEN
100
AcDbLine
 10
238.2116887197266
 20
409.2275032425845
 30
0.0
 11
237.1158880971752
 21
409.591583355948
 31
0.0
  0
LINE
  5
309
330
6F
100
AcDbEntity
  8
ANCHOR
  6
HIDDEN
100
AcDbLine
 10
239.7482993129742
 20
401.7555691123058
 30
0.0
 11
238.2116887197267
 21
409.2275032425848
 31
0.0
  0
LINE
  5
30A
330
6F
100
AcDbEntity
  8
ANCHOR
  6
HIDDEN
100
AcDbLine
 10
246.7273720781786
 20
401.7555691123098
 30
0.0
 11
248.3388561043711
 21
409.5915833560974
 31
0.0
  0
LINE
  5
30B
330
6F
100
AcDbEntity
  8
ANCHOR
  6
HIDDEN
100
AcDbLine
 10
247.2430554817932
 20
409.2275032425914
 30
0.0
 11
248.3388561043439
 21
409.5915833559574
 31
0.0
  0
LINE
  5
30C
330
6F
100
AcDbEntity
  8
ANCHOR
  6
HIDDEN
100
AcDbLine
 10
245.7064448885615
 20
401.755569112309
 30
0.0
 11
247.2430554817922
 21
409.2275032425908
 31
0.0
  0
LINE
  5
30D
330
6F
100
AcDbEntity
  8
ANCHOR
  6
HIDDEN
100
AcDbLine
 10
242.7273721689339
 20
368.7555691123112
 30
0.0
 11
239.9773721344775
 21
379.0187089614263
 31
0.0
  0
LINE
  5
30E
330
6F
100
AcDbEntity
  8
ANCHOR
  6
HIDDEN
100
AcDbLine
 10
242.7273721234753
 20
368.7555691123109
 30
0.0
 11
245.4773721342489
 21
379.0187088734046
 31
0.0
  0
LINE
  5
30F
330
6F
100
AcDbEntity
  8
ANCHOR
  6
HIDDEN
100
AcDbLine
 10
239.977372134479
 20
379.0187089614267
 30
0.0
 11
239.9773721339327
 21
380.5465495414958
 31
0.0
  0
LINE
  5
310
330
6F
100
AcDbEntity
  8
ANCHOR
  6
HIDDEN
100
AcDbLine
 10
245.477372134249
 20
379.0187088734045
 30
0.0
 11
245.4773721338875
 21
380.5465495487437
 31
0.0
  0
ARC
  5
311
330
6F
100
AcDbEntity
  8
ANCHOR
  6
Continuous
100
AcDbCircle
 10
242.727372123424
 20
414.1555691123021
 30
0.0
 40
14.0
100
AcDbArc
 50
74.63751496329646
 51
105.3624850364064
  0
LINE
  5
312
330
6F
100
AcDbEntity
  8
ANCHOR
  6
Continuous
100
AcDbLine
 10
237.4773721234012
 20
424.8555691122911
 30
0.0
 11
237.485713432094
 21
424.9179062927614
 31
0.0
  0
LINE
  5
313
330
6F
100
AcDbEntity
  8
ANCHOR
  6
Continuous
100
AcDbLine
 10
247.977372123405
 20
424.8555691123131
 30
0.0
 11
247.8257322491112
 21
425.9888208066532
 31
0.0
  0
ARC
  5
314
330
6F
100
AcDbEntity
  8
ANCHOR
  6
Continuous
100
AcDbCircle
 10
245.9329623227175
 20
425.8232248953986
 30
0.0
 40
1.9
100
AcDbArc
 50
5.000000000119887
 51
74.63751496329646
  0
LINE
  5
315
330
6F
100
AcDbEntity
  8
ANCHOR
  6
Continuous
100
AcDbLine
 10
249.2273721234341
 20
424.8555691123153
 30
0.0
 11
236.2273721234414
 21
424.8555691122879
 31
0.0
  0
LINE
  5
316
330
6F
100
AcDbEntity
  8
ANCHOR
  6
Continuous
100
AcDbLine
 10
236.2273721234336
 20
424.2555691122892
 30
0.0
 11
236.2273721234337
 21
424.2899579990401
 31
0.0
  0
LINE
  5
317
330
6F
100
AcDbEntity
  8
ANCHOR
  6
Continuous
100
AcDbLine
 10
249.2273721234325
 20
424.2555691123162
 30
0.0
 11
249.227372123433
 21
424.8555691123161
 31
0.0
  0
LINE
  5
318
330
6F
100
AcDbEntity
  8
ANCHOR
  6
HIDDEN
100
AcDbLine
 10
245.4773721246137
 20
419.2555691121237
 30
0.0
 11
245.4773721234311
 21
424.2555691123079
 31
0.0
  0
LINE
  5
319
330
6F
100
AcDbEntity
  8
ANCHOR
  6
HIDDEN
100
AcDbLine
 10
239.9773721252206
 20
419.255569112138
 30
0.0
 11
239.9773721234328
 21
424.2555691122966
 31
0.0
  0
LINE
  5
31A
330
6F
100
AcDbEntity
  8
ANCHOR
  6
Continuous
100
AcDbLine
 10
249.2273721234336
 20
424.255569112315
 30
0.0
 11
236.2273721234336
 21
424.2555691122876
 31
0.0
  0
LINE
  5
31B
330
6F
100
AcDbEntity
  8
ANCHOR
  6
Continuous
100
AcDbLine
 10
237.4773721234735
 20
424.8555691123846
 30
0.0
 11
237.629011997782
 21
425.9888208067216
 31
0.0
  0
ARC
  5
31C
330
6F
100
AcDbEntity
  8
ANCHOR
  6
Continuous
100
AcDbCircle
 10
239.5217819241686
 20
425.8232248954421
 30
0.0
 40
1.9
100
AcDbArc
 50
105.3624850359274
 51
174.999999999104
  0
LINE
  5
31D
330
6F
100
AcDbEntity
  8
ANCHOR
  6
Continuous
100
AcDbLine
 10
236.2273721234348
 20
424.255569112404
 30
0.0
 11
236.2273721234426
 21
424.8555691124041
 31
0.0
  0
LINE
  5
31E
330
6F
100
AcDbEntity
  8
KUTAI
  6
Continuous
100
AcDbLine
 10
632.7412277187526
 20
142.8364496096263
 30
0.0
 11
582.7412277187526
 21
142.8364496096263
 31
0.0
  0
LINE
  5
31F
330
6F
100
AcDbEntity
  8
KUTAI
  6
Continuous
100
AcDbLine
 10
635.7412277187527
 20
113.8364496096263
 30
0.0
 11
635.7412277187527
 21
139.8364496096263
 31
0.0
  0
LINE
  5
320
330
6F
100
AcDbEntity
  8
KUTAI
  6
Continuous
100
AcDbLine
 10
579.7412277187527
 20
139.8364496096263
 30
0.0
 11
579.7412277187527
 21
113.8364496096263
 31
0.0
  0
LINE
  5
321
330
6F
100
AcDbEntity
  8
KUTAI
  6
Continuous
100
AcDbLine
 10
582.7412277187526
 20
110.8364496096263
 30
0.0
 11
632.7412277187526
 21
110.8364496096263
 31
0.0
  0
LINE
  5
322
330
6F
100
AcDbEntity
  8
KUTAI
  6
Continuous
100
AcDbLine
 10
518.9620800525037
 20
142.8364496096263
 30
0.0
 11
562.7412277187528
 21
142.8364496096263
 31
0.0
  0
LINE
  5
323
330
6F
100
AcDbEntity
  8
KUTAI
  6
Continuous
100
AcDbLine
 10
565.7412277187527
 20
113.8364496096263
 30
0.0
 11
565.7412277187527
 21
139.8364496096263
 31
0.0
  0
LINE
  5
324
330
6F
100
AcDbEntity
  8
KUTAI
  6
Continuous
100
AcDbLine
 10
518.9620800525037
 20
110.8364496096263
 30
0.0
 11
562.7412277187528
 21
110.8364496096263
 31
0.0
  0
LINE
  5
325
330
6F
100
AcDbEntity
  8
KUTAI
  6
Continuous
100
AcDbLine
 10
652.7412277187527
 20
142.8364496096263
 30
0.0
 11
694.1524096246031
 21
142.8364496096263
 31
0.0
  0
LINE
  5
326
330
6F
100
AcDbEntity
  8
KUTAI
  6
Continuous
100
AcDbLine
 10
649.7412277187527
 20
139.8364496096263
 30
0.0
 11
649.7412277187527
 21
113.8364496096263
 31
0.0
  0
LINE
  5
327
330
6F
100
AcDbEntity
  8
KUTAI
  6
Continuous
100
AcDbLine
 10
652.7412277187527
 20
110.8364496096263
 30
0.0
 11
694.1524096246031
 21
110.8364496096263
 31
0.0
  0
LINE
  5
328
330
6F
100
AcDbEntity
  8
KUTAI
  6
Continuous
100
AcDbLine
 10
518.9620800525037
 20
156.8364496096263
 30
0.0
 11
694.1524096246031
 21
156.8364496096263
 31
0.0
  0
LINE
  5
329
330
6F
100
AcDbEntity
  8
KUTAI
  6
Continuous
100
AcDbLine
 10
518.9620800525037
 20
96.83644960962631
 30
0.0
 11
694.1524096246031
 21
96.83644960962631
 31
0.0
  0
ARC
  5
32A
330
6F
100
AcDbEntity
  8
KUTAI
  6
Continuous
100
AcDbCircle
 10
632.7412277187526
 20
139.8364496096263
 30
0.0
 40
3.000000191249998
100
AcDbArc
 50
0.0
 51
90.0
  0
ARC
  5
32B
330
6F
100
AcDbEntity
  8
KUTAI
  6
Continuous
100
AcDbCircle
 10
582.7412277187526
 20
139.8364496096263
 30
0.0
 40
3.000000191249998
100
AcDbArc
 50
90.0
 51
180.0
  0
ARC
  5
32C
330
6F
100
AcDbEntity
  8
KUTAI
  6
Continuous
100
AcDbCircle
 10
632.7412277187526
 20
113.8364496096263
 30
0.0
 40
3.000000191249998
100
AcDbArc
 50
270.0
 51
0.0
  0
ARC
  5
32D
330
6F
100
AcDbEntity
  8
KUTAI
  6
Continuous
100
AcDbCircle
 10
582.7412277187526
 20
113.8364496096263
 30
0.0
 40
3.000000191249998
100
AcDbArc
 50
180.0
 51
270.0
  0
ARC
  5
32E
330
6F
100
AcDbEntity
  8
KUTAI
  6
Continuous
100
AcDbCircle
 10
562.7412277187528
 20
139.8364496096263
 30
0.0
 40
3.000000191249998
100
AcDbArc
 50
0.0
 51
90.0
  0
ARC
  5
32F
330
6F
100
AcDbEntity
  8
KUTAI
  6
Continuous
100
AcDbCircle
 10
562.7412277187528
 20
113.8364496096263
 30
0.0
 40
3.000000191249998
100
AcDbArc
 50
270.0
 51
0.0
  0
ARC
  5
330
330
6F
100
AcDbEntity
  8
KUTAI
  6
Continuous
100
AcDbCircle
 10
652.7412277187527
 20
139.8364496096263
 30
0.0
 40
3.000000191249998
100
AcDbArc
 50
90.0
 51
180.0
  0
ARC
  5
331
330
6F
100
AcDbEntity
  8
KUTAI
  6
Continuous
100
AcDbCircle
 10
652.7412277187527
 20
113.8364496096263
 30
0.0
 40
3.000000191249998
100
AcDbArc
 50
180.0
 51
270.0
  0
LINE
  5
332
330
6F
100
AcDbEntity
  8
ANCHOR
  6
HIDDEN
100
AcDbLine
 10
611.2412277190035
 20
160.3364496094666
 30
0.0
 11
610.1812277190032
 21
159.2764496094666
 31
0.0
  0
LINE
  5
333
330
6F
100
AcDbEntity
  8
ANCHOR
  6
HIDDEN
100
AcDbLine
 10
605.7412277190032
 20
129.8364496094668
 30
0.0
 11
605.7412277190032
 21
127.3364496094665
 31
0.0
  0
LINE
  5
334
330
6F
100
AcDbEntity
  8
ANCHOR
  6
HIDDEN
100
AcDbLine
 10
609.7412277190032
 20
129.8364496094668
 30
0.0
 11
609.7412277190032
 21
127.3364496094665
 31
0.0
  0
LINE
  5
335
330
6F
100
AcDbEntity
  8
ANCHOR
  6
Continuous
100
AcDbLine
 10
611.9912277190032
 20
162.7364496094666
 30
0.0
 11
603.4912277190032
 21
162.7364496094666
 31
0.0
  0
LINE
  5
336
330
6F
100
AcDbEntity
  8
ANCHOR
  6
HIDDEN
100
AcDbLine
 10
609.8912277190033
 20
131.3364496094668
 30
0.0
 11
605.5912277190032
 21
131.3364496094668
 31
0.0
  0
LINE
  5
337
330
6F
100
AcDbEntity
  8
ANCHOR
  6
HIDDEN
100
AcDbLine
 10
609.7412277190032
 20
127.3364496094665
 30
0.0
 11
605.7412277190032
 21
127.3364496094665
 31
0.0
  0
LINE
  5
338
330
6F
100
AcDbEntity
  8
ANCHOR
  6
HIDDEN
100
AcDbLine
 10
609.7412277190032
 20
129.8364496094668
 30
0.0
 11
605.7412277190032
 21
129.8364496094668
 31
0.0
  0
LINE
  5
339
330
6F
100
AcDbEntity
  8
ANCHOR
  6
HIDDEN
100
AcDbLine
 10
609.7412277190032
 20
129.8364496094667
 30
0.0
 11
609.8912277190033
 21
131.3364496094667
 31
0.0
  0
LINE
  5
33A
330
6F
100
AcDbEntity
  8
ANCHOR
  6
HIDDEN
100
AcDbLine
 10
605.7412277190032
 20
129.8364496094667
 30
0.0
 11
605.5912277190032
 21
131.3364496094667
 31
0.0
  0
LINE
  5
33B
330
6F
100
AcDbEntity
  8
ANCHOR
  6
HIDDEN
100
AcDbLine
 10
604.2412277190031
 20
160.3364496094665
 30
0.0
 11
605.3012277190028
 21
159.2764496094666
 31
0.0
  0
LINE
  5
33C
330
6F
100
AcDbEntity
  8
ANCHOR
  6
HIDDEN
100
AcDbLine
 10
610.1812277190032
 20
159.2764496094666
 30
0.0
 11
605.3012277190032
 21
159.2764496094666
 31
0.0
  0
LINE
  5
33D
330
6F
100
AcDbEntity
  8
ANCHOR
  6
HIDDEN
100
AcDbLine
 10
610.3912277190032
 20
143.8574496095208
 30
0.0
 11
609.8912277190033
 21
143.5687744749257
 31
0.0
  0
LINE
  5
33E
330
6F
100
AcDbEntity
  8
ANCHOR
  6
HIDDEN
100
AcDbLine
 10
604.5412277190028
 20
143.8574496095206
 30
0.0
 11
605.5912277190032
 21
143.576102957468
 31
0.0
  0
LINE
  5
33F
330
6F
100
AcDbEntity
  8
ANCHOR
  6
HIDDEN
100
AcDbLine
 10
610.9412277190037
 20
145.6714496095205
 30
0.0
 11
609.8912277190037
 21
145.9527962615731
 31
0.0
  0
LINE
  5
340
330
6F
100
AcDbEntity
  8
ANCHOR
  6
HIDDEN
100
AcDbLine
 10
610.3912277190033
 20
143.8574496095208
 30
0.0
 11
609.8912277190033
 21
144.1461247441157
 31
0.0
  0
LINE
  5
341
330
6F
100
AcDbEntity
  8
ANCHOR
  6
HIDDEN
100
AcDbLine
 10
605.0912277190034
 20
142.0434496095208
 30
0.0
 11
605.5912277190038
 21
142.3321247441154
 31
0.0
  0
LINE
  5
342
330
6F
100
AcDbEntity
  8
ANCHOR
  6
HIDDEN
100
AcDbLine
 10
605.0912277190032
 20
142.0434496095205
 30
0.0
 11
605.5912277190034
 21
141.7547744749256
 31
0.0
  0
LINE
  5
343
330
6F
100
AcDbEntity
  8
ANCHOR
  6
HIDDEN
100
AcDbLine
 10
610.9412277190032
 20
145.6714496095206
 30
0.0
 11
604.5412277190031
 21
143.8574496095206
 31
0.0
  0
LINE
  5
344
330
6F
100
AcDbEntity
  8
ANCHOR
  6
HIDDEN
100
AcDbLine
 10
605.5912277190032
 20
143.576102957468
 30
0.0
 11
610.9412277190032
 21
145.6714496095207
 31
0.0
  0
LINE
  5
345
330
6F
100
AcDbEntity
  8
ANCHOR
  6
HIDDEN
100
AcDbLine
 10
609.8912277190033
 20
145.952796261573
 30
0.0
 11
604.5412277190032
 21
143.8574496095205
 31
0.0
  0
LINE
  5
346
330
6F
100
AcDbEntity
  8
ANCHOR
  6
HIDDEN
100
AcDbLine
 10
609.8912277190028
 20
144.1461247441155
 30
0.0
 11
605.5912277190032
 21
142.3321247441154
 31
0.0
  0
LINE
  5
347
330
6F
100
AcDbEntity
  8
ANCHOR
  6
HIDDEN
100
AcDbLine
 10
605.0912277190032
 20
142.0434496095206
 30
0.0
 11
610.3912277190032
 21
143.8574496095205
 31
0.0
  0
LINE
  5
348
330
6F
100
AcDbEntity
  8
ANCHOR
  6
HIDDEN
100
AcDbLine
 10
605.5912277190032
 20
141.754774474926
 30
0.0
 11
609.891227719003
 21
143.5687744749258
 31
0.0
  0
LINE
  5
349
330
6F
100
AcDbEntity
  8
ANCHOR
  6
HIDDEN
100
AcDbLine
 10
610.3912277190032
 20
140.2294496095344
 30
0.0
 11
609.891227719003
 21
139.9407744749393
 31
0.0
  0
LINE
  5
34A
330
6F
100
AcDbEntity
  8
ANCHOR
  6
HIDDEN
100
AcDbLine
 10
604.5412277190031
 20
140.229449609534
 30
0.0
 11
605.5912277190032
 21
139.9481029574815
 31
0.0
  0
LINE
  5
34B
330
6F
100
AcDbEntity
  8
ANCHOR
  6
HIDDEN
100
AcDbLine
 10
610.9412277190036
 20
142.0434496095345
 30
0.0
 11
609.8912277190033
 21
142.3247962615871
 31
0.0
  0
LINE
  5
34C
330
6F
100
AcDbEntity
  8
ANCHOR
  6
HIDDEN
100
AcDbLine
 10
610.3912277190032
 20
140.229449609534
 30
0.0
 11
609.8912277190033
 21
140.518124744129
 31
0.0
  0
LINE
  5
34D
330
6F
100
AcDbEntity
  8
ANCHOR
  6
HIDDEN
100
AcDbLine
 10
605.0912277190032
 20
138.4154496095342
 30
0.0
 11
605.5912277190032
 21
138.7041247441289
 31
0.0
  0
LINE
  5
34E
330
6F
100
AcDbEntity
  8
ANCHOR
  6
HIDDEN
100
AcDbLine
 10
605.0912277190032
 20
138.415449609534
 30
0.0
 11
605.591227719003
 21
138.1267744749392
 31
0.0
  0
LINE
  5
34F
330
6F
100
AcDbEntity
  8
ANCHOR
  6
HIDDEN
100
AcDbLine
 10
610.9412277190036
 20
142.0434496095343
 30
0.0
 11
604.5412277190036
 21
140.2294496095342
 31
0.0
  0
LINE
  5
350
330
6F
100
AcDbEntity
  8
ANCHOR
  6
HIDDEN
100
AcDbLine
 10
605.5912277190032
 20
139.9481029574812
 30
0.0
 11
610.9412277190031
 21
142.0434496095339
 31
0.0
  0
LINE
  5
351
330
6F
100
AcDbEntity
  8
ANCHOR
  6
HIDDEN
100
AcDbLine
 10
609.8912277190033
 20
142.3247962615868
 30
0.0
 11
604.5412277190032
 21
140.2294496095341
 31
0.0
  0
LINE
  5
352
330
6F
100
AcDbEntity
  8
ANCHOR
  6
HIDDEN
100
AcDbLine
 10
609.8912277190028
 20
140.5181247441291
 30
0.0
 11
605.5912277190032
 21
138.704124744129
 31
0.0
  0
LINE
  5
353
330
6F
100
AcDbEntity
  8
ANCHOR
  6
HIDDEN
100
AcDbLine
 10
605.0912277190032
 20
138.4154496095341
 30
0.0
 11
610.3912277190032
 21
140.2294496095341
 31
0.0
  0
LINE
  5
354
330
6F
100
AcDbEntity
  8
ANCHOR
  6
HIDDEN
100
AcDbLine
 10
605.5912277190035
 20
138.1267744749394
 30
0.0
 11
609.8912277190033
 21
139.9407744749394
 31
0.0
  0
LINE
  5
355
330
6F
100
AcDbEntity
  8
ANCHOR
  6
HIDDEN
100
AcDbLine
 10
609.8912277190033
 20
140.5181247441291
 30
0.0
 11
609.8912277190033
 21
141.63221335072
 31
0.0
  0
LINE
  5
356
330
6F
100
AcDbEntity
  8
ANCHOR
  6
HIDDEN
100
AcDbLine
 10
609.8912277190033
 20
142.3247962615868
 30
0.0
 11
609.8912277190033
 21
143.5687744749256
 31
0.0
  0
LINE
  5
357
330
6F
100
AcDbEntity
  8
ANCHOR
  6
HIDDEN
100
AcDbLine
 10
609.8912277190033
 20
144.1461247441156
 30
0.0
 11
609.8912277190033
 21
145.2602133507066
 31
0.0
  0
LINE
  5
358
330
6F
100
AcDbEntity
  8
ANCHOR
  6
HIDDEN
100
AcDbLine
 10
605.5912277190032
 20
143.576102957468
 30
0.0
 11
605.5912277190032
 21
142.3321247441155
 31
0.0
  0
LINE
  5
359
330
6F
100
AcDbEntity
  8
ANCHOR
  6
HIDDEN
100
AcDbLine
 10
605.5912277190032
 20
141.7547744749258
 30
0.0
 11
605.5912277190032
 21
140.6406858683482
 31
0.0
  0
LINE
  5
35A
330
6F
100
AcDbEntity
  8
ANCHOR
  6
HIDDEN
100
AcDbLine
 10
605.5912277190032
 20
139.9481029574816
 30
0.0
 11
605.5912277190032
 21
138.7041247441292
 31
0.0
  0
LINE
  5
35B
330
6F
100
AcDbEntity
  8
ANCHOR
  6
HIDDEN
100
AcDbLine
 10
610.3912277190032
 20
147.4854496095068
 30
0.0
 11
609.8912277190033
 21
147.196774474912
 31
0.0
  0
LINE
  5
35C
330
6F
100
AcDbEntity
  8
ANCHOR
  6
HIDDEN
100
AcDbLine
 10
604.5412277190028
 20
147.4854496095066
 30
0.0
 11
605.5912277190027
 21
147.204102957454
 31
0.0
  0
LINE
  5
35D
330
6F
100
AcDbEntity
  8
ANCHOR
  6
HIDDEN
100
AcDbLine
 10
610.9412277190028
 20
149.2994496095071
 30
0.0
 11
609.891227719003
 21
149.5807962615597
 31
0.0
  0
LINE
  5
35E
330
6F
100
AcDbEntity
  8
ANCHOR
  6
HIDDEN
100
AcDbLine
 10
610.3912277190032
 20
147.4854496095071
 30
0.0
 11
609.8912277190033
 21
147.774124744102
 31
0.0
  0
LINE
  5
35F
330
6F
100
AcDbEntity
  8
ANCHOR
  6
HIDDEN
100
AcDbLine
 10
605.0912277190032
 20
145.6714496095071
 30
0.0
 11
605.5912277190032
 21
145.9601247441018
 31
0.0
  0
LINE
  5
360
330
6F
100
AcDbEntity
  8
ANCHOR
  6
HIDDEN
100
AcDbLine
 10
605.0912277190028
 20
145.6714496095072
 30
0.0
 11
605.5912277190027
 21
145.3827744749123
 31
0.0
  0
LINE
  5
361
330
6F
100
AcDbEntity
  8
ANCHOR
  6
HIDDEN
100
AcDbLine
 10
610.9412277190031
 20
149.299449609507
 30
0.0
 11
604.5412277190032
 21
147.485449609507
 31
0.0
  0
LINE
  5
362
330
6F
100
AcDbEntity
  8
ANCHOR
  6
HIDDEN
100
AcDbLine
 10
605.5912277190032
 20
147.2041029574546
 30
0.0
 11
610.9412277190031
 21
149.2994496095073
 31
0.0
  0
LINE
  5
363
330
6F
100
AcDbEntity
  8
ANCHOR
  6
HIDDEN
100
AcDbLine
 10
609.8912277190028
 20
149.5807962615597
 30
0.0
 11
604.5412277190028
 21
147.4854496095071
 31
0.0
  0
LINE
  5
364
330
6F
100
AcDbEntity
  8
ANCHOR
  6
HIDDEN
100
AcDbLine
 10
609.8912277190033
 20
147.774124744102
 30
0.0
 11
605.5912277190034
 21
145.9601247441019
 31
0.0
  0
LINE
  5
365
330
6F
100
AcDbEntity
  8
ANCHOR
  6
HIDDEN
100
AcDbLine
 10
605.0912277190032
 20
145.6714496095071
 30
0.0
 11
610.3912277190032
 21
147.4854496095069
 31
0.0
  0
LINE
  5
366
330
6F
100
AcDbEntity
  8
ANCHOR
  6
HIDDEN
100
AcDbLine
 10
605.591227719003
 20
145.3827744749122
 30
0.0
 11
609.8912277190028
 21
147.1967744749122
 31
0.0
  0
LINE
  5
367
330
6F
100
AcDbEntity
  8
ANCHOR
  6
HIDDEN
100
AcDbLine
 10
609.8912277190033
 20
145.9527962615731
 30
0.0
 11
609.8912277190033
 21
147.1967744749121
 31
0.0
  0
LINE
  5
368
330
6F
100
AcDbEntity
  8
ANCHOR
  6
HIDDEN
100
AcDbLine
 10
609.8912277190033
 20
147.7741247441021
 30
0.0
 11
609.8912277190033
 21
148.8882133506931
 31
0.0
  0
LINE
  5
369
330
6F
100
AcDbEntity
  8
ANCHOR
  6
HIDDEN
100
AcDbLine
 10
605.5912277190032
 20
147.2041029574544
 30
0.0
 11
605.5912277190032
 21
145.9601247441019
 31
0.0
  0
LINE
  5
36A
330
6F
100
AcDbEntity
  8
ANCHOR
  6
HIDDEN
100
AcDbLine
 10
605.5912277190032
 20
145.3827744749123
 30
0.0
 11
605.5912277190032
 21
144.2686858683348
 31
0.0
  0
LINE
  5
36B
330
6F
100
AcDbEntity
  8
ANCHOR
  6
HIDDEN
100
AcDbLine
 10
610.3912277190028
 20
151.1134496094936
 30
0.0
 11
609.891227719003
 21
150.8247744748988
 31
0.0
  0
LINE
  5
36C
330
6F
100
AcDbEntity
  8
ANCHOR
  6
HIDDEN
100
AcDbLine
 10
604.5412277190035
 20
151.1134496094934
 30
0.0
 11
605.5912277190035
 21
150.8321029574406
 31
0.0
  0
LINE
  5
36D
330
6F
100
AcDbEntity
  8
ANCHOR
  6
HIDDEN
100
AcDbLine
 10
610.9412277190032
 20
152.9274496094933
 30
0.0
 11
609.8912277190033
 21
153.208796261546
 31
0.0
  0
LINE
  5
36E
330
6F
100
AcDbEntity
  8
ANCHOR
  6
HIDDEN
100
AcDbLine
 10
610.3912277190033
 20
151.1134496094935
 30
0.0
 11
609.8912277190033
 21
151.4021247440883
 31
0.0
  0
LINE
  5
36F
330
6F
100
AcDbEntity
  8
ANCHOR
  6
HIDDEN
100
AcDbLine
 10
605.0912277190032
 20
149.2994496094933
 30
0.0
 11
605.5912277190032
 21
149.5881247440882
 31
0.0
  0
LINE
  5
370
330
6F
100
AcDbEntity
  8
ANCHOR
  6
HIDDEN
100
AcDbLine
 10
605.0912277190028
 20
149.2994496094933
 30
0.0
 11
605.5912277190032
 21
149.0107744748984
 31
0.0
  0
LINE
  5
371
330
6F
100
AcDbEntity
  8
ANCHOR
  6
HIDDEN
100
AcDbLine
 10
610.9412277190032
 20
152.9274496094936
 30
0.0
 11
604.5412277190031
 21
151.1134496094935
 31
0.0
  0
LINE
  5
372
330
6F
100
AcDbEntity
  8
ANCHOR
  6
HIDDEN
100
AcDbLine
 10
605.5912277190032
 20
150.8321029574408
 30
0.0
 11
610.9412277190031
 21
152.9274496094936
 31
0.0
  0
LINE
  5
373
330
6F
100
AcDbEntity
  8
ANCHOR
  6
HIDDEN
100
AcDbLine
 10
609.8912277190033
 20
153.2087962615464
 30
0.0
 11
604.5412277190036
 21
151.1134496094937
 31
0.0
  0
LINE
  5
374
330
6F
100
AcDbEntity
  8
ANCHOR
  6
HIDDEN
100
AcDbLine
 10
609.8912277190028
 20
151.4021247440883
 30
0.0
 11
605.5912277190032
 21
149.5881247440884
 31
0.0
  0
LINE
  5
375
330
6F
100
AcDbEntity
  8
ANCHOR
  6
HIDDEN
100
AcDbLine
 10
605.0912277190028
 20
149.2994496094935
 30
0.0
 11
610.3912277190028
 21
151.1134496094934
 31
0.0
  0
LINE
  5
376
330
6F
100
AcDbEntity
  8
ANCHOR
  6
HIDDEN
100
AcDbLine
 10
605.5912277190032
 20
149.010774474899
 30
0.0
 11
609.8912277190033
 21
150.824774474899
 31
0.0
  0
LINE
  5
377
330
6F
100
AcDbEntity
  8
ANCHOR
  6
HIDDEN
100
AcDbLine
 10
609.8912277190033
 20
149.5807962615596
 30
0.0
 11
609.8912277190033
 21
150.8247744748989
 31
0.0
  0
LINE
  5
378
330
6F
100
AcDbEntity
  8
ANCHOR
  6
HIDDEN
100
AcDbLine
 10
609.8912277190033
 20
151.4021247440884
 30
0.0
 11
609.8912277190033
 21
152.5162133506795
 31
0.0
  0
LINE
  5
379
330
6F
100
AcDbEntity
  8
ANCHOR
  6
HIDDEN
100
AcDbLine
 10
605.5912277190032
 20
150.8321029574408
 30
0.0
 11
605.5912277190032
 21
149.5881247440886
 31
0.0
  0
LINE
  5
37A
330
6F
100
AcDbEntity
  8
ANCHOR
  6
HIDDEN
100
AcDbLine
 10
605.5912277190032
 20
149.0107744748988
 30
0.0
 11
605.5912277190032
 21
147.8966858683213
 31
0.0
  0
LINE
  5
37B
330
6F
100
AcDbEntity
  8
ANCHOR
  6
HIDDEN
100
AcDbLine
 10
610.391227719003
 20
154.7414496094801
 30
0.0
 11
609.8912277190033
 21
154.4527744748851
 31
0.0
  0
LINE
  5
37C
330
6F
100
AcDbEntity
  8
ANCHOR
  6
HIDDEN
100
AcDbLine
 10
604.5412277190031
 20
154.7414496094799
 30
0.0
 11
605.5912277190027
 21
154.4601029574273
 31
0.0
  0
LINE
  5
37D
330
6F
100
AcDbEntity
  8
ANCHOR
  6
HIDDEN
100
AcDbLine
 10
610.9412277190032
 20
156.5554496094799
 30
0.0
 11
609.8912277190033
 21
156.8367962615323
 31
0.0
  0
LINE
  5
37E
330
6F
100
AcDbEntity
  8
ANCHOR
  6
HIDDEN
100
AcDbLine
 10
610.3912277190032
 20
154.74144960948
 30
0.0
 11
609.8912277190033
 21
155.0301247440749
 31
0.0
  0
LINE
  5
37F
330
6F
100
AcDbEntity
  8
ANCHOR
  6
HIDDEN
100
AcDbLine
 10
605.0912277190028
 20
152.9274496094802
 30
0.0
 11
605.591227719003
 21
153.2161247440751
 31
0.0
  0
LINE
  5
380
330
6F
100
AcDbEntity
  8
ANCHOR
  6
HIDDEN
100
AcDbLine
 10
605.0912277190032
 20
152.9274496094803
 30
0.0
 11
605.5912277190027
 21
152.6387744748856
 31
0.0
  0
LINE
  5
381
330
6F
100
AcDbEntity
  8
ANCHOR
  6
HIDDEN
100
AcDbLine
 10
610.9412277190032
 20
156.5554496094801
 30
0.0
 11
604.5412277190032
 21
154.7414496094799
 31
0.0
  0
LINE
  5
382
330
6F
100
AcDbEntity
  8
ANCHOR
  6
HIDDEN
100
AcDbLine
 10
605.5912277190035
 20
154.4601029574274
 30
0.0
 11
610.9412277190036
 21
156.5554496094803
 31
0.0
  0
LINE
  5
383
330
6F
100
AcDbEntity
  8
ANCHOR
  6
HIDDEN
100
AcDbLine
 10
609.8912277190028
 20
156.8367962615326
 30
0.0
 11
604.5412277190028
 21
154.74144960948
 31
0.0
  0
LINE
  5
384
330
6F
100
AcDbEntity
  8
ANCHOR
  6
HIDDEN
100
AcDbLine
 10
609.8912277190033
 20
155.0301247440749
 30
0.0
 11
605.5912277190032
 21
153.216124744075
 31
0.0
  0
LINE
  5
385
330
6F
100
AcDbEntity
  8
ANCHOR
  6
HIDDEN
100
AcDbLine
 10
605.0912277190027
 20
152.9274496094799
 30
0.0
 11
610.3912277190028
 21
154.7414496094801
 31
0.0
  0
LINE
  5
386
330
6F
100
AcDbEntity
  8
ANCHOR
  6
HIDDEN
100
AcDbLine
 10
605.5912277190032
 20
152.6387744748854
 30
0.0
 11
609.8912277190033
 21
154.4527744748853
 31
0.0
  0
LINE
  5
387
330
6F
100
AcDbEntity
  8
ANCHOR
  6
HIDDEN
100
AcDbLine
 10
609.8912277190033
 20
153.2087962615464
 30
0.0
 11
609.8912277190033
 21
154.4527744748852
 31
0.0
  0
LINE
  5
388
330
6F
100
AcDbEntity
  8
ANCHOR
  6
HIDDEN
100
AcDbLine
 10
609.8912277190033
 20
155.0301247440749
 30
0.0
 11
609.8912277190033
 21
156.1442133506661
 31
0.0
  0
LINE
  5
389
330
6F
100
AcDbEntity
  8
ANCHOR
  6
HIDDEN
100
AcDbLine
 10
605.5912277190032
 20
154.4601029574275
 30
0.0
 11
605.5912277190032
 21
153.2161247440751
 31
0.0
  0
LINE
  5
38A
330
6F
100
AcDbEntity
  8
ANCHOR
  6
HIDDEN
100
AcDbLine
 10
605.5912277190032
 20
152.6387744748853
 30
0.0
 11
605.5912277190032
 21
151.5246858683076
 31
0.0
  0
LINE
  5
38B
330
6F
100
AcDbEntity
  8
ANCHOR
  6
HIDDEN
100
AcDbLine
 10
605.0912277190028
 20
156.5554496094665
 30
0.0
 11
605.5912277190032
 21
156.8441247440614
 31
0.0
  0
LINE
  5
38C
330
6F
100
AcDbEntity
  8
ANCHOR
  6
HIDDEN
100
AcDbLine
 10
605.0912277190032
 20
156.5554496094665
 30
0.0
 11
605.5912277190034
 21
156.2667744748717
 31
0.0
  0
LINE
  5
38D
330
6F
100
AcDbEntity
  8
ANCHOR
  6
HIDDEN
100
AcDbLine
 10
607.7412277190031
 20
159.2764496094666
 30
0.0
 11
604.9512277190032
 21
158.4856589844666
 31
0.0
  0
LINE
  5
38E
330
6F
100
AcDbEntity
  8
ANCHOR
  6
HIDDEN
100
AcDbLine
 10
609.8912277190033
 20
156.8367962615327
 30
0.0
 11
609.8912277190033
 21
158.0807744748717
 31
0.0
  0
LINE
  5
38F
330
6F
100
AcDbEntity
  8
ANCHOR
  6
HIDDEN
100
AcDbLine
 10
605.5912277190032
 20
158.3141715013107
 30
0.0
 11
605.5912277190032
 21
156.8441247440614
 31
0.0
  0
LINE
  5
390
330
6F
100
AcDbEntity
  8
ANCHOR
  6
HIDDEN
100
AcDbLine
 10
605.5912277190032
 20
156.2667744748718
 30
0.0
 11
605.5912277190032
 21
155.1526858682941
 31
0.0
  0
LINE
  5
391
330
6F
100
AcDbEntity
  8
ANCHOR
  6
HIDDEN
100
AcDbLine
 10
610.391227719003
 20
136.6014496095476
 30
0.0
 11
609.8912277190028
 21
136.3127744749526
 31
0.0
  0
LINE
  5
392
330
6F
100
AcDbEntity
  8
ANCHOR
  6
HIDDEN
100
AcDbLine
 10
604.5412277190035
 20
136.601449609548
 30
0.0
 11
605.5912277190034
 21
136.3201029574954
 31
0.0
  0
LINE
  5
393
330
6F
100
AcDbEntity
  8
ANCHOR
  6
HIDDEN
100
AcDbLine
 10
610.9412277190032
 20
138.4154496095479
 30
0.0
 11
609.8912277190033
 21
138.6967962616004
 31
0.0
  0
LINE
  5
394
330
6F
100
AcDbEntity
  8
ANCHOR
  6
HIDDEN
100
AcDbLine
 10
610.3912277190032
 20
136.6014496095479
 30
0.0
 11
609.8912277190028
 21
136.8901247441427
 31
0.0
  0
LINE
  5
395
330
6F
100
AcDbEntity
  8
ANCHOR
  6
HIDDEN
100
AcDbLine
 10
605.0912277190032
 20
134.7874496095475
 30
0.0
 11
605.5912277190032
 21
135.0761247441424
 31
0.0
  0
LINE
  5
396
330
6F
100
AcDbEntity
  8
ANCHOR
  6
HIDDEN
100
AcDbLine
 10
605.0912277190028
 20
134.7874496095478
 30
0.0
 11
605.5912277190032
 21
134.4987744749529
 31
0.0
  0
LINE
  5
397
330
6F
100
AcDbEntity
  8
ANCHOR
  6
HIDDEN
100
AcDbLine
 10
610.9412277190036
 20
138.4154496095479
 30
0.0
 11
604.5412277190032
 21
136.601449609548
 31
0.0
  0
LINE
  5
398
330
6F
100
AcDbEntity
  8
ANCHOR
  6
HIDDEN
100
AcDbLine
 10
605.5912277190032
 20
136.320102957495
 30
0.0
 11
610.9412277190032
 21
138.4154496095476
 31
0.0
  0
LINE
  5
399
330
6F
100
AcDbEntity
  8
ANCHOR
  6
HIDDEN
100
AcDbLine
 10
609.8912277190033
 20
138.6967962616003
 30
0.0
 11
604.5412277190031
 21
136.6014496095478
 31
0.0
  0
LINE
  5
39A
330
6F
100
AcDbEntity
  8
ANCHOR
  6
HIDDEN
100
AcDbLine
 10
609.8912277190028
 20
136.8901247441427
 30
0.0
 11
605.5912277190027
 21
135.0761247441427
 31
0.0
  0
LINE
  5
39B
330
6F
100
AcDbEntity
  8
ANCHOR
  6
HIDDEN
100
AcDbLine
 10
605.0912277190032
 20
134.7874496095477
 30
0.0
 11
610.3912277190032
 21
136.6014496095477
 31
0.0
  0
LINE
  5
39C
330
6F
100
AcDbEntity
  8
ANCHOR
  6
HIDDEN
100
AcDbLine
 10
605.5912277190026
 20
134.4987744749527
 30
0.0
 11
609.8912277190028
 21
136.3127744749526
 31
0.0
  0
LINE
  5
39D
330
6F
100
AcDbEntity
  8
ANCHOR
  6
HIDDEN
100
AcDbLine
 10
609.8912277190033
 20
136.8901247441426
 30
0.0
 11
609.8912277190033
 21
138.0042133507338
 31
0.0
  0
LINE
  5
39E
330
6F
100
AcDbEntity
  8
ANCHOR
  6
HIDDEN
100
AcDbLine
 10
609.8912277190033
 20
138.6967962616002
 30
0.0
 11
609.8912277190033
 21
139.9407744749395
 31
0.0
  0
LINE
  5
39F
330
6F
100
AcDbEntity
  8
ANCHOR
  6
HIDDEN
100
AcDbLine
 10
605.5912277190032
 20
138.1267744749393
 30
0.0
 11
605.5912277190032
 21
137.012685868362
 31
0.0
  0
LINE
  5
3A0
330
6F
100
AcDbEntity
  8
ANCHOR
  6
HIDDEN
100
AcDbLine
 10
605.5912277190032
 20
136.3201029574952
 30
0.0
 11
605.5912277190032
 21
135.0761247441427
 31
0.0
  0
LINE
  5
3A1
330
6F
100
AcDbEntity
  8
ANCHOR
  6
HIDDEN
100
AcDbLine
 10
610.2912277190032
 20
132.939223194467
 30
0.0
 11
609.8912277190033
 21
132.7082830867911
 31
0.0
  0
LINE
  5
3A2
330
6F
100
AcDbEntity
  8
ANCHOR
  6
HIDDEN
100
AcDbLine
 10
604.5412277190028
 20
132.9734496095612
 30
0.0
 11
605.5912277190027
 21
132.6921029575085
 31
0.0
  0
LINE
  5
3A3
330
6F
100
AcDbEntity
  8
ANCHOR
  6
HIDDEN
100
AcDbLine
 10
610.9412277190028
 20
134.7874496095614
 30
0.0
 11
609.8912277190028
 21
135.068796261614
 31
0.0
  0
LINE
  5
3A4
330
6F
100
AcDbEntity
  8
ANCHOR
  6
HIDDEN
100
AcDbLine
 10
610.2912277190035
 20
132.939223194467
 30
0.0
 11
609.8912277190028
 21
133.1701633021434
 31
0.0
  0
LINE
  5
3A5
330
6F
100
AcDbEntity
  8
ANCHOR
  6
HIDDEN
100
AcDbLine
 10
610.9412277190031
 20
134.7874496095618
 30
0.0
 11
604.5412277190031
 21
132.9734496095618
 31
0.0
  0
LINE
  5
3A6
330
6F
100
AcDbEntity
  8
ANCHOR
  6
HIDDEN
100
AcDbLine
 10
605.591227719003
 20
132.6921029575089
 30
0.0
 11
610.9412277190028
 21
134.7874496095615
 31
0.0
  0
LINE
  5
3A7
330
6F
100
AcDbEntity
  8
ANCHOR
  6
HIDDEN
100
AcDbLine
 10
609.8912277190028
 20
135.0687962616141
 30
0.0
 11
604.541227719003
 21
132.9734496095615
 31
0.0
  0
LINE
  5
3A8
330
6F
100
AcDbEntity
  8
ANCHOR
  6
HIDDEN
100
AcDbLine
 10
605.6083721509207
 20
131.3364496094666
 30
0.0
 11
610.2912277190035
 21
132.939223194467
 31
0.0
  0
LINE
  5
3A9
330
6F
100
AcDbEntity
  8
ANCHOR
  6
HIDDEN
100
AcDbLine
 10
609.8912277190033
 20
133.1701633021434
 30
0.0
 11
609.8912277190033
 21
134.3762133507472
 31
0.0
  0
LINE
  5
3AA
330
6F
100
AcDbEntity
  8
ANCHOR
  6
HIDDEN
100
AcDbLine
 10
609.8912277190033
 20
135.068796261614
 30
0.0
 11
609.8912277190033
 21
136.3127744749528
 31
0.0
  0
LINE
  5
3AB
330
6F
100
AcDbEntity
  8
ANCHOR
  6
HIDDEN
100
AcDbLine
 10
605.5912277190032
 20
134.498774474953
 30
0.0
 11
605.5912277190032
 21
133.3846858683754
 31
0.0
  0
LINE
  5
3AC
330
6F
100
AcDbEntity
  8
ANCHOR
  6
HIDDEN
100
AcDbLine
 10
605.591227719003
 20
132.6921029575085
 30
0.0
 11
605.5912277190032
 21
131.3364496094667
 31
0.0
  0
LINE
  5
3AD
330
6F
100
AcDbEntity
  8
ANCHOR
  6
HIDDEN
100
AcDbLine
 10
609.8912277190033
 20
131.3364496094668
 30
0.0
 11
609.8912277190033
 21
132.7082830867911
 31
0.0
  0
LINE
  5
3AE
330
6F
100
AcDbEntity
  8
ANCHOR
  6
HIDDEN
100
AcDbLine
 10
609.891227719003
 20
133.1701633021433
 30
0.0
 11
605.6083721509202
 21
131.3364496094666
 31
0.0
  0
LINE
  5
3AF
330
6F
100
AcDbEntity
  8
ANCHOR
  6
HIDDEN
100
AcDbLine
 10
605.6083721509207
 20
131.3364496094667
 30
0.0
 11
609.8912277190033
 21
132.7082830867911
 31
0.0
  0
LINE
  5
3B0
330
6F
100
AcDbEntity
  8
ANCHOR
  6
HIDDEN
100
AcDbLine
 10
610.3912277190032
 20
158.3694496094667
 30
0.0
 11
609.8912277190033
 21
158.0807744748718
 31
0.0
  0
LINE
  5
3B1
330
6F
100
AcDbEntity
  8
ANCHOR
  6
HIDDEN
100
AcDbLine
 10
610.3912277190032
 20
158.3694496094668
 30
0.0
 11
610.0140585850756
 21
158.5872083104699
 31
0.0
  0
LINE
  5
3B2
330
6F
100
AcDbEntity
  8
ANCHOR
  6
HIDDEN
100
AcDbLine
 10
605.5912277190032
 20
156.2667744748716
 30
0.0
 11
609.891227719003
 21
158.0807744748717
 31
0.0
  0
LINE
  5
3B3
330
6F
100
AcDbEntity
  8
ANCHOR
  6
HIDDEN
100
AcDbLine
 10
610.3912277190033
 20
158.3694496094668
 30
0.0
 11
605.0912277190032
 21
156.5554496094667
 31
0.0
  0
LINE
  5
3B4
330
6F
100
AcDbEntity
  8
ANCHOR
  6
HIDDEN
100
AcDbLine
 10
610.1812277190028
 20
159.2764496094664
 30
0.0
 11
610.0140585850752
 21
158.5872083104695
 31
0.0
  0
LINE
  5
3B5
330
6F
100
AcDbEntity
  8
ANCHOR
  6
HIDDEN
100
AcDbLine
 10
610.0140585850755
 20
158.5872083104695
 30
0.0
 11
605.5912277190032
 21
156.8441247440613
 31
0.0
  0
LINE
  5
3B6
330
6F
100
AcDbEntity
  8
ANCHOR
  6
HIDDEN
100
AcDbLine
 10
605.3012277190031
 20
159.2764496094666
 30
0.0
 11
605.4460249435955
 21
158.6794480887647
 31
0.0
  0
LINE
  5
3B7
330
6F
100
AcDbEntity
  8
ANCHOR
  6
HIDDEN
100
AcDbLine
 10
604.9512277190032
 20
158.4856589844668
 30
0.0
 11
605.5912277190032
 21
158.3141715013109
 31
0.0
  0
LINE
  5
3B8
330
6F
100
AcDbEntity
  8
ANCHOR
  6
HIDDEN
100
AcDbLine
 10
605.4460249435955
 20
158.6794480887646
 30
0.0
 11
604.9512277190032
 21
158.4856589844666
 31
0.0
  0
LINE
  5
3B9
330
6F
100
AcDbEntity
  8
ANCHOR
  6
HIDDEN
100
AcDbLine
 10
605.5912277190034
 20
158.3141715013109
 30
0.0
 11
607.7412277190031
 21
159.2764496094666
 31
0.0
  0
LINE
  5
3BA
330
6F
100
AcDbEntity
  8
ANCHOR
  6
HIDDEN
100
AcDbLine
 10
611.2412277190031
 20
160.3364496094663
 30
0.0
 11
610.1812277190032
 21
159.2764496094663
 31
0.0
  0
LINE
  5
3BB
330
6F
100
AcDbEntity
  8
ANCHOR
  6
HIDDEN
100
AcDbLine
 10
604.2412277190031
 20
160.3364496094665
 30
0.0
 11
605.3012277190028
 21
159.2764496094664
 31
0.0
  0
LINE
  5
3BC
330
6F
100
AcDbEntity
  8
ANCHOR
  6
Continuous
100
AcDbLine
 10
614.5912277183184
 20
161.9364496094664
 30
0.0
 11
600.8912277196882
 21
161.9364496094665
 31
0.0
  0
LINE
  5
3BD
330
6F
100
AcDbEntity
  8
ANCHOR
  6
Continuous
100
AcDbLine
 10
614.5912277183182
 20
161.9364496094665
 30
0.0
 11
614.5912277183182
 21
160.3364496096266
 31
0.0
  0
LINE
  5
3BE
330
6F
100
AcDbEntity
  8
ANCHOR
  6
Continuous
100
AcDbLine
 10
614.5912277183184
 20
160.3364496096263
 30
0.0
 11
600.8912277196882
 21
160.3364496096264
 31
0.0
  0
LINE
  5
3BF
330
6F
100
AcDbEntity
  8
ANCHOR
  6
Continuous
100
AcDbLine
 10
600.8912277196882
 20
160.3364496096266
 30
0.0
 11
600.8912277196882
 21
161.9364496094666
 31
0.0
  0
LINE
  5
3C0
330
6F
100
AcDbEntity
  8
ANCHOR
  6
Continuous
100
AcDbLine
 10
603.4912277190032
 20
162.7364496094667
 30
0.0
 11
602.7412277190031
 21
161.9364496094666
 31
0.0
  0
LINE
  5
3C1
330
6F
100
AcDbEntity
  8
ANCHOR
  6
Continuous
100
AcDbLine
 10
611.9912277190032
 20
162.7364496094664
 30
0.0
 11
612.7412277190035
 21
161.9364496094664
 31
0.0
  0
ARC
  5
3C2
330
6F
100
AcDbEntity
  8
UKEZAI
  6
Continuous
100
AcDbCircle
 10
242.7273721234342
 20
422.2555691123014
 30
0.0
 40
0.3
100
AcDbArc
 50
180.0
 51
270.0
  0
LINE
  5
3C3
330
6F
100
AcDbEntity
  8
UKEZAI
  6
Continuous
100
AcDbLine
 10
231.0273721234339
 20
423.7555691123014
 30
0.0
 11
231.0273721234339
 21
430.7555691123014
 31
0.0
  0
LINE
  5
3C4
330
6F
100
AcDbEntity
  8
UKEZAI
  6
Continuous
100
AcDbLine
 10
229.5273721234349
 20
422.7555691123013
 30
0.0
 11
229.7148721234349
 21
423.755569112301
 31
0.0
  0
LINE
  5
3C5
330
6F
100
AcDbEntity
  8
UKEZAI
  6
Continuous
100
AcDbLine
 10
229.5273721233824
 20
420.7555691123014
 30
0.0
 11
229.5273721233802
 21
422.7555691120111
 31
0.0
  0
LINE
  5
3C6
330
6F
100
AcDbEntity
  8
UKEZAI
  6
Continuous
100
AcDbLine
 10
232.5273721234339
 20
422.2555691123014
 30
0.0
 11
232.5273721234339
 21
435.0055691123014
 31
0.0
  0
ARC
  5
3C7
330
6F
100
AcDbEntity
  8
UKEZAI
  6
Continuous
100
AcDbCircle
 10
231.7773721234341
 20
435.0055691123015
 30
0.0
 40
0.75
100
AcDbArc
 50
0.0
 51
160.1120356917755
  0
LINE
  5
3C8
330
6F
100
AcDbEntity
  8
UKEZAI
  6
Continuous
100
AcDbLine
 10
231.0273721234343
 20
430.755569112256
 30
0.0
 11
229.7273721231299
 21
430.7555691122573
 31
0.0
  0
LINE
  5
3C9
330
6F
100
AcDbEntity
  8
UKEZAI
  6
Continuous
100
AcDbLine
 10
231.0273721234339
 20
423.7555691123014
 30
0.0
 11
229.7148721234339
 21
423.7555691123014
 31
0.0
  0
LINE
  5
3CA
330
6F
100
AcDbEntity
  8
UKEZAI
  6
Continuous
100
AcDbLine
 10
229.5273721233825
 20
420.7555691123014
 30
0.0
 11
242.7273721234328
 21
420.7555691123014
 31
0.0
  0
ARC
  5
3CB
330
6F
100
AcDbEntity
  8
UKEZAI
  6
Continuous
100
AcDbCircle
 10
229.7273721231297
 20
430.9555691122571
 30
0.0
 40
0.2
100
AcDbArc
 50
160.1120356917742
 51
270.0
  0
LINE
  5
3CC
330
6F
100
AcDbEntity
  8
UKEZAI
  6
Continuous
100
AcDbLine
 10
231.0721024180148
 20
435.2607056299093
 30
0.0
 11
229.5393002016848
 21
431.023605516952
 31
0.0
  0
ARC
  5
3CD
330
6F
100
AcDbEntity
  8
UKEZAI
  6
Continuous
100
AcDbCircle
 10
240.7273721234328
 20
422.2555691123014
 30
0.0
 40
0.3
100
AcDbArc
 50
0.0
 51
180.0
  0
LINE
  5
3CE
330
6F
100
AcDbEntity
  8
UKEZAI
  6
Continuous
100
AcDbLine
 10
232.5273721234339
 20
422.2555691123014
 30
0.0
 11
240.4273721234326
 21
422.2555691123014
 31
0.0
  0
LINE
  5
3CF
330
6F
100
AcDbEntity
  8
UKEZAI
  6
Continuous
100
AcDbLine
 10
241.0273721234325
 20
422.2555691123014
 30
0.0
 11
242.4273721234344
 21
422.2555691123014
 31
0.0
  0
ARC
  5
3D0
330
6F
100
AcDbEntity
  8
UKEZAI
  6
Continuous
100
AcDbCircle
 10
242.727372123431
 20
422.2555691123014
 30
0.0
 40
0.3
100
AcDbArc
 50
270.0
 51
0.0
  0
LINE
  5
3D1
330
6F
100
AcDbEntity
  8
UKEZAI
  6
Continuous
100
AcDbLine
 10
254.4273721234306
 20
423.7555691123014
 30
0.0
 11
254.4273721234306
 21
430.7555691123014
 31
0.0
  0
LINE
  5
3D2
330
6F
100
AcDbEntity
  8
UKEZAI
  6
Continuous
100
AcDbLine
 10
255.9273721234308
 20
422.7555691123017
 30
0.0
 11
255.7398721234308
 21
423.7555691123015
 31
0.0
  0
LINE
  5
3D3
330
6F
100
AcDbEntity
  8
UKEZAI
  6
Continuous
100
AcDbLine
 10
255.9273721234828
 20
420.755569112301
 30
0.0
 11
255.927372123485
 21
422.7555691120106
 31
0.0
  0
LINE
  5
3D4
330
6F
100
AcDbEntity
  8
UKEZAI
  6
Continuous
100
AcDbLine
 10
252.9273721234306
 20
422.2555691123014
 30
0.0
 11
252.9273721234306
 21
435.0055691123014
 31
0.0
  0
ARC
  5
3D5
330
6F
100
AcDbEntity
  8
UKEZAI
  6
Continuous
100
AcDbCircle
 10
253.6773721234308
 20
435.0055691123015
 30
0.0
 40
0.75
100
AcDbArc
 50
19.88796430822549
 51
180.0
  0
LINE
  5
3D6
330
6F
100
AcDbEntity
  8
UKEZAI
  6
Continuous
100
AcDbLine
 10
254.427372123431
 20
430.7555691122553
 30
0.0
 11
255.7273721237354
 21
430.7555691122564
 31
0.0
  0
LINE
  5
3D7
330
6F
100
AcDbEntity
  8
UKEZAI
  6
Continuous
100
AcDbLine
 10
254.4273721234306
 20
423.7555691123014
 30
0.0
 11
255.7398721234306
 21
423.7555691123014
 31
0.0
  0
LINE
  5
3D8
330
6F
100
AcDbEntity
  8
UKEZAI
  6
Continuous
100
AcDbLine
 10
255.9273721234824
 20
420.7555691123014
 30
0.0
 11
242.7273721234328
 21
420.7555691123014
 31
0.0
  0
ARC
  5
3D9
330
6F
100
AcDbEntity
  8
UKEZAI
  6
Continuous
100
AcDbCircle
 10
255.7273721237352
 20
430.9555691122571
 30
0.0
 40
0.2
100
AcDbArc
 50
270.0
 51
19.88796430822582
  0
LINE
  5
3DA
330
6F
100
AcDbEntity
  8
UKEZAI
  6
Continuous
100
AcDbLine
 10
254.3826418288511
 20
435.2607056299102
 30
0.0
 11
255.9154440451812
 21
431.0236055169529
 31
0.0
  0
ARC
  5
3DB
330
6F
100
AcDbEntity
  8
UKEZAI
  6
Continuous
100
AcDbCircle
 10
244.7273721234328
 20
422.2555691123014
 30
0.0
 40
0.3
100
AcDbArc
 50
0.0
 51
180.0
  0
LINE
  5
3DC
330
6F
100
AcDbEntity
  8
UKEZAI
  6
Continuous
100
AcDbLine
 10
252.9273721234306
 20
422.2555691123014
 30
0.0
 11
245.0273721234323
 21
422.2555691123014
 31
0.0
  0
LINE
  5
3DD
330
6F
100
AcDbEntity
  8
UKEZAI
  6
Continuous
100
AcDbLine
 10
244.4273721234324
 20
422.2555691123014
 30
0.0
 11
243.0273721234307
 21
422.2555691123014
 31
0.0
  0
POINT
  5
3DE
330
6F
100
AcDbEntity
  8
ANCHOR
  6
Continuous
100
AcDbPoint
 10
227.7273721233707
 20
430.7555691122955
 30
0.0
  0
TEXT
  5
3DF
330
6F
100
AcDbEntity
  8
COMMENT
  6
Continuous
100
AcDbText
 10
639.1920738388651
 20
348.5122722083679
 30
0.0
 40
5.300000190734863
  1
※　　　　　部に凸凹デザイン有り。
  7
KNJYOKO
100
AcDbText
  0
LINE
  5
3E0
330
6F
100
AcDbEntity
  8
LOUVER
  6
DASHED
100
AcDbLine
 10
646.5886805081566
 20
350.9379783061386
 30
0.0
 11
670.8725628463818
 21
350.9379783061386
 31
0.0
  0
TEXT
  5
3E1
330
6F
100
AcDbEntity
  8
COMMENT
  6
Continuous
100
AcDbText
 10
259.0226847039763
 20
79.93491106483526
 30
0.0
 40
5.300000190734863
  1
※　　　　　部に凸凹デザイン有り。
  7
KNJYOKO
100
AcDbText
  0
LINE
  5
3E2
330
6F
100
AcDbEntity
  8
LOUVER
  6
DASHED
100
AcDbLine
 10
266.4192913732678
 20
82.36061716260598
 30
0.0
 11
290.7031737114929
 21
82.36061716260598
 31
0.0
  0
TEXT
  5
3E3
330
6F
100
AcDbEntity
  8
COMMENT
  6
Continuous
100
AcDbText
 10
639.1920738388651
 20
79.93491106483521
 30
0.0
 40
5.300000190734863
  1
※　　　　　部に凸凹デザイン有り。
  7
KNJYOKO
100
AcDbText
  0
LINE
  5
3E4
330
6F
100
AcDbEntity
  8
LOUVER
  6
DASHED
100
AcDbLine
 10
646.5886805081566
 20
82.36061716260593
 30
0.0
 11
670.8725628463818
 21
82.36061716260593
 31
0.0
  0
DIMENSION
  5
3E5
330
6F
100
AcDbEntity
  8
DXF0
  6
Continuous
 62
     3
100
AcDbDimension
280
     0
  2
*D1
 10
214.0562019761849
 20
420.7555691123014
 30
0.0
 11
213.5562019761849
 21
425.7555691123038
 31
0.0
 71
     5
 42
-1.0
 73
     0
 74
     0
 75
     0
  3
Standard
100
AcDbAlignedDimension
 13
218.3387701989774
 23
430.7555691123065
 33
0.0
 14
132.957215493353
 24
420.7555691123014
 34
0.0
 50
90.0
100
AcDbRotatedDimension
  0
DIMENSION
  5
3E6
330
6F
100
AcDbEntity
  8
DXF0
  6
Continuous
 62
     3
100
AcDbDimension
280
     0
  2
*D2
 10
223.4493718243026
 20
420.7555691123014
 30
0.0
 11
222.9493718243026
 21
424.0073854408891
 31
0.0
 71
     5
 42
-1.0
 73
     0
 74
     0
 75
     0
  3
Standard
100
AcDbAlignedDimension
 13
227.7273721233707
 23
421.7555691123208
 33
0.0
 14
132.957215493353
 24
420.7555691123014
 34
0.0
 50
90.0
100
AcDbRotatedDimension
  0
DIMENSION
  5
3E7
330
6F
100
AcDbEntity
  8
DXF0
  6
Continuous
 62
     3
100
AcDbDimension
280
     0
  2
*D3
 10
227.7273721233707
 20
361.4651527131575
 30
0.0
 11
235.2273721234017
 21
361.9651527131575
 31
0.0
 71
     5
 42
-1.0
 73
     0
 74
     0
 75
     0
  3
Standard
100
AcDbAlignedDimension
 13
242.7273721234328
 23
434.1898308268228
 33
0.0
 14
227.7273721233707
 24
421.7555691122957
 34
0.0
100
AcDbRotatedDimension
  0
DIMENSION
  5
3E8
330
6F
100
AcDbEntity
  8
DXF0
  6
Continuous
 62
     3
100
AcDbDimension
280
     0
  2
*D4
 10
242.7273721234328
 20
361.4651527131575
 30
0.0
 11
250.2273721234729
 21
361.9651527131575
 31
0.0
 71
     5
 42
-1.0
 73
     0
 74
     0
 75
     0
  3
Standard
100
AcDbAlignedDimension
 13
257.727372123513
 23
421.7555691123385
 33
0.0
 14
242.7273721234328
 24
434.1898308268228
 34
0.0
100
AcDbRotatedDimension
  0
LINE
  5
3E9
330
6F
100
AcDbEntity
  8
WASHER
  6
HIDDEN
100
AcDbLine
 10
604.5412277190032
 20
437.2555691123014
 30
0.0
 11
604.5412277190032
 21
439.2555691122947
 31
0.0
  0
LINE
  5
3EA
330
6F
100
AcDbEntity
  8
WASHER
  6
HIDDEN
100
AcDbLine
 10
610.9412277190032
 20
437.2555691123014
 30
0.0
 11
610.9412277190032
 21
439.2555691123081
 31
0.0
  0
LINE
  5
3EB
330
6F
100
AcDbEntity
  8
WASHER
  6
Continuous
100
AcDbLine
 10
598.7412277190031
 20
439.2555691123016
 30
0.0
 11
616.7412277190031
 21
439.2555691123016
 31
0.0
  0
LINE
  5
3EC
330
6F
100
AcDbEntity
  8
WASHER
  6
Continuous
100
AcDbLine
 10
616.7412277190031
 20
437.2555691123016
 30
0.0
 11
616.7412277190031
 21
439.2555691123016
 31
0.0
  0
LINE
  5
3ED
330
6F
100
AcDbEntity
  8
WASHER
  6
Continuous
100
AcDbLine
 10
598.7412277190031
 20
437.2555691123016
 30
0.0
 11
598.7412277190031
 21
439.2555691123016
 31
0.0
  0
LINE
  5
3EE
330
6F
100
AcDbEntity
  8
ANCHOR
  6
CENTER
100
AcDbLine
 10
601.8015886551207
 20
445.7555691122847
 30
0.0
 11
583.3526257945477
 21
445.7555691123065
 31
0.0
  0
LINE
  5
3EF
330
6F
100
AcDbEntity
  8
ANCHOR
  6
HIDDEN
100
AcDbLine
 10
602.2412277200928
 20
447.7555691123916
 30
0.0
 11
592.7412277187642
 21
447.7555691124321
 31
0.0
  0
LINE
  5
3F0
330
6F
100
AcDbEntity
  8
ANCHOR
  6
HIDDEN
100
AcDbLine
 10
602.241227720648
 20
443.7555691123916
 30
0.0
 11
592.7412277187486
 21
443.7555691124321
 31
0.0
  0
LINE
  5
3F1
330
6F
100
AcDbEntity
  8
ANCHOR
  6
HIDDEN
100
AcDbLine
 10
605.1638774508585
 20
446.7555691124003
 30
0.0
 11
603.2412277201038
 21
446.7555691123965
 31
0.0
  0
LINE
  5
3F2
330
6F
100
AcDbEntity
  8
ANCHOR
  6
HIDDEN
100
AcDbLine
 10
605.1638774510544
 20
444.7555691124001
 30
0.0
 11
603.2412277206416
 21
444.7555691123964
 31
0.0
  0
LINE
  5
3F3
330
6F
100
AcDbEntity
  8
ANCHOR
  6
HIDDEN
100
AcDbLine
 10
605.7412277201457
 20
445.7555691122402
 30
0.0
 11
605.1638774508582
 21
446.7555691124011
 31
0.0
  0
LINE
  5
3F4
330
6F
100
AcDbEntity
  8
ANCHOR
  6
HIDDEN
100
AcDbLine
 10
605.1638774510552
 20
444.7555691124016
 30
0.0
 11
605.741227720147
 21
445.7555691122406
 31
0.0
  0
ARC
  5
3F5
330
6F
100
AcDbEntity
  8
ANCHOR
  6
HIDDEN
100
AcDbCircle
 10
603.7412277206513
 20
445.755569112399
 30
0.0
 40
0.5
100
AcDbArc
 50
97.20679386168658
 51
262.7932061387912
  0
LINE
  5
3F6
330
6F
100
AcDbEntity
  8
ANCHOR
  6
HIDDEN
100
AcDbLine
 10
603.678502284186
 20
445.2595191959376
 30
0.0
 11
605.1638774510542
 21
444.7555691124001
 31
0.0
  0
LINE
  5
3F7
330
6F
100
AcDbEntity
  8
ANCHOR
  6
HIDDEN
100
AcDbLine
 10
603.6785022841825
 20
446.251619028859
 30
0.0
 11
605.1638774508582
 21
446.7555691124009
 31
0.0
  0
LINE
  5
3F8
330
6F
100
AcDbEntity
  8
ANCHOR
  6
HIDDEN
100
AcDbLine
 10
603.2412277201024
 20
446.7555691123958
 30
0.0
 11
602.2412277200928
 21
447.7555691123933
 31
0.0
  0
LINE
  5
3F9
330
6F
100
AcDbEntity
  8
ANCHOR
  6
HIDDEN
100
AcDbLine
 10
602.2412277206487
 20
443.7555691123954
 30
0.0
 11
603.241227720641
 21
444.7555691123958
 31
0.0
  0
LINE
  5
3FA
330
6F
100
AcDbEntity
  8
ANCHOR
  6
HIDDEN
100
AcDbLine
 10
602.2412277203795
 20
443.7555691123939
 30
0.0
 11
602.2412277203648
 21
447.755569112394
 31
0.0
  0
LINE
  5
3FB
330
6F
100
AcDbEntity
  8
ANCHOR
  6
HIDDEN
100
AcDbLine
 10
603.2412277201452
 20
444.7555691123944
 30
0.0
 11
603.241227720136
 21
446.7555691123944
 31
0.0
  0
LINE
  5
3FC
330
6F
100
AcDbEntity
  8
ANCHOR
  6
HIDDEN
100
AcDbLine
 10
603.0412277206432
 20
444.5555691123944
 30
0.0
 11
592.7412277187527
 21
444.5555691124355
 31
0.0
  0
LINE
  5
3FD
330
6F
100
AcDbEntity
  8
ANCHOR
  6
HIDDEN
100
AcDbLine
 10
603.0412277201021
 20
446.9555691123941
 30
0.0
 11
592.7412277187617
 21
446.9555691124352
 31
0.0
  0
LINE
  5
3FE
330
6F
100
AcDbEntity
  8
ANCHOR
  6
Continuous
100
AcDbLine
 10
590.7189171376147
 20
446.2537673600245
 30
0.0
 11
590.7189171376151
 21
445.2573708645423
 31
0.0
  0
LINE
  5
3FF
330
6F
100
AcDbEntity
  8
ANCHOR
  6
Continuous
100
AcDbLine
 10
590.7189171376145
 20
446.2537673600247
 30
0.0
 11
590.2412277189398
 21
446.2537673600247
 31
0.0
  0
LINE
  5
400
330
6F
100
AcDbEntity
  8
ANCHOR
  6
Continuous
100
AcDbLine
 10
590.7189171376147
 20
445.2573708645426
 30
0.0
 11
590.2412277189406
 21
445.2573708645426
 31
0.0
  0
LINE
  5
401
330
6F
100
AcDbEntity
  8
ANCHOR
  6
Continuous
100
AcDbLine
 10
592.241227718957
 20
441.0555691122817
 30
0.0
 11
592.741227718957
 21
441.0555691122818
 31
0.0
  0
ARC
  5
402
330
6F
100
AcDbEntity
  8
ANCHOR
  6
Continuous
100
AcDbCircle
 10
596.332693113263
 20
445.5799376789665
 30
0.0
 40
6.099999999999998
100
AcDbArc
 50
183.0312034848472
 51
227.876411461438
  0
LINE
  5
403
330
6F
100
AcDbEntity
  8
ANCHOR
  6
Continuous
100
AcDbLine
 10
592.241227718923
 20
450.4555691122837
 30
0.0
 11
592.2412277189577
 21
441.0555691122821
 31
0.0
  0
ARC
  5
404
330
6F
100
AcDbEntity
  8
ANCHOR
  6
Continuous
100
AcDbCircle
 10
596.332693113263
 20
445.931200545604
 30
0.0
 40
6.099999999999998
100
AcDbArc
 50
132.1235885386251
 51
176.9687965152159
  0
LINE
  5
405
330
6F
100
AcDbEntity
  8
ANCHOR
  6
Continuous
100
AcDbLine
 10
592.7412277189236
 20
450.455569112285
 30
0.0
 11
592.7412277189582
 21
441.0555691122834
 31
0.0
  0
LINE
  5
406
330
6F
100
AcDbEntity
  8
ANCHOR
  6
Continuous
100
AcDbLine
 10
592.2412277189526
 20
450.4555691122833
 30
0.0
 11
592.7412277189525
 21
450.4555691122837
 31
0.0
  0
LINE
  5
407
330
6F
100
AcDbEntity
  8
WASHER
  6
Continuous
100
AcDbLine
 10
598.7412277190031
 20
437.2555691123016
 30
0.0
 11
616.7412277190031
 21
437.2555691123016
 31
0.0
  0
LINE
  5
408
330
6F
100
AcDbEntity
  8
COMMENT
  6
Continuous
100
AcDbLine
 10
607.7412277190031
 20
443.1555691123023
 30
0.0
 11
643.6017264194276
 21
469.3861132526421
 31
0.0
  0
LINE
  5
409
330
6F
100
AcDbEntity
  8
COMMENT
  6
Continuous
100
AcDbLine
 10
609.0012498879142
 20
444.8206048964411
 30
0.0
 11
607.7412277190031
 21
443.1555691123023
 31
0.0
  0
LINE
  5
40A
330
6F
100
AcDbEntity
  8
COMMENT
  6
Continuous
100
AcDbLine
 10
607.7412277190031
 20
443.1555691123023
 30
0.0
 11
609.7097063068908
 21
443.8520546309145
 31
0.0
  0
LINE
  5
40B
330
6F
100
AcDbEntity
  8
COMMENT
  6
Continuous
100
AcDbLine
 10
590.2412277189397
 20
446.2537673600246
 30
0.0
 11
557.0944833930082
 21
462.3191334913131
 31
0.0
  0
LINE
  5
40C
330
6F
100
AcDbEntity
  8
COMMENT
  6
Continuous
100
AcDbLine
 10
588.1797884193638
 20
446.5861346911101
 30
0.0
 11
590.2412277189397
 21
446.2537673600247
 31
0.0
  0
LINE
  5
40D
330
6F
100
AcDbEntity
  8
COMMENT
  6
Continuous
100
AcDbLine
 10
590.2412277189401
 20
446.253767360025
 30
0.0
 11
588.7031641131662
 21
447.6659856056245
 31
0.0
  0
LINE
  5
40E
330
6F
100
AcDbEntity
  8
COMMENT
  6
Continuous
100
AcDbLine
 10
557.0944833930083
 20
462.3191334913133
 30
0.0
 11
499.3044848712036
 21
462.3191334913133
 31
0.0
  0
TEXT
  5
40F
330
6F
100
AcDbEntity
  8
COMMENT
  6
Continuous
100
AcDbText
 10
499.3044848712036
 20
462.8191334913132
 30
0.0
 40
4.0
  1
脱落防止ねじ(両端2ヶ所)
  7
KNJYOKO
100
AcDbText
  0
TEXT
  5
410
330
6F
100
AcDbEntity
  8
COMMENT
  6
Continuous
100
AcDbText
 10
499.3044848712036
 20
457.8191334913134
 30
0.0
 40
4.0
  1
トラス頭ドリルねじ4×13
  7
KNJYOKO
100
AcDbText
  0
TEXT
  5
411
330
6F
100
AcDbEntity
  8
COMMENT
  6
Continuous
100
AcDbText
 10
499.3044848712036
 20
452.8191334913134
 30
0.0
 40
4.0
  1
TBT-413-100
100
AcDbText
  0
LINE
  5
412
330
6F
100
AcDbEntity
  8
COMMENT
  6
Continuous
100
AcDbLine
 10
622.9018276802328
 20
474.8828898960023
 30
0.0
 11
635.4096600224074
 21
481.9387956161931
 31
0.0
  0
LINE
  5
413
330
6F
100
AcDbEntity
  8
COMMENT
  6
Continuous
100
AcDbLine
 10
624.3489731381222
 20
476.3881374013386
 30
0.0
 11
622.9018276802332
 21
474.8828898960023
 31
0.0
  0
LINE
  5
414
330
6F
100
AcDbEntity
  8
COMMENT
  6
Continuous
100
AcDbLine
 10
622.9018276802328
 20
474.8828898960023
 30
0.0
 11
624.9385716076182
 21
475.342970544225
 31
0.0
  0
LINE
  5
415
330
6F
100
AcDbEntity
  8
COMMENT
  6
Continuous
100
AcDbLine
 10
635.4096600224074
 20
481.9387956161933
 30
0.0
 11
669.7996591641005
 21
481.9387956161933
 31
0.0
  0
TEXT
  5
416
330
6F
100
AcDbEntity
  8
COMMENT
  6
Continuous
100
AcDbText
 10
637.8996600224072
 20
482.4387956161933
 30
0.0
 40
4.0
  1
アルミルーバー
  7
KNJYOKO
100
AcDbText
  0
TEXT
  5
417
330
6F
100
AcDbEntity
  8
COMMENT
  6
Continuous
100
AcDbText
 10
637.8996600224072
 20
477.4387956161933
 30
0.0
 40
4.0
  1
CLKSW-3060
100
AcDbText
  0
LINE
  5
418
330
6F
100
AcDbEntity
  8
COMMENT
  6
Continuous
100
AcDbLine
 10
617.0612003824361
 20
439.2555691123014
 30
0.0
 11
643.3958136418266
 21
454.6648643629863
 31
0.0
  0
LINE
  5
419
330
6F
100
AcDbEntity
  8
COMMENT
  6
Continuous
100
AcDbLine
 10
618.4843849192906
 20
440.7834911661606
 30
0.0
 11
617.0612003824362
 21
439.2555691123014
 31
0.0
  0
LINE
  5
41A
330
6F
100
AcDbEntity
  8
COMMENT
  6
Continuous
100
AcDbLine
 10
617.0612003824361
 20
439.2555691123017
 30
0.0
 11
619.0904216416909
 21
439.7477693861721
 31
0.0
  0
LINE
  5
41B
330
6F
100
AcDbEntity
  8
COMMENT
  6
Continuous
100
AcDbLine
 10
643.3958136418267
 20
454.6648643629863
 30
0.0
 11
681.3858126881521
 21
454.6648643629863
 31
0.0
  0
TEXT
  5
41C
330
6F
100
AcDbEntity
  8
COMMENT
  6
Continuous
100
AcDbText
 10
645.8858136418265
 20
455.1648643629863
 30
0.0
 40
4.0
  1
平座金　
  7
KNJYOKO
100
AcDbText
  0
TEXT
  5
41D
330
6F
100
AcDbEntity
  8
COMMENT
  6
Continuous
100
AcDbText
 10
645.8858136418265
 20
450.1648643629862
 30
0.0
 40
4.0
  1
D18mm t2mm
100
AcDbText
  0
ARC
  5
41E
330
6F
100
AcDbEntity
  8
UKEZAI
  6
Continuous
100
AcDbCircle
 10
607.7412277190045
 20
437.2555691123015
 30
0.0
 40
0.3
100
AcDbArc
 50
180.0
 51
270.0
  0
LINE
  5
41F
330
6F
100
AcDbEntity
  8
UKEZAI
  6
Continuous
100
AcDbLine
 10
596.0412277190043
 20
438.7555691123014
 30
0.0
 11
596.0412277190043
 21
445.7555691123014
 31
0.0
  0
LINE
  5
420
330
6F
100
AcDbEntity
  8
UKEZAI
  6
Continuous
100
AcDbLine
 10
594.5412277190054
 20
437.7555691123012
 30
0.0
 11
594.7287277190054
 21
438.7555691123011
 31
0.0
  0
LINE
  5
421
330
6F
100
AcDbEntity
  8
UKEZAI
  6
Continuous
100
AcDbLine
 10
594.5412277189529
 20
435.7555691123013
 30
0.0
 11
594.5412277189507
 21
437.7555691120112
 31
0.0
  0
LINE
  5
422
330
6F
100
AcDbEntity
  8
UKEZAI
  6
Continuous
100
AcDbLine
 10
597.5412277190042
 20
437.2555691123014
 30
0.0
 11
597.5412277190042
 21
450.0055691123014
 31
0.0
  0
ARC
  5
423
330
6F
100
AcDbEntity
  8
UKEZAI
  6
Continuous
100
AcDbCircle
 10
596.7912277190045
 20
450.0055691123015
 30
0.0
 40
0.75
100
AcDbArc
 50
0.0
 51
160.1120356917755
  0
LINE
  5
424
330
6F
100
AcDbEntity
  8
UKEZAI
  6
Continuous
100
AcDbLine
 10
596.0412277190047
 20
445.7555691122562
 30
0.0
 11
594.7412277187002
 21
445.7555691122571
 31
0.0
  0
LINE
  5
425
330
6F
100
AcDbEntity
  8
UKEZAI
  6
Continuous
100
AcDbLine
 10
596.0412277190043
 20
438.7555691123014
 30
0.0
 11
594.7287277190042
 21
438.7555691123014
 31
0.0
  0
LINE
  5
426
330
6F
100
AcDbEntity
  8
UKEZAI
  6
Continuous
100
AcDbLine
 10
594.5412277189529
 20
435.7555691123014
 30
0.0
 11
607.7412277190031
 21
435.7555691123014
 31
0.0
  0
ARC
  5
427
330
6F
100
AcDbEntity
  8
UKEZAI
  6
Continuous
100
AcDbCircle
 10
594.7412277187001
 20
445.9555691122571
 30
0.0
 40
0.2
100
AcDbArc
 50
160.1120356917742
 51
270.0
  0
LINE
  5
428
330
6F
100
AcDbEntity
  8
UKEZAI
  6
Continuous
100
AcDbLine
 10
596.0859580135851
 20
450.2607056299095
 30
0.0
 11
594.5531557972552
 21
446.0236055169522
 31
0.0
  0
ARC
  5
429
330
6F
100
AcDbEntity
  8
UKEZAI
  6
Continuous
100
AcDbCircle
 10
605.7412277190032
 20
437.2555691123015
 30
0.0
 40
0.3
100
AcDbArc
 50
0.0
 51
180.0
  0
LINE
  5
42A
330
6F
100
AcDbEntity
  8
UKEZAI
  6
Continuous
100
AcDbLine
 10
597.5412277190042
 20
437.2555691123014
 30
0.0
 11
605.441227719003
 21
437.2555691123014
 31
0.0
  0
LINE
  5
42B
330
6F
100
AcDbEntity
  8
UKEZAI
  6
Continuous
100
AcDbLine
 10
606.0412277190027
 20
437.2555691123014
 30
0.0
 11
607.4412277190047
 21
437.2555691123014
 31
0.0
  0
ARC
  5
42C
330
6F
100
AcDbEntity
  8
UKEZAI
  6
Continuous
100
AcDbCircle
 10
607.7412277190012
 20
437.2555691123015
 30
0.0
 40
0.3
100
AcDbArc
 50
270.0
 51
0.0
  0
LINE
  5
42D
330
6F
100
AcDbEntity
  8
UKEZAI
  6
Continuous
100
AcDbLine
 10
619.4412277190007
 20
438.7555691123014
 30
0.0
 11
619.4412277190007
 21
445.7555691123014
 31
0.0
  0
LINE
  5
42E
330
6F
100
AcDbEntity
  8
UKEZAI
  6
Continuous
100
AcDbLine
 10
620.9412277190011
 20
437.7555691123017
 30
0.0
 11
620.7537277190013
 21
438.7555691123014
 31
0.0
  0
LINE
  5
42F
330
6F
100
AcDbEntity
  8
UKEZAI
  6
Continuous
100
AcDbLine
 10
620.941227719053
 20
435.7555691123009
 30
0.0
 11
620.9412277190552
 21
437.7555691120107
 31
0.0
  0
LINE
  5
430
330
6F
100
AcDbEntity
  8
UKEZAI
  6
Continuous
100
AcDbLine
 10
617.9412277190007
 20
437.2555691123014
 30
0.0
 11
617.9412277190007
 21
450.0055691123014
 31
0.0
  0
ARC
  5
431
330
6F
100
AcDbEntity
  8
UKEZAI
  6
Continuous
100
AcDbCircle
 10
618.6912277190012
 20
450.0055691123015
 30
0.0
 40
0.75
100
AcDbArc
 50
19.88796430822549
 51
180.0
  0
LINE
  5
432
330
6F
100
AcDbEntity
  8
UKEZAI
  6
Continuous
100
AcDbLine
 10
619.4412277190012
 20
445.7555691122554
 30
0.0
 11
620.7412277193057
 21
445.7555691122562
 31
0.0
  0
LINE
  5
433
330
6F
100
AcDbEntity
  8
UKEZAI
  6
Continuous
100
AcDbLine
 10
619.4412277190007
 20
438.7555691123014
 30
0.0
 11
620.7537277190007
 21
438.7555691123014
 31
0.0
  0
LINE
  5
434
330
6F
100
AcDbEntity
  8
UKEZAI
  6
Continuous
100
AcDbLine
 10
620.9412277190527
 20
435.7555691123014
 30
0.0
 11
607.7412277190031
 21
435.7555691123014
 31
0.0
  0
ARC
  5
435
330
6F
100
AcDbEntity
  8
UKEZAI
  6
Continuous
100
AcDbCircle
 10
620.7412277193057
 20
445.9555691122571
 30
0.0
 40
0.2
100
AcDbArc
 50
270.0
 51
19.88796430822582
  0
LINE
  5
436
330
6F
100
AcDbEntity
  8
UKEZAI
  6
Continuous
100
AcDbLine
 10
619.3964974244217
 20
450.2607056299102
 30
0.0
 11
620.9292996407517
 21
446.0236055169529
 31
0.0
  0
ARC
  5
437
330
6F
100
AcDbEntity
  8
UKEZAI
  6
Continuous
100
AcDbCircle
 10
609.7412277190032
 20
437.2555691123015
 30
0.0
 40
0.3
100
AcDbArc
 50
0.0
 51
180.0
  0
LINE
  5
438
330
6F
100
AcDbEntity
  8
UKEZAI
  6
Continuous
100
AcDbLine
 10
617.9412277190007
 20
437.2555691123014
 30
0.0
 11
610.0412277190027
 21
437.2555691123014
 31
0.0
  0
LINE
  5
439
330
6F
100
AcDbEntity
  8
UKEZAI
  6
Continuous
100
AcDbLine
 10
609.4412277190027
 20
437.2555691123014
 30
0.0
 11
608.0412277190012
 21
437.2555691123014
 31
0.0
  0
POINT
  5
43A
330
6F
100
AcDbEntity
  8
ANCHOR
  6
Continuous
100
AcDbPoint
 10
592.7412277189411
 20
445.7555691122955
 30
0.0
  0
LINE
  5
43B
330
6F
100
AcDbEntity
  8
COMMENT
  6
Continuous
100
AcDbLine
 10
643.6017264194279
 20
469.3861132526421
 30
0.0
 11
695.9917250842841
 21
469.3861132526421
 31
0.0
  0
TEXT
  5
43C
330
6F
100
AcDbEntity
  8
COMMENT
  6
Continuous
100
AcDbText
 10
646.0917264194281
 20
469.8861132526421
 30
0.0
 40
4.0
  1
ALCアンカーM6めねじ
  7
KNJYOKO
100
AcDbText
  0
TEXT
  5
43D
330
6F
100
AcDbEntity
  8
COMMENT
  6
Continuous
100
AcDbText
 10
646.0917264194279
 20
464.8861132526421
 30
0.0
 40
4.0
  1
AK-AL6M-D18-50
100
AcDbText
  0
DIMENSION
  5
43E
330
6F
100
AcDbEntity
  8
DXF0
  6
Continuous
 62
     3
100
AcDbDimension
280
     0
  2
*D5
 10
592.7412277189412
 20
366.8104966934158
 30
0.0
 11
600.2412277189721
 21
367.3104966934158
 31
0.0
 71
     5
 42
-1.0
 73
     0
 74
     0
 75
     0
  3
Standard
100
AcDbAlignedDimension
 13
607.7412277190031
 23
374.5441334540211
 33
0.0
 14
592.7412277189412
 24
436.7555691122958
 34
0.0
100
AcDbRotatedDimension
  0
DIMENSION
  5
43F
330
6F
100
AcDbEntity
  8
DXF0
  6
Continuous
 62
     3
100
AcDbDimension
280
     0
  2
*D6
 10
607.7412277190031
 20
366.8104966934158
 30
0.0
 11
615.2412277190433
 21
367.3104966934158
 31
0.0
 71
     5
 42
-1.0
 73
     0
 74
     0
 75
     0
  3
Standard
100
AcDbAlignedDimension
 13
622.7412277190836
 23
436.7555691123384
 33
0.0
 14
607.7412277190031
 24
374.5441334540211
 34
0.0
100
AcDbRotatedDimension
  0
LINE
  5
440
330
6F
100
AcDbEntity
  8
WASHER
  6
HIDDEN
100
AcDbLine
 10
239.527372123433
 20
159.836449609626
 30
0.0
 11
239.527372123433
 21
161.8364496096194
 31
0.0
  0
LINE
  5
441
330
6F
100
AcDbEntity
  8
WASHER
  6
HIDDEN
100
AcDbLine
 10
245.9273721234329
 20
159.836449609626
 30
0.0
 11
245.9273721234329
 21
161.8364496096327
 31
0.0
  0
LINE
  5
442
330
6F
100
AcDbEntity
  8
WASHER
  6
Continuous
100
AcDbLine
 10
233.7273721234328
 20
161.8364496096262
 30
0.0
 11
251.7273721234328
 21
161.8364496096262
 31
0.0
  0
LINE
  5
443
330
6F
100
AcDbEntity
  8
WASHER
  6
Continuous
100
AcDbLine
 10
251.7273721234328
 20
159.8364496096262
 30
0.0
 11
251.7273721234328
 21
161.8364496096262
 31
0.0
  0
LINE
  5
444
330
6F
100
AcDbEntity
  8
WASHER
  6
Continuous
100
AcDbLine
 10
233.7273721234328
 20
159.8364496096262
 30
0.0
 11
233.7273721234328
 21
161.8364496096262
 31
0.0
  0
LINE
  5
445
330
6F
100
AcDbEntity
  8
ANCHOR
  6
CENTER
100
AcDbLine
 10
236.7877330595504
 20
168.3364496096094
 30
0.0
 11
218.3387701989775
 21
168.3364496096311
 31
0.0
  0
LINE
  5
446
330
6F
100
AcDbEntity
  8
ANCHOR
  6
HIDDEN
100
AcDbLine
 10
237.2273721245226
 20
170.3364496097163
 30
0.0
 11
227.7273721231938
 21
170.3364496097566
 31
0.0
  0
LINE
  5
447
330
6F
100
AcDbEntity
  8
ANCHOR
  6
HIDDEN
100
AcDbLine
 10
237.2273721250777
 20
166.3364496097163
 30
0.0
 11
227.7273721231782
 21
166.3364496097566
 31
0.0
  0
LINE
  5
448
330
6F
100
AcDbEntity
  8
ANCHOR
  6
HIDDEN
100
AcDbLine
 10
240.1500218552881
 20
169.336449609725
 30
0.0
 11
238.2273721245334
 21
169.3364496097211
 31
0.0
  0
LINE
  5
449
330
6F
100
AcDbEntity
  8
ANCHOR
  6
HIDDEN
100
AcDbLine
 10
240.1500218554841
 20
167.336449609725
 30
0.0
 11
238.2273721250713
 21
167.3364496097211
 31
0.0
  0
LINE
  5
44A
330
6F
100
AcDbEntity
  8
ANCHOR
  6
HIDDEN
100
AcDbLine
 10
240.7273721245754
 20
168.3364496095648
 30
0.0
 11
240.1500218552879
 21
169.3364496097257
 31
0.0
  0
LINE
  5
44B
330
6F
100
AcDbEntity
  8
ANCHOR
  6
HIDDEN
100
AcDbLine
 10
240.1500218554849
 20
167.3364496097265
 30
0.0
 11
240.7273721245766
 21
168.3364496095654
 31
0.0
  0
ARC
  5
44C
330
6F
100
AcDbEntity
  8
ANCHOR
  6
HIDDEN
100
AcDbCircle
 10
238.7273721250808
 20
168.3364496097236
 30
0.0
 40
0.5
100
AcDbArc
 50
97.20679386168658
 51
262.7932061387912
  0
LINE
  5
44D
330
6F
100
AcDbEntity
  8
ANCHOR
  6
HIDDEN
100
AcDbLine
 10
238.6646466886156
 20
167.8403996932624
 30
0.0
 11
240.1500218554839
 21
167.3364496097247
 31
0.0
  0
LINE
  5
44E
330
6F
100
AcDbEntity
  8
ANCHOR
  6
HIDDEN
100
AcDbLine
 10
238.6646466886122
 20
168.8324995261836
 30
0.0
 11
240.1500218552879
 21
169.3364496097256
 31
0.0
  0
LINE
  5
44F
330
6F
100
AcDbEntity
  8
ANCHOR
  6
HIDDEN
100
AcDbLine
 10
238.2273721245319
 20
169.3364496097205
 30
0.0
 11
237.2273721245223
 21
170.336449609718
 31
0.0
  0
LINE
  5
450
330
6F
100
AcDbEntity
  8
ANCHOR
  6
HIDDEN
100
AcDbLine
 10
237.2273721250781
 20
166.3364496097204
 30
0.0
 11
238.2273721250706
 21
167.3364496097205
 31
0.0
  0
LINE
  5
451
330
6F
100
AcDbEntity
  8
ANCHOR
  6
HIDDEN
100
AcDbLine
 10
237.2273721248091
 20
166.3364496097188
 30
0.0
 11
237.2273721247943
 21
170.3364496097188
 31
0.0
  0
LINE
  5
452
330
6F
100
AcDbEntity
  8
ANCHOR
  6
HIDDEN
100
AcDbLine
 10
238.227372124575
 20
167.3364496097191
 30
0.0
 11
238.2273721245657
 21
169.3364496097191
 31
0.0
  0
LINE
  5
453
330
6F
100
AcDbEntity
  8
ANCHOR
  6
HIDDEN
100
AcDbLine
 10
238.0273721250729
 20
167.136449609719
 30
0.0
 11
227.7273721231823
 21
167.1364496097601
 31
0.0
  0
LINE
  5
454
330
6F
100
AcDbEntity
  8
ANCHOR
  6
HIDDEN
100
AcDbLine
 10
238.0273721245318
 20
169.5364496097188
 30
0.0
 11
227.7273721231914
 21
169.5364496097599
 31
0.0
  0
LINE
  5
455
330
6F
100
AcDbEntity
  8
ANCHOR
  6
Continuous
100
AcDbLine
 10
225.7050615420442
 20
168.8346478573492
 30
0.0
 11
225.7050615420447
 21
167.838251361867
 31
0.0
  0
LINE
  5
456
330
6F
100
AcDbEntity
  8
ANCHOR
  6
Continuous
100
AcDbLine
 10
225.7050615420442
 20
168.8346478573495
 30
0.0
 11
225.2273721233696
 21
168.8346478573495
 31
0.0
  0
LINE
  5
457
330
6F
100
AcDbEntity
  8
ANCHOR
  6
Continuous
100
AcDbLine
 10
225.7050615420444
 20
167.8382513618672
 30
0.0
 11
225.2273721233703
 21
167.8382513618672
 31
0.0
  0
LINE
  5
458
330
6F
100
AcDbEntity
  8
ANCHOR
  6
Continuous
100
AcDbLine
 10
227.2273721233866
 20
163.6364496096063
 30
0.0
 11
227.7273721233866
 21
163.6364496096066
 31
0.0
  0
ARC
  5
459
330
6F
100
AcDbEntity
  8
ANCHOR
  6
Continuous
100
AcDbCircle
 10
231.3188375176928
 20
168.1608181762911
 30
0.0
 40
6.099999999999998
100
AcDbArc
 50
183.0312034848472
 51
227.876411461438
  0
LINE
  5
45A
330
6F
100
AcDbEntity
  8
ANCHOR
  6
Continuous
100
AcDbLine
 10
227.2273721233527
 20
173.0364496096083
 30
0.0
 11
227.2273721233875
 21
163.6364496096068
 31
0.0
  0
ARC
  5
45B
330
6F
100
AcDbEntity
  8
ANCHOR
  6
Continuous
100
AcDbCircle
 10
231.3188375176928
 20
168.5120810429287
 30
0.0
 40
6.099999999999998
100
AcDbArc
 50
132.1235885386251
 51
176.9687965152159
  0
LINE
  5
45C
330
6F
100
AcDbEntity
  8
ANCHOR
  6
Continuous
100
AcDbLine
 10
227.7273721233533
 20
173.0364496096096
 30
0.0
 11
227.727372123388
 21
163.6364496096081
 31
0.0
  0
LINE
  5
45D
330
6F
100
AcDbEntity
  8
ANCHOR
  6
Continuous
100
AcDbLine
 10
227.2273721233824
 20
173.0364496096079
 30
0.0
 11
227.7273721233824
 21
173.0364496096083
 31
0.0
  0
LINE
  5
45E
330
6F
100
AcDbEntity
  8
WASHER
  6
Continuous
100
AcDbLine
 10
233.7273721234328
 20
159.8364496096262
 30
0.0
 11
251.7273721234328
 21
159.8364496096262
 31
0.0
  0
LINE
  5
45F
330
6F
100
AcDbEntity
  8
COMMENT
  6
Continuous
100
AcDbLine
 10
225.2273721233695
 20
168.8346478573495
 30
0.0
 11
192.0806277974378
 21
184.900013988638
 31
0.0
  0
LINE
  5
460
330
6F
100
AcDbEntity
  8
COMMENT
  6
Continuous
100
AcDbLine
 10
223.1659328237934
 20
169.1670151884346
 30
0.0
 11
225.2273721233694
 21
168.8346478573494
 31
0.0
  0
LINE
  5
461
330
6F
100
AcDbEntity
  8
COMMENT
  6
Continuous
100
AcDbLine
 10
225.2273721233696
 20
168.8346478573496
 30
0.0
 11
223.689308517596
 21
170.2468661029491
 31
0.0
  0
LINE
  5
462
330
6F
100
AcDbEntity
  8
COMMENT
  6
Continuous
100
AcDbLine
 10
192.080627797438
 20
184.900013988638
 30
0.0
 11
134.2906292756331
 21
184.900013988638
 31
0.0
  0
TEXT
  5
463
330
6F
100
AcDbEntity
  8
COMMENT
  6
Continuous
100
AcDbText
 10
134.2906292756331
 20
185.400013988638
 30
0.0
 40
4.0
  1
脱落防止ねじ(両端2ヶ所)
  7
KNJYOKO
100
AcDbText
  0
TEXT
  5
464
330
6F
100
AcDbEntity
  8
COMMENT
  6
Continuous
100
AcDbText
 10
134.2906292756331
 20
180.400013988638
 30
0.0
 40
4.0
  1
トラス頭ドリルねじ4×13
  7
KNJYOKO
100
AcDbText
  0
TEXT
  5
465
330
6F
100
AcDbEntity
  8
COMMENT
  6
Continuous
100
AcDbText
 10
134.2906292756331
 20
175.400013988638
 30
0.0
 40
4.0
  1
TBT-413-100
100
AcDbText
  0
LINE
  5
466
330
6F
100
AcDbEntity
  8
COMMENT
  6
Continuous
100
AcDbLine
 10
257.8879720846626
 20
197.4637703933269
 30
0.0
 11
270.3958044268371
 21
204.5196761135178
 31
0.0
  0
LINE
  5
467
330
6F
100
AcDbEntity
  8
COMMENT
  6
Continuous
100
AcDbLine
 10
259.3351175425519
 20
198.9690178986631
 30
0.0
 11
257.8879720846627
 21
197.4637703933269
 31
0.0
  0
LINE
  5
468
330
6F
100
AcDbEntity
  8
COMMENT
  6
Continuous
100
AcDbLine
 10
257.8879720846625
 20
197.463770393327
 30
0.0
 11
259.9247160120479
 21
197.9238510415497
 31
0.0
  0
LINE
  5
469
330
6F
100
AcDbEntity
  8
COMMENT
  6
Continuous
100
AcDbLine
 10
270.395804426837
 20
204.5196761135179
 30
0.0
 11
304.7858035685302
 21
204.5196761135179
 31
0.0
  0
TEXT
  5
46A
330
6F
100
AcDbEntity
  8
COMMENT
  6
Continuous
100
AcDbText
 10
272.885804426837
 20
205.0196761135179
 30
0.0
 40
4.0
  1
アルミルーバー
  7
KNJYOKO
100
AcDbText
  0
TEXT
  5
46B
330
6F
100
AcDbEntity
  8
COMMENT
  6
Continuous
100
AcDbText
 10
272.885804426837
 20
200.0196761135179
 30
0.0
 40
4.0
  1
CLKSW-3060
100
AcDbText
  0
LINE
  5
46C
330
6F
100
AcDbEntity
  8
COMMENT
  6
Continuous
100
AcDbLine
 10
252.0473447868658
 20
161.8364496096262
 30
0.0
 11
278.3819580462563
 21
177.2457448603111
 31
0.0
  0
LINE
  5
46D
330
6F
100
AcDbEntity
  8
COMMENT
  6
Continuous
100
AcDbLine
 10
253.4705293237201
 20
163.3643716634853
 30
0.0
 11
252.0473447868658
 21
161.8364496096261
 31
0.0
  0
LINE
  5
46E
330
6F
100
AcDbEntity
  8
COMMENT
  6
Continuous
100
AcDbLine
 10
252.0473447868659
 20
161.8364496096264
 30
0.0
 11
254.0765660461207
 21
162.3286498834968
 31
0.0
  0
LINE
  5
46F
330
6F
100
AcDbEntity
  8
COMMENT
  6
Continuous
100
AcDbLine
 10
278.3819580462564
 20
177.245744860311
 30
0.0
 11
316.3719570925819
 21
177.245744860311
 31
0.0
  0
TEXT
  5
470
330
6F
100
AcDbEntity
  8
COMMENT
  6
Continuous
100
AcDbText
 10
280.8719580462561
 20
177.745744860311
 30
0.0
 40
4.0
  1
平座金　
  7
KNJYOKO
100
AcDbText
  0
TEXT
  5
471
330
6F
100
AcDbEntity
  8
COMMENT
  6
Continuous
100
AcDbText
 10
280.8719580462561
 20
172.745744860311
 30
0.0
 40
4.0
  1
D18mm t2mm
100
AcDbText
  0
ARC
  5
472
330
6F
100
AcDbEntity
  8
UKEZAI
  6
Continuous
100
AcDbCircle
 10
242.7273721234342
 20
159.8364496096261
 30
0.0
 40
0.3
100
AcDbArc
 50
180.0
 51
270.0
  0
LINE
  5
473
330
6F
100
AcDbEntity
  8
UKEZAI
  6
Continuous
100
AcDbLine
 10
231.0273721234339
 20
161.336449609626
 30
0.0
 11
231.0273721234339
 21
168.336449609626
 31
0.0
  0
LINE
  5
474
330
6F
100
AcDbEntity
  8
UKEZAI
  6
Continuous
100
AcDbLine
 10
229.527372123435
 20
160.3364496096258
 30
0.0
 11
229.714872123435
 21
161.3364496096256
 31
0.0
  0
LINE
  5
475
330
6F
100
AcDbEntity
  8
UKEZAI
  6
Continuous
100
AcDbLine
 10
229.5273721233825
 20
158.336449609626
 30
0.0
 11
229.5273721233803
 21
160.3364496093359
 31
0.0
  0
LINE
  5
476
330
6F
100
AcDbEntity
  8
UKEZAI
  6
Continuous
100
AcDbLine
 10
232.5273721234339
 20
159.836449609626
 30
0.0
 11
232.5273721234339
 21
172.586449609626
 31
0.0
  0
ARC
  5
477
330
6F
100
AcDbEntity
  8
UKEZAI
  6
Continuous
100
AcDbCircle
 10
231.7773721234341
 20
172.5864496096261
 30
0.0
 40
0.75
100
AcDbArc
 50
0.0
 51
160.1120356917755
  0
LINE
  5
478
330
6F
100
AcDbEntity
  8
UKEZAI
  6
Continuous
100
AcDbLine
 10
231.0273721234344
 20
168.3364496095809
 30
0.0
 11
229.72737212313
 21
168.3364496095819
 31
0.0
  0
LINE
  5
479
330
6F
100
AcDbEntity
  8
UKEZAI
  6
Continuous
100
AcDbLine
 10
231.0273721234339
 20
161.336449609626
 30
0.0
 11
229.7148721234339
 21
161.336449609626
 31
0.0
  0
LINE
  5
47A
330
6F
100
AcDbEntity
  8
UKEZAI
  6
Continuous
100
AcDbLine
 10
229.5273721233825
 20
158.336449609626
 30
0.0
 11
242.7273721234328
 21
158.336449609626
 31
0.0
  0
ARC
  5
47B
330
6F
100
AcDbEntity
  8
UKEZAI
  6
Continuous
100
AcDbCircle
 10
229.7273721231297
 20
168.5364496095818
 30
0.0
 40
0.2
100
AcDbArc
 50
160.1120356917742
 51
270.0
  0
LINE
  5
47C
330
6F
100
AcDbEntity
  8
UKEZAI
  6
Continuous
100
AcDbLine
 10
231.0721024180148
 20
172.8415861272341
 30
0.0
 11
229.5393002016848
 21
168.6044860142768
 31
0.0
  0
ARC
  5
47D
330
6F
100
AcDbEntity
  8
UKEZAI
  6
Continuous
100
AcDbCircle
 10
240.7273721234328
 20
159.8364496096261
 30
0.0
 40
0.3
100
AcDbArc
 50
0.0
 51
180.0
  0
LINE
  5
47E
330
6F
100
AcDbEntity
  8
UKEZAI
  6
Continuous
100
AcDbLine
 10
232.5273721234339
 20
159.836449609626
 30
0.0
 11
240.4273721234327
 21
159.836449609626
 31
0.0
  0
LINE
  5
47F
330
6F
100
AcDbEntity
  8
UKEZAI
  6
Continuous
100
AcDbLine
 10
241.0273721234326
 20
159.836449609626
 30
0.0
 11
242.4273721234345
 21
159.836449609626
 31
0.0
  0
ARC
  5
480
330
6F
100
AcDbEntity
  8
UKEZAI
  6
Continuous
100
AcDbCircle
 10
242.727372123431
 20
159.8364496096261
 30
0.0
 40
0.3
100
AcDbArc
 50
270.0
 51
0.0
  0
LINE
  5
481
330
6F
100
AcDbEntity
  8
UKEZAI
  6
Continuous
100
AcDbLine
 10
254.4273721234306
 20
161.336449609626
 30
0.0
 11
254.4273721234306
 21
168.336449609626
 31
0.0
  0
LINE
  5
482
330
6F
100
AcDbEntity
  8
UKEZAI
  6
Continuous
100
AcDbLine
 10
255.9273721234308
 20
160.3364496096264
 30
0.0
 11
255.7398721234309
 21
161.3364496096262
 31
0.0
  0
LINE
  5
483
330
6F
100
AcDbEntity
  8
UKEZAI
  6
Continuous
100
AcDbLine
 10
255.9273721234827
 20
158.3364496096256
 30
0.0
 11
255.9273721234849
 21
160.3364496093355
 31
0.0
  0
LINE
  5
484
330
6F
100
AcDbEntity
  8
UKEZAI
  6
Continuous
100
AcDbLine
 10
252.9273721234306
 20
159.836449609626
 30
0.0
 11
252.9273721234306
 21
172.586449609626
 31
0.0
  0
ARC
  5
485
330
6F
100
AcDbEntity
  8
UKEZAI
  6
Continuous
100
AcDbCircle
 10
253.6773721234308
 20
172.5864496096261
 30
0.0
 40
0.75
100
AcDbArc
 50
19.88796430822549
 51
180.0
  0
LINE
  5
486
330
6F
100
AcDbEntity
  8
UKEZAI
  6
Continuous
100
AcDbLine
 10
254.427372123431
 20
168.3364496095801
 30
0.0
 11
255.7273721237354
 21
168.336449609581
 31
0.0
  0
LINE
  5
487
330
6F
100
AcDbEntity
  8
UKEZAI
  6
Continuous
100
AcDbLine
 10
254.4273721234306
 20
161.336449609626
 30
0.0
 11
255.7398721234306
 21
161.336449609626
 31
0.0
  0
LINE
  5
488
330
6F
100
AcDbEntity
  8
UKEZAI
  6
Continuous
100
AcDbLine
 10
255.9273721234825
 20
158.336449609626
 30
0.0
 11
242.7273721234328
 21
158.336449609626
 31
0.0
  0
ARC
  5
489
330
6F
100
AcDbEntity
  8
UKEZAI
  6
Continuous
100
AcDbCircle
 10
255.7273721237352
 20
168.5364496095818
 30
0.0
 40
0.2
100
AcDbArc
 50
270.0
 51
19.88796430822582
  0
LINE
  5
48A
330
6F
100
AcDbEntity
  8
UKEZAI
  6
Continuous
100
AcDbLine
 10
254.3826418288512
 20
172.8415861272346
 30
0.0
 11
255.9154440451812
 21
168.6044860142774
 31
0.0
  0
ARC
  5
48B
330
6F
100
AcDbEntity
  8
UKEZAI
  6
Continuous
100
AcDbCircle
 10
244.7273721234328
 20
159.8364496096261
 30
0.0
 40
0.3
100
AcDbArc
 50
0.0
 51
180.0
  0
LINE
  5
48C
330
6F
100
AcDbEntity
  8
UKEZAI
  6
Continuous
100
AcDbLine
 10
252.9273721234306
 20
159.836449609626
 30
0.0
 11
245.0273721234323
 21
159.836449609626
 31
0.0
  0
LINE
  5
48D
330
6F
100
AcDbEntity
  8
UKEZAI
  6
Continuous
100
AcDbLine
 10
244.4273721234324
 20
159.836449609626
 30
0.0
 11
243.0273721234308
 21
159.836449609626
 31
0.0
  0
POINT
  5
48E
330
6F
100
AcDbEntity
  8
ANCHOR
  6
Continuous
100
AcDbPoint
 10
227.7273721233707
 20
168.3364496096201
 30
0.0
  0
DIMENSION
  5
48F
330
6F
100
AcDbEntity
  8
DXF0
  6
Continuous
 62
     3
100
AcDbDimension
280
     0
  2
*D7
 10
214.0562019761849
 20
158.336449609626
 30
0.0
 11
213.5562019761849
 21
163.3364496096286
 31
0.0
 71
     5
 42
-1.0
 73
     0
 74
     0
 75
     0
  3
Standard
100
AcDbAlignedDimension
 13
218.3387701989773
 23
168.3364496096311
 33
0.0
 14
132.957215493353
 24
158.336449609626
 34
0.0
 50
90.0
100
AcDbRotatedDimension
  0
DIMENSION
  5
490
330
6F
100
AcDbEntity
  8
DXF0
  6
Continuous
 62
     3
100
AcDbDimension
280
     0
  2
*D8
 10
227.7273721233708
 20
115.4831130290865
 30
0.0
 11
235.2273721234018
 21
115.9831130290865
 31
0.0
 71
     5
 42
-1.0
 73
     0
 74
     0
 75
     0
  3
Standard
100
AcDbAlignedDimension
 13
242.7273721234328
 23
171.8068162692732
 33
0.0
 14
227.7273721233708
 24
159.3364496096204
 34
0.0
100
AcDbRotatedDimension
  0
DIMENSION
  5
491
330
6F
100
AcDbEntity
  8
DXF0
  6
Continuous
 62
     3
100
AcDbDimension
280
     0
  2
*D9
 10
242.7273721234328
 20
115.4831130290865
 30
0.0
 11
250.2273721234729
 21
115.9831130290865
 31
0.0
 71
     5
 42
-1.0
 73
     0
 74
     0
 75
     0
  3
Standard
100
AcDbAlignedDimension
 13
257.7273721235131
 23
159.3364496096631
 33
0.0
 14
242.7273721234328
 24
171.8068162692732
 34
0.0
100
AcDbRotatedDimension
  0
LINE
  5
492
330
6F
100
AcDbEntity
  8
WASHER
  6
HIDDEN
100
AcDbLine
 10
604.5412277190032
 20
158.3364496096264
 30
0.0
 11
604.5412277190032
 21
160.3364496096198
 31
0.0
  0
LINE
  5
493
330
6F
100
AcDbEntity
  8
WASHER
  6
HIDDEN
100
AcDbLine
 10
610.9412277190028
 20
158.3364496096264
 30
0.0
 11
610.9412277190028
 21
160.3364496096331
 31
0.0
  0
LINE
  5
494
330
6F
100
AcDbEntity
  8
WASHER
  6
Continuous
100
AcDbLine
 10
598.7412277190031
 20
160.3364496096266
 30
0.0
 11
616.7412277190031
 21
160.3364496096266
 31
0.0
  0
LINE
  5
495
330
6F
100
AcDbEntity
  8
WASHER
  6
Continuous
100
AcDbLine
 10
616.7412277190031
 20
158.3364496096266
 30
0.0
 11
616.7412277190031
 21
160.3364496096266
 31
0.0
  0
LINE
  5
496
330
6F
100
AcDbEntity
  8
WASHER
  6
Continuous
100
AcDbLine
 10
598.7412277190031
 20
158.3364496096266
 30
0.0
 11
598.7412277190031
 21
160.3364496096266
 31
0.0
  0
LINE
  5
497
330
6F
100
AcDbEntity
  8
ANCHOR
  6
CENTER
100
AcDbLine
 10
601.8015886551207
 20
166.8364496096098
 30
0.0
 11
583.3526257945477
 21
166.8364496096316
 31
0.0
  0
LINE
  5
498
330
6F
100
AcDbEntity
  8
ANCHOR
  6
HIDDEN
100
AcDbLine
 10
602.2412277200928
 20
168.8364496097167
 30
0.0
 11
592.7412277187642
 21
168.8364496097571
 31
0.0
  0
LINE
  5
499
330
6F
100
AcDbEntity
  8
ANCHOR
  6
HIDDEN
100
AcDbLine
 10
602.241227720648
 20
164.8364496097167
 30
0.0
 11
592.7412277187483
 21
164.8364496097571
 31
0.0
  0
LINE
  5
49A
330
6F
100
AcDbEntity
  8
ANCHOR
  6
HIDDEN
100
AcDbLine
 10
605.1638774508586
 20
167.8364496097254
 30
0.0
 11
603.2412277201038
 21
167.8364496097215
 31
0.0
  0
LINE
  5
49B
330
6F
100
AcDbEntity
  8
ANCHOR
  6
HIDDEN
100
AcDbLine
 10
605.1638774510545
 20
165.8364496097254
 30
0.0
 11
603.2412277206415
 21
165.8364496097215
 31
0.0
  0
LINE
  5
49C
330
6F
100
AcDbEntity
  8
ANCHOR
  6
HIDDEN
100
AcDbLine
 10
605.7412277201454
 20
166.8364496095652
 30
0.0
 11
605.1638774508578
 21
167.8364496097261
 31
0.0
  0
LINE
  5
49D
330
6F
100
AcDbEntity
  8
ANCHOR
  6
HIDDEN
100
AcDbLine
 10
605.163877451055
 20
165.8364496097269
 30
0.0
 11
605.7412277201467
 21
166.8364496095659
 31
0.0
  0
ARC
  5
49E
330
6F
100
AcDbEntity
  8
ANCHOR
  6
HIDDEN
100
AcDbCircle
 10
603.7412277206513
 20
166.836449609724
 30
0.0
 40
0.5
100
AcDbArc
 50
97.20679386168658
 51
262.7932061387912
  0
LINE
  5
49F
330
6F
100
AcDbEntity
  8
ANCHOR
  6
HIDDEN
100
AcDbLine
 10
603.6785022841857
 20
166.3403996932628
 30
0.0
 11
605.1638774510542
 21
165.8364496097251
 31
0.0
  0
LINE
  5
4A0
330
6F
100
AcDbEntity
  8
ANCHOR
  6
HIDDEN
100
AcDbLine
 10
603.6785022841824
 20
167.332499526184
 30
0.0
 11
605.1638774508582
 21
167.836449609726
 31
0.0
  0
LINE
  5
4A1
330
6F
100
AcDbEntity
  8
ANCHOR
  6
HIDDEN
100
AcDbLine
 10
603.2412277201022
 20
167.8364496097209
 30
0.0
 11
602.2412277200926
 21
168.8364496097184
 31
0.0
  0
LINE
  5
4A2
330
6F
100
AcDbEntity
  8
ANCHOR
  6
HIDDEN
100
AcDbLine
 10
602.2412277206487
 20
164.8364496097206
 30
0.0
 11
603.241227720641
 21
165.8364496097209
 31
0.0
  0
LINE
  5
4A3
330
6F
100
AcDbEntity
  8
ANCHOR
  6
HIDDEN
100
AcDbLine
 10
602.2412277203796
 20
164.8364496097192
 30
0.0
 11
602.2412277203648
 21
168.8364496097191
 31
0.0
  0
LINE
  5
4A4
330
6F
100
AcDbEntity
  8
ANCHOR
  6
HIDDEN
100
AcDbLine
 10
603.2412277201452
 20
165.8364496097194
 30
0.0
 11
603.241227720136
 21
167.8364496097194
 31
0.0
  0
LINE
  5
4A5
330
6F
100
AcDbEntity
  8
ANCHOR
  6
HIDDEN
100
AcDbLine
 10
603.0412277206432
 20
165.6364496097195
 30
0.0
 11
592.7412277187523
 21
165.6364496097606
 31
0.0
  0
LINE
  5
4A6
330
6F
100
AcDbEntity
  8
ANCHOR
  6
HIDDEN
100
AcDbLine
 10
603.0412277201017
 20
168.0364496097191
 30
0.0
 11
592.7412277187616
 21
168.0364496097603
 31
0.0
  0
LINE
  5
4A7
330
6F
100
AcDbEntity
  8
ANCHOR
  6
Continuous
100
AcDbLine
 10
590.7189171376142
 20
167.3346478573496
 30
0.0
 11
590.7189171376147
 21
166.3382513618673
 31
0.0
  0
LINE
  5
4A8
330
6F
100
AcDbEntity
  8
ANCHOR
  6
Continuous
100
AcDbLine
 10
590.7189171376142
 20
167.3346478573499
 30
0.0
 11
590.2412277189398
 21
167.3346478573499
 31
0.0
  0
LINE
  5
4A9
330
6F
100
AcDbEntity
  8
ANCHOR
  6
Continuous
100
AcDbLine
 10
590.7189171376147
 20
166.3382513618676
 30
0.0
 11
590.2412277189402
 21
166.3382513618676
 31
0.0
  0
LINE
  5
4AA
330
6F
100
AcDbEntity
  8
ANCHOR
  6
Continuous
100
AcDbLine
 10
592.2412277189567
 20
162.1364496096066
 30
0.0
 11
592.7412277189567
 21
162.1364496096069
 31
0.0
  0
ARC
  5
4AB
330
6F
100
AcDbEntity
  8
ANCHOR
  6
Continuous
100
AcDbCircle
 10
596.332693113263
 20
166.6608181762915
 30
0.0
 40
6.099999999999998
100
AcDbArc
 50
183.0312034848472
 51
227.876411461438
  0
LINE
  5
4AC
330
6F
100
AcDbEntity
  8
ANCHOR
  6
Continuous
100
AcDbLine
 10
592.241227718923
 20
171.5364496096087
 30
0.0
 11
592.2412277189577
 21
162.1364496096072
 31
0.0
  0
ARC
  5
4AD
330
6F
100
AcDbEntity
  8
ANCHOR
  6
Continuous
100
AcDbCircle
 10
596.332693113263
 20
167.0120810429291
 30
0.0
 40
6.099999999999998
100
AcDbArc
 50
132.1235885386251
 51
176.9687965152159
  0
LINE
  5
4AE
330
6F
100
AcDbEntity
  8
ANCHOR
  6
Continuous
100
AcDbLine
 10
592.7412277189232
 20
171.53644960961
 30
0.0
 11
592.7412277189579
 21
162.1364496096085
 31
0.0
  0
LINE
  5
4AF
330
6F
100
AcDbEntity
  8
ANCHOR
  6
Continuous
100
AcDbLine
 10
592.2412277189526
 20
171.5364496096083
 30
0.0
 11
592.7412277189525
 21
171.5364496096087
 31
0.0
  0
LINE
  5
4B0
330
6F
100
AcDbEntity
  8
WASHER
  6
Continuous
100
AcDbLine
 10
598.7412277190031
 20
158.3364496096266
 30
0.0
 11
616.7412277190031
 21
158.3364496096266
 31
0.0
  0
LINE
  5
4B1
330
6F
100
AcDbEntity
  8
COMMENT
  6
Continuous
100
AcDbLine
 10
590.2412277189396
 20
167.3346478573498
 30
0.0
 11
557.0944833930078
 21
183.4000139886384
 31
0.0
  0
LINE
  5
4B2
330
6F
100
AcDbEntity
  8
COMMENT
  6
Continuous
100
AcDbLine
 10
588.1797884193638
 20
167.6670151884351
 30
0.0
 11
590.2412277189397
 21
167.3346478573498
 31
0.0
  0
LINE
  5
4B3
330
6F
100
AcDbEntity
  8
COMMENT
  6
Continuous
100
AcDbLine
 10
590.2412277189397
 20
167.3346478573501
 30
0.0
 11
588.7031641131662
 21
168.7468661029496
 31
0.0
  0
LINE
  5
4B4
330
6F
100
AcDbEntity
  8
COMMENT
  6
Continuous
100
AcDbLine
 10
557.0944833930083
 20
183.4000139886384
 30
0.0
 11
499.3044848712034
 21
183.4000139886384
 31
0.0
  0
TEXT
  5
4B5
330
6F
100
AcDbEntity
  8
COMMENT
  6
Continuous
100
AcDbText
 10
499.3044848712034
 20
183.9000139886384
 30
0.0
 40
4.0
  1
脱落防止ねじ(両端2ヶ所)
  7
KNJYOKO
100
AcDbText
  0
TEXT
  5
4B6
330
6F
100
AcDbEntity
  8
COMMENT
  6
Continuous
100
AcDbText
 10
499.3044848712034
 20
178.9000139886384
 30
0.0
 40
4.0
  1
トラス頭ドリルねじ4×13
  7
KNJYOKO
100
AcDbText
  0
TEXT
  5
4B7
330
6F
100
AcDbEntity
  8
COMMENT
  6
Continuous
100
AcDbText
 10
499.3044848712034
 20
173.9000139886384
 30
0.0
 40
4.0
  1
TBT-413-100
100
AcDbText
  0
LINE
  5
4B8
330
6F
100
AcDbEntity
  8
COMMENT
  6
Continuous
100
AcDbLine
 10
622.9018276802328
 20
195.9637703933273
 30
0.0
 11
635.4096600224072
 21
203.0196761135182
 31
0.0
  0
LINE
  5
4B9
330
6F
100
AcDbEntity
  8
COMMENT
  6
Continuous
100
AcDbLine
 10
624.3489731381222
 20
197.4690178986637
 30
0.0
 11
622.9018276802332
 21
195.9637703933274
 31
0.0
  0
LINE
  5
4BA
330
6F
100
AcDbEntity
  8
COMMENT
  6
Continuous
100
AcDbLine
 10
622.9018276802328
 20
195.9637703933273
 30
0.0
 11
624.9385716076182
 21
196.4238510415501
 31
0.0
  0
LINE
  5
4BB
330
6F
100
AcDbEntity
  8
COMMENT
  6
Continuous
100
AcDbLine
 10
635.4096600224074
 20
203.0196761135183
 30
0.0
 11
669.7996591641002
 21
203.0196761135183
 31
0.0
  0
TEXT
  5
4BC
330
6F
100
AcDbEntity
  8
COMMENT
  6
Continuous
100
AcDbText
 10
637.8996600224071
 20
203.5196761135183
 30
0.0
 40
4.0
  1
アルミルーバー
  7
KNJYOKO
100
AcDbText
  0
TEXT
  5
4BD
330
6F
100
AcDbEntity
  8
COMMENT
  6
Continuous
100
AcDbText
 10
637.8996600224071
 20
198.5196761135183
 30
0.0
 40
4.0
  1
CLKSW-3060
100
AcDbText
  0
LINE
  5
4BE
330
6F
100
AcDbEntity
  8
COMMENT
  6
Continuous
100
AcDbLine
 10
617.0612003824359
 20
160.3364496096266
 30
0.0
 11
643.3958136418265
 21
175.7457448603114
 31
0.0
  0
LINE
  5
4BF
330
6F
100
AcDbEntity
  8
COMMENT
  6
Continuous
100
AcDbLine
 10
618.4843849192905
 20
161.8643716634857
 30
0.0
 11
617.0612003824362
 21
160.3364496096266
 31
0.0
  0
LINE
  5
4C0
330
6F
100
AcDbEntity
  8
COMMENT
  6
Continuous
100
AcDbLine
 10
617.0612003824361
 20
160.3364496096267
 30
0.0
 11
619.0904216416909
 21
160.8286498834972
 31
0.0
  0
LINE
  5
4C1
330
6F
100
AcDbEntity
  8
COMMENT
  6
Continuous
100
AcDbLine
 10
643.3958136418267
 20
175.7457448603114
 30
0.0
 11
681.3858126881521
 21
175.7457448603114
 31
0.0
  0
TEXT
  5
4C2
330
6F
100
AcDbEntity
  8
COMMENT
  6
Continuous
100
AcDbText
 10
645.8858136418265
 20
176.2457448603114
 30
0.0
 40
4.0
  1
平座金　
  7
KNJYOKO
100
AcDbText
  0
TEXT
  5
4C3
330
6F
100
AcDbEntity
  8
COMMENT
  6
Continuous
100
AcDbText
 10
645.8858136418265
 20
171.2457448603114
 30
0.0
 40
4.0
  1
D18mm t2mm
100
AcDbText
  0
ARC
  5
4C4
330
6F
100
AcDbEntity
  8
UKEZAI
  6
Continuous
100
AcDbCircle
 10
607.7412277190045
 20
158.3364496096265
 30
0.0
 40
0.3
100
AcDbArc
 50
180.0
 51
270.0
  0
LINE
  5
4C5
330
6F
100
AcDbEntity
  8
UKEZAI
  6
Continuous
100
AcDbLine
 10
596.0412277190043
 20
159.8364496096264
 30
0.0
 11
596.0412277190043
 21
166.8364496096264
 31
0.0
  0
LINE
  5
4C6
330
6F
100
AcDbEntity
  8
UKEZAI
  6
Continuous
100
AcDbLine
 10
594.5412277190054
 20
158.8364496096262
 30
0.0
 11
594.7287277190054
 21
159.8364496096261
 31
0.0
  0
LINE
  5
4C7
330
6F
100
AcDbEntity
  8
UKEZAI
  6
Continuous
100
AcDbLine
 10
594.5412277189527
 20
156.8364496096264
 30
0.0
 11
594.5412277189502
 21
158.8364496093363
 31
0.0
  0
LINE
  5
4C8
330
6F
100
AcDbEntity
  8
UKEZAI
  6
Continuous
100
AcDbLine
 10
597.5412277190042
 20
158.3364496096264
 30
0.0
 11
597.5412277190042
 21
171.0864496096264
 31
0.0
  0
ARC
  5
4C9
330
6F
100
AcDbEntity
  8
UKEZAI
  6
Continuous
100
AcDbCircle
 10
596.7912277190042
 20
171.0864496096265
 30
0.0
 40
0.75
100
AcDbArc
 50
0.0
 51
160.1120356917755
  0
LINE
  5
4CA
330
6F
100
AcDbEntity
  8
UKEZAI
  6
Continuous
100
AcDbLine
 10
596.0412277190044
 20
166.8364496095813
 30
0.0
 11
594.7412277187002
 21
166.8364496095823
 31
0.0
  0
LINE
  5
4CB
330
6F
100
AcDbEntity
  8
UKEZAI
  6
Continuous
100
AcDbLine
 10
596.0412277190043
 20
159.8364496096264
 30
0.0
 11
594.7287277190042
 21
159.8364496096264
 31
0.0
  0
LINE
  5
4CC
330
6F
100
AcDbEntity
  8
UKEZAI
  6
Continuous
100
AcDbLine
 10
594.5412277189527
 20
156.8364496096264
 30
0.0
 11
607.7412277190031
 21
156.8364496096264
 31
0.0
  0
ARC
  5
4CD
330
6F
100
AcDbEntity
  8
UKEZAI
  6
Continuous
100
AcDbCircle
 10
594.7412277186997
 20
167.0364496095822
 30
0.0
 40
0.2
100
AcDbArc
 50
160.1120356917742
 51
270.0
  0
LINE
  5
4CE
330
6F
100
AcDbEntity
  8
UKEZAI
  6
Continuous
100
AcDbLine
 10
596.085958013585
 20
171.3415861272345
 30
0.0
 11
594.553155797255
 21
167.1044860142772
 31
0.0
  0
ARC
  5
4CF
330
6F
100
AcDbEntity
  8
UKEZAI
  6
Continuous
100
AcDbCircle
 10
605.7412277190032
 20
158.3364496096265
 30
0.0
 40
0.3
100
AcDbArc
 50
0.0
 51
180.0
  0
LINE
  5
4D0
330
6F
100
AcDbEntity
  8
UKEZAI
  6
Continuous
100
AcDbLine
 10
597.5412277190042
 20
158.3364496096264
 30
0.0
 11
605.4412277190029
 21
158.3364496096264
 31
0.0
  0
LINE
  5
4D1
330
6F
100
AcDbEntity
  8
UKEZAI
  6
Continuous
100
AcDbLine
 10
606.0412277190027
 20
158.3364496096264
 30
0.0
 11
607.4412277190047
 21
158.3364496096264
 31
0.0
  0
ARC
  5
4D2
330
6F
100
AcDbEntity
  8
UKEZAI
  6
Continuous
100
AcDbCircle
 10
607.7412277190012
 20
158.3364496096265
 30
0.0
 40
0.3
100
AcDbArc
 50
270.0
 51
0.0
  0
LINE
  5
4D3
330
6F
100
AcDbEntity
  8
UKEZAI
  6
Continuous
100
AcDbLine
 10
619.4412277190012
 20
159.8364496096264
 30
0.0
 11
619.4412277190012
 21
166.8364496096264
 31
0.0
  0
LINE
  5
4D4
330
6F
100
AcDbEntity
  8
UKEZAI
  6
Continuous
100
AcDbLine
 10
620.9412277190007
 20
158.8364496096268
 30
0.0
 11
620.7537277190007
 21
159.8364496096267
 31
0.0
  0
LINE
  5
4D5
330
6F
100
AcDbEntity
  8
UKEZAI
  6
Continuous
100
AcDbLine
 10
620.9412277190529
 20
156.8364496096261
 30
0.0
 11
620.941227719055
 21
158.8364496093359
 31
0.0
  0
LINE
  5
4D6
330
6F
100
AcDbEntity
  8
UKEZAI
  6
Continuous
100
AcDbLine
 10
617.9412277190011
 20
158.3364496096264
 30
0.0
 11
617.9412277190011
 21
171.0864496096264
 31
0.0
  0
ARC
  5
4D7
330
6F
100
AcDbEntity
  8
UKEZAI
  6
Continuous
100
AcDbCircle
 10
618.6912277190012
 20
171.0864496096265
 30
0.0
 40
0.75
100
AcDbArc
 50
19.88796430822549
 51
180.0
  0
LINE
  5
4D8
330
6F
100
AcDbEntity
  8
UKEZAI
  6
Continuous
100
AcDbLine
 10
619.4412277190012
 20
166.8364496095805
 30
0.0
 11
620.7412277193057
 21
166.8364496095815
 31
0.0
  0
LINE
  5
4D9
330
6F
100
AcDbEntity
  8
UKEZAI
  6
Continuous
100
AcDbLine
 10
619.4412277190012
 20
159.8364496096264
 30
0.0
 11
620.7537277190011
 21
159.8364496096264
 31
0.0
  0
LINE
  5
4DA
330
6F
100
AcDbEntity
  8
UKEZAI
  6
Continuous
100
AcDbLine
 10
620.9412277190529
 20
156.8364496096264
 30
0.0
 11
607.7412277190031
 21
156.8364496096264
 31
0.0
  0
ARC
  5
4DB
330
6F
100
AcDbEntity
  8
UKEZAI
  6
Continuous
100
AcDbCircle
 10
620.7412277193057
 20
167.0364496095822
 30
0.0
 40
0.2
100
AcDbArc
 50
270.0
 51
19.88796430822582
  0
LINE
  5
4DC
330
6F
100
AcDbEntity
  8
UKEZAI
  6
Continuous
100
AcDbLine
 10
619.3964974244213
 20
171.341586127235
 30
0.0
 11
620.9292996407513
 21
167.1044860142778
 31
0.0
  0
ARC
  5
4DD
330
6F
100
AcDbEntity
  8
UKEZAI
  6
Continuous
100
AcDbCircle
 10
609.7412277190032
 20
158.3364496096265
 30
0.0
 40
0.3
100
AcDbArc
 50
0.0
 51
180.0
  0
LINE
  5
4DE
330
6F
100
AcDbEntity
  8
UKEZAI
  6
Continuous
100
AcDbLine
 10
617.9412277190011
 20
158.3364496096264
 30
0.0
 11
610.0412277190027
 21
158.3364496096264
 31
0.0
  0
LINE
  5
4DF
330
6F
100
AcDbEntity
  8
UKEZAI
  6
Continuous
100
AcDbLine
 10
609.4412277190029
 20
158.3364496096264
 30
0.0
 11
608.0412277190008
 21
158.3364496096264
 31
0.0
  0
POINT
  5
4E0
330
6F
100
AcDbEntity
  8
ANCHOR
  6
Continuous
100
AcDbPoint
 10
592.7412277189407
 20
166.8364496096205
 30
0.0
  0
DIMENSION
  5
4E1
330
6F
100
AcDbEntity
  8
DXF0
  6
Continuous
 62
     3
100
AcDbDimension
280
     0
  2
*D10
 10
579.070057571755
 20
156.8364496096264
 30
0.0
 11
578.570057571755
 21
161.836449609629
 31
0.0
 71
     5
 42
-1.0
 73
     0
 74
     0
 75
     0
  3
Standard
100
AcDbAlignedDimension
 13
583.3526257945476
 23
166.8364496096315
 33
0.0
 14
497.9710710889233
 24
156.8364496096264
 34
0.0
 50
90.0
100
AcDbRotatedDimension
  0
DIMENSION
  5
4E2
330
6F
100
AcDbEntity
  8
DXF0
  6
Continuous
 62
     3
100
AcDbDimension
280
     0
  2
*D11
 10
592.7412277189412
 20
115.4831130290865
 30
0.0
 11
600.2412277189721
 21
115.9831130290865
 31
0.0
 71
     5
 42
-1.0
 73
     0
 74
     0
 75
     0
  3
Standard
100
AcDbAlignedDimension
 13
607.7412277190031
 23
114.6259139050352
 33
0.0
 14
592.7412277189412
 24
157.8364496096208
 34
0.0
100
AcDbRotatedDimension
  0
DIMENSION
  5
4E3
330
6F
100
AcDbEntity
  8
DXF0
  6
Continuous
 62
     3
100
AcDbDimension
280
     0
  2
*D12
 10
607.7412277190031
 20
115.4831130290865
 30
0.0
 11
615.2412277190433
 21
115.9831130290865
 31
0.0
 71
     5
 42
-1.0
 73
     0
 74
     0
 75
     0
  3
Standard
100
AcDbAlignedDimension
 13
622.7412277190836
 23
157.8364496096636
 33
0.0
 14
607.7412277190031
 24
114.6259139050352
 34
0.0
100
AcDbRotatedDimension
  0
LINE
  5
4E4
330
6F
100
AcDbEntity
  8
LOUVER
  6
Continuous
100
AcDbLine
 10
227.727372123391
 20
421.7555691120513
 30
0.0
 11
229.5273721232712
 21
421.7555691120518
 31
0.0
  0
LINE
  5
4E5
330
6F
100
AcDbEntity
  8
LOUVER
  6
Continuous
100
AcDbLine
 10
257.7273721233357
 20
421.7555691120511
 30
0.0
 11
255.9273721234858
 21
421.7555691120517
 31
0.0
  0
LINE
  5
4E6
330
6F
100
AcDbEntity
  8
LOUVER
  6
Continuous
100
AcDbLine
 10
255.9273721234857
 20
421.7555691120518
 30
0.0
 11
255.9273721234869
 21
426.7555691117264
 31
0.0
  0
LINE
  5
4E7
330
6F
100
AcDbEntity
  8
LOUVER
  6
Continuous
100
AcDbLine
 10
256.4273721234317
 20
435.755569112039
 30
0.0
 11
252.7273721234314
 21
435.7555691120402
 31
0.0
  0
LINE
  5
4E8
330
6F
100
AcDbEntity
  8
LOUVER
  6
Continuous
100
AcDbLine
 10
252.4273721234317
 20
436.0555691120402
 30
0.0
 11
252.4273721234317
 21
436.4555691120403
 31
0.0
  0
LINE
  5
4E9
330
6F
100
AcDbEntity
  8
LOUVER
  6
Continuous
100
AcDbLine
 10
229.5273721232713
 20
421.7555691120518
 30
0.0
 11
229.5273721232755
 21
426.7555691117398
 31
0.0
  0
LINE
  5
4EA
330
6F
100
AcDbEntity
  8
LOUVER
  6
Continuous
100
AcDbLine
 10
229.0273721233412
 20
435.7555691120541
 30
0.0
 11
232.7273721233414
 21
435.7555691120511
 31
0.0
  0
LINE
  5
4EB
330
6F
100
AcDbEntity
  8
LOUVER
  6
Continuous
100
AcDbLine
 10
233.0273721233415
 20
436.0555691120509
 30
0.0
 11
233.0273721233419
 21
436.4555691120507
 31
0.0
  0
LINE
  5
4EC
330
6F
100
AcDbEntity
  8
LOUVER
  6
Continuous
100
AcDbLine
 10
255.327372123433
 20
459.5555691120248
 30
0.0
 11
230.1273721233693
 21
459.5555691120527
 31
0.0
  0
LINE
  5
4ED
330
6F
100
AcDbEntity
  8
LOUVER
  6
Continuous
100
AcDbLine
 10
242.7273721234107
 20
479.355569112038
 30
0.0
 11
256.3273721234318
 21
479.355569112038
 31
0.0
  0
ARC
  5
4EE
330
6F
100
AcDbEntity
  8
LOUVER
  6
Continuous
100
AcDbCircle
 10
252.7273721234317
 20
436.0555691120402
 30
0.0
 40
0.3
100
AcDbArc
 50
180.0
 51
270.0
  0
ARC
  5
4EF
330
6F
100
AcDbEntity
  8
LOUVER
  6
Continuous
100
AcDbCircle
 10
232.7273721233416
 20
436.0555691120513
 30
0.0
 40
0.3
100
AcDbArc
 50
270.0
 51
0.0
  0
LINE
  5
4F0
330
6F
100
AcDbEntity
  8
LOUVER
  6
Continuous
100
AcDbLine
 10
229.0273721233353
 20
430.5555691120375
 30
0.0
 11
229.0273721233411
 21
435.7555691120546
 31
0.0
  0
LINE
  5
4F1
330
6F
100
AcDbEntity
  8
LOUVER
  6
Continuous
100
AcDbLine
 10
256.4273721234316
 20
430.5555691120221
 30
0.0
 11
256.4273721234316
 21
435.7555691120392
 31
0.0
  0
LINE
  5
4F2
330
6F
100
AcDbEntity
  8
LOUVER
  6
Continuous
100
AcDbLine
 10
256.3273721234372
 20
436.7555691120392
 30
0.0
 11
252.7273721234313
 21
436.7555691120403
 31
0.0
  0
ARC
  5
4F3
330
6F
100
AcDbEntity
  8
LOUVER
  6
Continuous
100
AcDbCircle
 10
252.7273721234317
 20
436.4555691120403
 30
0.0
 40
0.3
100
AcDbArc
 50
90.0
 51
180.0
  0
LINE
  5
4F4
330
6F
100
AcDbEntity
  8
LOUVER
  6
Continuous
100
AcDbLine
 10
229.1273721233679
 20
436.7555691120542
 30
0.0
 11
232.7273721233423
 21
436.7555691120514
 31
0.0
  0
ARC
  5
4F5
330
6F
100
AcDbEntity
  8
LOUVER
  6
Continuous
100
AcDbCircle
 10
232.7273721233421
 20
436.4555691120511
 30
0.0
 40
0.3
100
AcDbArc
 50
0.0
 51
90.0
  0
LINE
  5
4F6
330
6F
100
AcDbEntity
  8
LOUVER
  6
Continuous
100
AcDbLine
 10
229.1273721233686
 20
460.7555691120818
 30
0.0
 11
229.1273721233893
 21
479.355569112053
 31
0.0
  0
LINE
  5
4F7
330
6F
100
AcDbEntity
  8
LOUVER
  6
Continuous
100
AcDbLine
 10
256.3273721234317
 20
460.7555691120701
 30
0.0
 11
256.3273721234318
 21
479.355569112038
 31
0.0
  0
LINE
  5
4F8
330
6F
100
AcDbEntity
  8
LOUVER
  6
Continuous
100
AcDbLine
 10
256.3273721234325
 20
458.5555691120246
 30
0.0
 11
256.3273721234377
 21
436.7555691120386
 31
0.0
  0
LINE
  5
4F9
330
6F
100
AcDbEntity
  8
LOUVER
  6
Continuous
100
AcDbLine
 10
229.1273721233684
 20
458.5555691120524
 30
0.0
 11
229.1273721233674
 21
436.7555691120385
 31
0.0
  0
LINE
  5
4FA
330
6F
100
AcDbEntity
  8
LOUVER
  6
Continuous
100
AcDbLine
 10
242.7273721234106
 20
479.355569112038
 30
0.0
 11
229.1273721233895
 21
479.3555691120531
 31
0.0
  0
ARC
  5
4FB
330
6F
100
AcDbEntity
  8
LOUVER
  6
Continuous
100
AcDbCircle
 10
255.3273721234325
 20
458.5555691120243
 30
0.0
 40
1.0
100
AcDbArc
 50
0.0
 51
90.0
  0
ARC
  5
4FC
330
6F
100
AcDbEntity
  8
LOUVER
  6
Continuous
100
AcDbCircle
 10
230.1273721233686
 20
458.5555691120521
 30
0.0
 40
1.0
100
AcDbArc
 50
90.0
 51
180.0
  0
LINE
  5
4FD
330
6F
100
AcDbEntity
  8
LOUVER
  6
Continuous
100
AcDbLine
 10
246.0844541897326
 20
460.7555691120701
 30
0.0
 11
256.3273721234317
 21
460.7555691120701
 31
0.0
  0
LINE
  5
4FE
330
6F
100
AcDbEntity
  8
LOUVER
  6
Continuous
100
AcDbLine
 10
239.3702900570658
 20
460.7555691120818
 30
0.0
 11
229.1273721233687
 21
460.7555691120818
 31
0.0
  0
LINE
  5
4FF
330
6F
100
AcDbEntity
  8
LOUVER
  6
Continuous
100
AcDbLine
 10
229.8273721232783
 20
430.5555691120366
 30
0.0
 11
229.0273721233352
 21
430.5555691120375
 31
0.0
  0
LINE
  5
500
330
6F
100
AcDbEntity
  8
LOUVER
  6
Continuous
100
AcDbLine
 10
255.6273721234888
 20
430.5555691120217
 30
0.0
 11
256.4273721234319
 21
430.5555691120217
 31
0.0
  0
ARC
  5
501
330
6F
100
AcDbEntity
  8
LOUVER
  6
Continuous
100
AcDbCircle
 10
229.8273721232783
 20
430.3555691120362
 30
0.0
 40
0.2
100
AcDbArc
 50
352.062631914609
 51
90.0
  0
LINE
  5
502
330
6F
100
AcDbEntity
  8
LOUVER
  6
Continuous
100
AcDbLine
 10
229.5273721232751
 20
426.7555691117395
 30
0.0
 11
230.0254560456347
 21
430.3279510073973
 31
0.0
  0
ARC
  5
503
330
6F
100
AcDbEntity
  8
LOUVER
  6
Continuous
100
AcDbCircle
 10
255.6273721234886
 20
430.3555691120218
 30
0.0
 40
0.2
100
AcDbArc
 50
89.99999999993649
 51
187.9373680853275
  0
LINE
  5
504
330
6F
100
AcDbEntity
  8
LOUVER
  6
Continuous
100
AcDbLine
 10
255.9273721234875
 20
426.7555691117247
 30
0.0
 11
255.429288201132
 21
430.3279510073833
 31
0.0
  0
LINE
  5
505
330
6F
100
AcDbEntity
  8
LOUVER
  6
DASHED
100
AcDbLine
 10
257.7273721232851
 20
480.7555691120547
 30
0.0
 11
227.727372123391
 21
480.7555691120547
 31
0.0
  0
LINE
  5
506
330
6F
100
AcDbEntity
  8
LOUVER
  6
DASHED
100
AcDbLine
 10
227.727372123391
 20
480.7555691120547
 30
0.0
 11
227.727372123391
 21
421.7555691120513
 31
0.0
  0
LINE
  5
507
330
6F
100
AcDbEntity
  8
LOUVER
  6
DASHED
100
AcDbLine
 10
257.7273721233361
 20
421.7555691120513
 30
0.0
 11
257.7273721233361
 21
480.7555691120547
 31
0.0
  0
POINT
  5
508
330
6F
100
AcDbEntity
  8
LOUVER
  6
Continuous
100
AcDbPoint
 10
242.7273721234017
 20
462.5555691120383
 30
0.0
  0
ARC
  5
509
330
6F
100
AcDbEntity
  8
LOUVER
  6
Continuous
100
AcDbCircle
 10
240.9273721232269
 20
464.2176461257088
 30
0.0
 40
0.6500000000000014
100
AcDbArc
 50
317.2813554916331
 51
137.2813554916332
  0
ARC
  5
50A
330
6F
100
AcDbEntity
  8
LOUVER
  6
Continuous
100
AcDbCircle
 10
244.5273721230408
 20
464.2176461262883
 30
0.0
 40
0.6500000000000048
100
AcDbArc
 50
42.7186445268103
 51
222.7186445268103
  0
ARC
  5
50B
330
6F
100
AcDbEntity
  8
LOUVER
  6
Continuous
100
AcDbCircle
 10
242.7273721234017
 20
462.5555691120383
 30
0.0
 40
3.1
100
AcDbArc
 50
338.8315511547077
 51
42.71864452680936
  0
ARC
  5
50C
330
6F
100
AcDbEntity
  8
LOUVER
  6
Continuous
100
AcDbCircle
 10
242.7273721234017
 20
462.5555691120383
 30
0.0
 40
3.1
100
AcDbArc
 50
137.2813554916337
 51
201.1684488450905
  0
POINT
  5
50D
330
6F
100
AcDbEntity
  8
LOUVER
  6
Continuous
100
AcDbPoint
 10
245.251258016249
 20
460.75556911207
 30
0.0
  0
POINT
  5
50E
330
6F
100
AcDbEntity
  8
LOUVER
  6
Continuous
100
AcDbPoint
 10
240.2034862305211
 20
460.7555691120818
 30
0.0
  0
ARC
  5
50F
330
6F
100
AcDbEntity
  8
LOUVER
  6
Continuous
100
AcDbCircle
 10
246.0844541897325
 20
461.25556911207
 30
0.0
 40
0.5
100
AcDbArc
 50
158.8315511547071
 51
270.0
  0
ARC
  5
510
330
6F
100
AcDbEntity
  8
LOUVER
  6
Continuous
100
AcDbCircle
 10
239.3702900570659
 20
461.2555691120818
 30
0.0
 40
0.5
100
AcDbArc
 50
270.0
 51
21.16844884509028
  0
ARC
  5
511
330
6F
100
AcDbEntity
  8
LOUVER
  6
Continuous
100
AcDbCircle
 10
242.7273721234017
 20
462.5555691120383
 30
0.0
 40
1.799999999999718
100
AcDbArc
 50
137.2813554916416
 51
42.71864452681088
  0
LINE
  5
512
330
6F
100
AcDbEntity
  8
LOUVER
  6
Continuous
100
AcDbLine
 10
592.7412277189614
 20
436.7555691120514
 30
0.0
 11
594.5412277188416
 21
436.7555691120518
 31
0.0
  0
LINE
  5
513
330
6F
100
AcDbEntity
  8
LOUVER
  6
Continuous
100
AcDbLine
 10
622.7412277189061
 20
436.755569112051
 30
0.0
 11
620.9412277190562
 21
436.7555691120514
 31
0.0
  0
LINE
  5
514
330
6F
100
AcDbEntity
  8
LOUVER
  6
Continuous
100
AcDbLine
 10
620.9412277190559
 20
436.7555691120518
 30
0.0
 11
620.9412277190572
 21
441.7555691117263
 31
0.0
  0
LINE
  5
515
330
6F
100
AcDbEntity
  8
LOUVER
  6
Continuous
100
AcDbLine
 10
621.4412277190018
 20
450.755569112039
 30
0.0
 11
617.7412277190017
 21
450.75556911204
 31
0.0
  0
LINE
  5
516
330
6F
100
AcDbEntity
  8
LOUVER
  6
Continuous
100
AcDbLine
 10
617.4412277190022
 20
451.0555691120401
 30
0.0
 11
617.4412277190022
 21
451.4555691120403
 31
0.0
  0
LINE
  5
517
330
6F
100
AcDbEntity
  8
LOUVER
  6
Continuous
100
AcDbLine
 10
594.5412277188418
 20
436.7555691120517
 30
0.0
 11
594.5412277188458
 21
441.7555691117398
 31
0.0
  0
LINE
  5
518
330
6F
100
AcDbEntity
  8
LOUVER
  6
Continuous
100
AcDbLine
 10
594.0412277189116
 20
450.7555691120542
 30
0.0
 11
597.7412277189118
 21
450.7555691120513
 31
0.0
  0
LINE
  5
519
330
6F
100
AcDbEntity
  8
LOUVER
  6
Continuous
100
AcDbLine
 10
598.0412277189117
 20
451.055569112051
 30
0.0
 11
598.0412277189123
 21
451.4555691120508
 31
0.0
  0
LINE
  5
51A
330
6F
100
AcDbEntity
  8
LOUVER
  6
Continuous
100
AcDbLine
 10
620.3412277190031
 20
474.5555691120248
 30
0.0
 11
595.1412277189396
 21
474.5555691120527
 31
0.0
  0
LINE
  5
51B
330
6F
100
AcDbEntity
  8
LOUVER
  6
Continuous
100
AcDbLine
 10
607.7412277189811
 20
494.3555691120382
 30
0.0
 11
621.3412277190021
 21
494.3555691120382
 31
0.0
  0
ARC
  5
51C
330
6F
100
AcDbEntity
  8
LOUVER
  6
Continuous
100
AcDbCircle
 10
617.741227719002
 20
451.0555691120401
 30
0.0
 40
0.3
100
AcDbArc
 50
180.0
 51
270.0
  0
ARC
  5
51D
330
6F
100
AcDbEntity
  8
LOUVER
  6
Continuous
100
AcDbCircle
 10
597.7412277189118
 20
451.0555691120513
 30
0.0
 40
0.3
100
AcDbArc
 50
270.0
 51
0.0
  0
LINE
  5
51E
330
6F
100
AcDbEntity
  8
LOUVER
  6
Continuous
100
AcDbLine
 10
594.0412277189055
 20
445.5555691120375
 30
0.0
 11
594.0412277189112
 21
450.7555691120546
 31
0.0
  0
LINE
  5
51F
330
6F
100
AcDbEntity
  8
LOUVER
  6
Continuous
100
AcDbLine
 10
621.4412277190022
 20
445.555569112022
 30
0.0
 11
621.4412277190022
 21
450.7555691120392
 31
0.0
  0
LINE
  5
520
330
6F
100
AcDbEntity
  8
LOUVER
  6
Continuous
100
AcDbLine
 10
621.3412277190076
 20
451.755569112039
 30
0.0
 11
617.7412277190017
 21
451.7555691120401
 31
0.0
  0
ARC
  5
521
330
6F
100
AcDbEntity
  8
LOUVER
  6
Continuous
100
AcDbCircle
 10
617.741227719002
 20
451.4555691120403
 30
0.0
 40
0.3
100
AcDbArc
 50
90.0
 51
180.0
  0
LINE
  5
522
330
6F
100
AcDbEntity
  8
LOUVER
  6
Continuous
100
AcDbLine
 10
594.1412277189382
 20
451.7555691120541
 30
0.0
 11
597.7412277189126
 21
451.7555691120513
 31
0.0
  0
ARC
  5
523
330
6F
100
AcDbEntity
  8
LOUVER
  6
Continuous
100
AcDbCircle
 10
597.7412277189123
 20
451.4555691120511
 30
0.0
 40
0.3
100
AcDbArc
 50
0.0
 51
90.0
  0
LINE
  5
524
330
6F
100
AcDbEntity
  8
LOUVER
  6
Continuous
100
AcDbLine
 10
594.1412277189389
 20
475.7555691120816
 30
0.0
 11
594.1412277189596
 21
494.3555691120528
 31
0.0
  0
LINE
  5
525
330
6F
100
AcDbEntity
  8
LOUVER
  6
Continuous
100
AcDbLine
 10
621.3412277190021
 20
475.7555691120701
 30
0.0
 11
621.3412277190021
 21
494.3555691120382
 31
0.0
  0
LINE
  5
526
330
6F
100
AcDbEntity
  8
LOUVER
  6
Continuous
100
AcDbLine
 10
621.3412277190029
 20
473.5555691120246
 30
0.0
 11
621.3412277190079
 21
451.7555691120386
 31
0.0
  0
LINE
  5
527
330
6F
100
AcDbEntity
  8
LOUVER
  6
Continuous
100
AcDbLine
 10
594.1412277189388
 20
473.5555691120524
 30
0.0
 11
594.1412277189377
 21
451.7555691120383
 31
0.0
  0
LINE
  5
528
330
6F
100
AcDbEntity
  8
LOUVER
  6
Continuous
100
AcDbLine
 10
607.7412277189806
 20
494.3555691120378
 30
0.0
 11
594.1412277189597
 21
494.3555691120532
 31
0.0
  0
ARC
  5
529
330
6F
100
AcDbEntity
  8
LOUVER
  6
Continuous
100
AcDbCircle
 10
620.3412277190027
 20
473.5555691120243
 30
0.0
 40
1.0
100
AcDbArc
 50
0.0
 51
90.0
  0
ARC
  5
52A
330
6F
100
AcDbEntity
  8
LOUVER
  6
Continuous
100
AcDbCircle
 10
595.1412277189389
 20
473.5555691120522
 30
0.0
 40
1.0
100
AcDbArc
 50
90.0
 51
180.0
  0
LINE
  5
52B
330
6F
100
AcDbEntity
  8
LOUVER
  6
Continuous
100
AcDbLine
 10
611.0983097853031
 20
475.7555691120701
 30
0.0
 11
621.3412277190021
 21
475.7555691120701
 31
0.0
  0
LINE
  5
52C
330
6F
100
AcDbEntity
  8
LOUVER
  6
Continuous
100
AcDbLine
 10
604.3841456526362
 20
475.7555691120819
 30
0.0
 11
594.1412277189392
 21
475.755569112082
 31
0.0
  0
LINE
  5
52D
330
6F
100
AcDbEntity
  8
LOUVER
  6
Continuous
100
AcDbLine
 10
594.8412277188487
 20
445.5555691120364
 30
0.0
 11
594.0412277189055
 21
445.5555691120375
 31
0.0
  0
LINE
  5
52E
330
6F
100
AcDbEntity
  8
LOUVER
  6
Continuous
100
AcDbLine
 10
620.6412277190589
 20
445.5555691120217
 30
0.0
 11
621.4412277190022
 21
445.5555691120217
 31
0.0
  0
ARC
  5
52F
330
6F
100
AcDbEntity
  8
LOUVER
  6
Continuous
100
AcDbCircle
 10
594.8412277188487
 20
445.3555691120363
 30
0.0
 40
0.2
100
AcDbArc
 50
352.062631914609
 51
90.0
  0
LINE
  5
530
330
6F
100
AcDbEntity
  8
LOUVER
  6
Continuous
100
AcDbLine
 10
594.5412277188451
 20
441.7555691117396
 30
0.0
 11
595.039311641205
 21
445.3279510073973
 31
0.0
  0
ARC
  5
531
330
6F
100
AcDbEntity
  8
LOUVER
  6
Continuous
100
AcDbCircle
 10
620.6412277190588
 20
445.355569112022
 30
0.0
 40
0.2
100
AcDbArc
 50
89.99999999993649
 51
187.9373680853275
  0
LINE
  5
532
330
6F
100
AcDbEntity
  8
LOUVER
  6
Continuous
100
AcDbLine
 10
620.9412277190578
 20
441.7555691117247
 30
0.0
 11
620.4431437967021
 21
445.3279510073833
 31
0.0
  0
LINE
  5
533
330
6F
100
AcDbEntity
  8
LOUVER
  6
DASHED
100
AcDbLine
 10
622.7412277188554
 20
495.7555691120545
 30
0.0
 11
592.7412277189616
 21
495.7555691120545
 31
0.0
  0
LINE
  5
534
330
6F
100
AcDbEntity
  8
LOUVER
  6
DASHED
100
AcDbLine
 10
592.7412277189616
 20
495.7555691120545
 30
0.0
 11
592.7412277189614
 21
436.7555691120514
 31
0.0
  0
LINE
  5
535
330
6F
100
AcDbEntity
  8
LOUVER
  6
DASHED
100
AcDbLine
 10
622.7412277189064
 20
436.7555691120514
 30
0.0
 11
622.7412277189064
 21
495.7555691120545
 31
0.0
  0
POINT
  5
536
330
6F
100
AcDbEntity
  8
LOUVER
  6
Continuous
100
AcDbPoint
 10
607.741227718972
 20
477.5555691120383
 30
0.0
  0
ARC
  5
537
330
6F
100
AcDbEntity
  8
LOUVER
  6
Continuous
100
AcDbCircle
 10
605.9412277187972
 20
479.2176461257088
 30
0.0
 40
0.6500000000000014
100
AcDbArc
 50
317.2813554916331
 51
137.2813554916332
  0
ARC
  5
538
330
6F
100
AcDbEntity
  8
LOUVER
  6
Continuous
100
AcDbCircle
 10
609.5412277186111
 20
479.2176461262882
 30
0.0
 40
0.6500000000000048
100
AcDbArc
 50
42.7186445268103
 51
222.7186445268103
  0
ARC
  5
539
330
6F
100
AcDbEntity
  8
LOUVER
  6
Continuous
100
AcDbCircle
 10
607.741227718972
 20
477.5555691120383
 30
0.0
 40
3.1
100
AcDbArc
 50
338.8315511547077
 51
42.71864452680936
  0
ARC
  5
53A
330
6F
100
AcDbEntity
  8
LOUVER
  6
Continuous
100
AcDbCircle
 10
607.741227718972
 20
477.5555691120383
 30
0.0
 40
3.1
100
AcDbArc
 50
137.2813554916337
 51
201.1684488450905
  0
POINT
  5
53B
330
6F
100
AcDbEntity
  8
LOUVER
  6
Continuous
100
AcDbPoint
 10
610.2651136118192
 20
475.75556911207
 30
0.0
  0
POINT
  5
53C
330
6F
100
AcDbEntity
  8
LOUVER
  6
Continuous
100
AcDbPoint
 10
605.2173418260915
 20
475.7555691120818
 30
0.0
  0
ARC
  5
53D
330
6F
100
AcDbEntity
  8
LOUVER
  6
Continuous
100
AcDbCircle
 10
611.0983097853027
 20
476.25556911207
 30
0.0
 40
0.5
100
AcDbArc
 50
158.8315511547071
 51
270.0
  0
ARC
  5
53E
330
6F
100
AcDbEntity
  8
LOUVER
  6
Continuous
100
AcDbCircle
 10
604.3841456526362
 20
476.2555691120818
 30
0.0
 40
0.5
100
AcDbArc
 50
270.0
 51
21.16844884509028
  0
ARC
  5
53F
330
6F
100
AcDbEntity
  8
LOUVER
  6
Continuous
100
AcDbCircle
 10
607.741227718972
 20
477.5555691120383
 30
0.0
 40
1.799999999999718
100
AcDbArc
 50
137.2813554916416
 51
42.71864452681088
  0
LINE
  5
540
330
6F
100
AcDbEntity
  8
LOUVER
  6
Continuous
100
AcDbLine
 10
227.727372123391
 20
159.336449609376
 30
0.0
 11
229.5273721232712
 21
159.3364496093766
 31
0.0
  0
LINE
  5
541
330
6F
100
AcDbEntity
  8
LOUVER
  6
Continuous
100
AcDbLine
 10
257.7273721233356
 20
159.3364496093756
 30
0.0
 11
255.9273721234858
 21
159.3364496093763
 31
0.0
  0
LINE
  5
542
330
6F
100
AcDbEntity
  8
LOUVER
  6
Continuous
100
AcDbLine
 10
255.9273721234857
 20
159.3364496093766
 30
0.0
 11
255.9273721234868
 21
164.336449609051
 31
0.0
  0
LINE
  5
543
330
6F
100
AcDbEntity
  8
LOUVER
  6
Continuous
100
AcDbLine
 10
256.4273721234317
 20
173.3364496093637
 30
0.0
 11
252.7273721234314
 21
173.3364496093648
 31
0.0
  0
LINE
  5
544
330
6F
100
AcDbEntity
  8
LOUVER
  6
Continuous
100
AcDbLine
 10
252.4273721234317
 20
173.6364496093649
 30
0.0
 11
252.4273721234317
 21
174.036449609365
 31
0.0
  0
LINE
  5
545
330
6F
100
AcDbEntity
  8
LOUVER
  6
Continuous
100
AcDbLine
 10
229.5273721232713
 20
159.3364496093764
 30
0.0
 11
229.5273721232755
 21
164.3364496090644
 31
0.0
  0
LINE
  5
546
330
6F
100
AcDbEntity
  8
LOUVER
  6
Continuous
100
AcDbLine
 10
229.0273721233412
 20
173.3364496093788
 30
0.0
 11
232.7273721233414
 21
173.3364496093758
 31
0.0
  0
LINE
  5
547
330
6F
100
AcDbEntity
  8
LOUVER
  6
Continuous
100
AcDbLine
 10
233.0273721233415
 20
173.6364496093757
 30
0.0
 11
233.027372123342
 21
174.0364496093755
 31
0.0
  0
LINE
  5
548
330
6F
100
AcDbEntity
  8
LOUVER
  6
Continuous
100
AcDbLine
 10
255.327372123433
 20
197.1364496093495
 30
0.0
 11
230.1273721233693
 21
197.1364496093773
 31
0.0
  0
LINE
  5
549
330
6F
100
AcDbEntity
  8
LOUVER
  6
Continuous
100
AcDbLine
 10
242.7273721234107
 20
216.9364496093628
 30
0.0
 11
256.3273721234318
 21
216.9364496093628
 31
0.0
  0
ARC
  5
54A
330
6F
100
AcDbEntity
  8
LOUVER
  6
Continuous
100
AcDbCircle
 10
252.7273721234317
 20
173.6364496093648
 30
0.0
 40
0.3
100
AcDbArc
 50
180.0
 51
270.0
  0
ARC
  5
54B
330
6F
100
AcDbEntity
  8
LOUVER
  6
Continuous
100
AcDbCircle
 10
232.7273721233416
 20
173.636449609376
 30
0.0
 40
0.3
100
AcDbArc
 50
270.0
 51
0.0
  0
LINE
  5
54C
330
6F
100
AcDbEntity
  8
LOUVER
  6
Continuous
100
AcDbLine
 10
229.0273721233353
 20
168.1364496093619
 30
0.0
 11
229.027372123341
 21
173.3364496093792
 31
0.0
  0
LINE
  5
54D
330
6F
100
AcDbEntity
  8
LOUVER
  6
Continuous
100
AcDbLine
 10
256.4273721234316
 20
168.1364496093467
 30
0.0
 11
256.4273721234316
 21
173.3364496093638
 31
0.0
  0
LINE
  5
54E
330
6F
100
AcDbEntity
  8
LOUVER
  6
Continuous
100
AcDbLine
 10
256.3273721234372
 20
174.3364496093638
 30
0.0
 11
252.7273721234314
 21
174.3364496093649
 31
0.0
  0
ARC
  5
54F
330
6F
100
AcDbEntity
  8
LOUVER
  6
Continuous
100
AcDbCircle
 10
252.7273721234317
 20
174.0364496093649
 30
0.0
 40
0.3
100
AcDbArc
 50
90.0
 51
180.0
  0
LINE
  5
550
330
6F
100
AcDbEntity
  8
LOUVER
  6
Continuous
100
AcDbLine
 10
229.1273721233679
 20
174.3364496093789
 30
0.0
 11
232.7273721233423
 21
174.3364496093761
 31
0.0
  0
ARC
  5
551
330
6F
100
AcDbEntity
  8
LOUVER
  6
Continuous
100
AcDbCircle
 10
232.7273721233421
 20
174.0364496093758
 30
0.0
 40
0.3
100
AcDbArc
 50
0.0
 51
90.0
  0
LINE
  5
552
330
6F
100
AcDbEntity
  8
LOUVER
  6
Continuous
100
AcDbLine
 10
229.1273721233686
 20
198.3364496094064
 30
0.0
 11
229.1273721233893
 21
216.9364496093777
 31
0.0
  0
LINE
  5
553
330
6F
100
AcDbEntity
  8
LOUVER
  6
Continuous
100
AcDbLine
 10
256.3273721234317
 20
198.3364496093947
 30
0.0
 11
256.3273721234318
 21
216.9364496093628
 31
0.0
  0
LINE
  5
554
330
6F
100
AcDbEntity
  8
LOUVER
  6
Continuous
100
AcDbLine
 10
256.3273721234325
 20
196.1364496093494
 30
0.0
 11
256.3273721234377
 21
174.3364496093633
 31
0.0
  0
LINE
  5
555
330
6F
100
AcDbEntity
  8
LOUVER
  6
Continuous
100
AcDbLine
 10
229.1273721233684
 20
196.136449609377
 30
0.0
 11
229.1273721233674
 21
174.3364496093631
 31
0.0
  0
LINE
  5
556
330
6F
100
AcDbEntity
  8
LOUVER
  6
Continuous
100
AcDbLine
 10
242.7273721234106
 20
216.9364496093627
 30
0.0
 11
229.1273721233895
 21
216.9364496093778
 31
0.0
  0
ARC
  5
557
330
6F
100
AcDbEntity
  8
LOUVER
  6
Continuous
100
AcDbCircle
 10
255.3273721234325
 20
196.1364496093489
 30
0.0
 40
1.0
100
AcDbArc
 50
0.0
 51
90.0
  0
ARC
  5
558
330
6F
100
AcDbEntity
  8
LOUVER
  6
Continuous
100
AcDbCircle
 10
230.1273721233686
 20
196.1364496093769
 30
0.0
 40
1.0
100
AcDbArc
 50
90.0
 51
180.0
  0
LINE
  5
559
330
6F
100
AcDbEntity
  8
LOUVER
  6
Continuous
100
AcDbLine
 10
246.0844541897326
 20
198.3364496093947
 30
0.0
 11
256.3273721234317
 21
198.3364496093947
 31
0.0
  0
LINE
  5
55A
330
6F
100
AcDbEntity
  8
LOUVER
  6
Continuous
100
AcDbLine
 10
239.3702900570658
 20
198.3364496094065
 30
0.0
 11
229.1273721233687
 21
198.3364496094066
 31
0.0
  0
LINE
  5
55B
330
6F
100
AcDbEntity
  8
LOUVER
  6
Continuous
100
AcDbLine
 10
229.8273721232783
 20
168.1364496093612
 30
0.0
 11
229.0273721233352
 21
168.1364496093619
 31
0.0
  0
LINE
  5
55C
330
6F
100
AcDbEntity
  8
LOUVER
  6
Continuous
100
AcDbLine
 10
255.6273721234888
 20
168.1364496093463
 30
0.0
 11
256.4273721234319
 21
168.1364496093464
 31
0.0
  0
ARC
  5
55D
330
6F
100
AcDbEntity
  8
LOUVER
  6
Continuous
100
AcDbCircle
 10
229.8273721232783
 20
167.9364496093609
 30
0.0
 40
0.2
100
AcDbArc
 50
352.062631914609
 51
90.0
  0
LINE
  5
55E
330
6F
100
AcDbEntity
  8
LOUVER
  6
Continuous
100
AcDbLine
 10
229.5273721232751
 20
164.3364496090641
 30
0.0
 11
230.0254560456347
 21
167.9088315047219
 31
0.0
  0
ARC
  5
55F
330
6F
100
AcDbEntity
  8
LOUVER
  6
Continuous
100
AcDbCircle
 10
255.6273721234886
 20
167.9364496093466
 30
0.0
 40
0.2
100
AcDbArc
 50
89.99999999993649
 51
187.9373680853275
  0
LINE
  5
560
330
6F
100
AcDbEntity
  8
LOUVER
  6
Continuous
100
AcDbLine
 10
255.9273721234875
 20
164.3364496090496
 30
0.0
 11
255.4292882011319
 21
167.9088315047079
 31
0.0
  0
LINE
  5
561
330
6F
100
AcDbEntity
  8
LOUVER
  6
DASHED
100
AcDbLine
 10
257.7273721232851
 20
218.3364496093793
 30
0.0
 11
227.727372123391
 21
218.3364496093793
 31
0.0
  0
LINE
  5
562
330
6F
100
AcDbEntity
  8
LOUVER
  6
DASHED
100
AcDbLine
 10
227.727372123391
 20
218.3364496093793
 30
0.0
 11
227.727372123391
 21
159.3364496093762
 31
0.0
  0
LINE
  5
563
330
6F
100
AcDbEntity
  8
LOUVER
  6
DASHED
100
AcDbLine
 10
257.7273721233361
 20
159.3364496093762
 30
0.0
 11
257.7273721233361
 21
218.3364496093793
 31
0.0
  0
POINT
  5
564
330
6F
100
AcDbEntity
  8
LOUVER
  6
Continuous
100
AcDbPoint
 10
242.7273721234017
 20
200.136449609363
 30
0.0
  0
ARC
  5
565
330
6F
100
AcDbEntity
  8
LOUVER
  6
Continuous
100
AcDbCircle
 10
240.9273721232269
 20
201.7985266230336
 30
0.0
 40
0.6500000000000014
100
AcDbArc
 50
317.2813554916331
 51
137.2813554916332
  0
ARC
  5
566
330
6F
100
AcDbEntity
  8
LOUVER
  6
Continuous
100
AcDbCircle
 10
244.5273721230408
 20
201.7985266236129
 30
0.0
 40
0.6500000000000048
100
AcDbArc
 50
42.7186445268103
 51
222.7186445268103
  0
ARC
  5
567
330
6F
100
AcDbEntity
  8
LOUVER
  6
Continuous
100
AcDbCircle
 10
242.7273721234017
 20
200.136449609363
 30
0.0
 40
3.1
100
AcDbArc
 50
338.8315511547077
 51
42.71864452680936
  0
ARC
  5
568
330
6F
100
AcDbEntity
  8
LOUVER
  6
Continuous
100
AcDbCircle
 10
242.7273721234017
 20
200.136449609363
 30
0.0
 40
3.1
100
AcDbArc
 50
137.2813554916337
 51
201.1684488450905
  0
POINT
  5
569
330
6F
100
AcDbEntity
  8
LOUVER
  6
Continuous
100
AcDbPoint
 10
245.251258016249
 20
198.3364496093947
 30
0.0
  0
POINT
  5
56A
330
6F
100
AcDbEntity
  8
LOUVER
  6
Continuous
100
AcDbPoint
 10
240.2034862305211
 20
198.3364496094065
 30
0.0
  0
ARC
  5
56B
330
6F
100
AcDbEntity
  8
LOUVER
  6
Continuous
100
AcDbCircle
 10
246.0844541897325
 20
198.8364496093947
 30
0.0
 40
0.5
100
AcDbArc
 50
158.8315511547071
 51
270.0
  0
ARC
  5
56C
330
6F
100
AcDbEntity
  8
LOUVER
  6
Continuous
100
AcDbCircle
 10
239.3702900570659
 20
198.8364496094065
 30
0.0
 40
0.5
100
AcDbArc
 50
270.0
 51
21.16844884509028
  0
ARC
  5
56D
330
6F
100
AcDbEntity
  8
LOUVER
  6
Continuous
100
AcDbCircle
 10
242.7273721234017
 20
200.136449609363
 30
0.0
 40
1.799999999999718
100
AcDbArc
 50
137.2813554916416
 51
42.71864452681088
  0
POINT
  5
56E
330
6F
100
AcDbEntity
  8
DXF0
  6
Continuous
 62
     3
100
AcDbPoint
 10
242.7273721234328
 20
158.336449609626
 30
0.0
  0
LINE
  5
56F
330
6F
100
AcDbEntity
  8
LOUVER
  6
Continuous
100
AcDbLine
 10
592.7412277189612
 20
157.8364496093764
 30
0.0
 11
594.5412277188413
 21
157.836449609377
 31
0.0
  0
LINE
  5
570
330
6F
100
AcDbEntity
  8
LOUVER
  6
Continuous
100
AcDbLine
 10
622.7412277189057
 20
157.8364496093761
 30
0.0
 11
620.9412277190558
 21
157.8364496093767
 31
0.0
  0
LINE
  5
571
330
6F
100
AcDbEntity
  8
LOUVER
  6
Continuous
100
AcDbLine
 10
620.9412277190558
 20
157.836449609377
 30
0.0
 11
620.9412277190571
 21
162.8364496090514
 31
0.0
  0
LINE
  5
572
330
6F
100
AcDbEntity
  8
LOUVER
  6
Continuous
100
AcDbLine
 10
621.4412277190018
 20
171.836449609364
 30
0.0
 11
617.7412277190017
 21
171.8364496093652
 31
0.0
  0
LINE
  5
573
330
6F
100
AcDbEntity
  8
LOUVER
  6
Continuous
100
AcDbLine
 10
617.4412277190018
 20
172.1364496093653
 30
0.0
 11
617.4412277190018
 21
172.5364496093654
 31
0.0
  0
LINE
  5
574
330
6F
100
AcDbEntity
  8
LOUVER
  6
Continuous
100
AcDbLine
 10
594.5412277188413
 20
157.8364496093768
 30
0.0
 11
594.5412277188458
 21
162.8364496090648
 31
0.0
  0
LINE
  5
575
330
6F
100
AcDbEntity
  8
LOUVER
  6
Continuous
100
AcDbLine
 10
594.0412277189115
 20
171.8364496093792
 30
0.0
 11
597.7412277189118
 21
171.8364496093763
 31
0.0
  0
LINE
  5
576
330
6F
100
AcDbEntity
  8
LOUVER
  6
Continuous
100
AcDbLine
 10
598.0412277189117
 20
172.1364496093761
 30
0.0
 11
598.0412277189123
 21
172.5364496093759
 31
0.0
  0
LINE
  5
577
330
6F
100
AcDbEntity
  8
LOUVER
  6
Continuous
100
AcDbLine
 10
620.3412277190031
 20
195.6364496093499
 30
0.0
 11
595.1412277189396
 21
195.6364496093776
 31
0.0
  0
LINE
  5
578
330
6F
100
AcDbEntity
  8
LOUVER
  6
Continuous
100
AcDbLine
 10
607.741227718981
 20
215.4364496093632
 30
0.0
 11
621.3412277190021
 21
215.4364496093632
 31
0.0
  0
ARC
  5
579
330
6F
100
AcDbEntity
  8
LOUVER
  6
Continuous
100
AcDbCircle
 10
617.7412277190017
 20
172.1364496093652
 30
0.0
 40
0.3
100
AcDbArc
 50
180.0
 51
270.0
  0
ARC
  5
57A
330
6F
100
AcDbEntity
  8
LOUVER
  6
Continuous
100
AcDbCircle
 10
597.7412277189118
 20
172.1364496093764
 30
0.0
 40
0.3
100
AcDbArc
 50
270.0
 51
0.0
  0
LINE
  5
57B
330
6F
100
AcDbEntity
  8
LOUVER
  6
Continuous
100
AcDbLine
 10
594.0412277189055
 20
166.6364496093625
 30
0.0
 11
594.0412277189112
 21
171.8364496093796
 31
0.0
  0
LINE
  5
57C
330
6F
100
AcDbEntity
  8
LOUVER
  6
Continuous
100
AcDbLine
 10
621.4412277190018
 20
166.6364496093471
 30
0.0
 11
621.4412277190018
 21
171.8364496093642
 31
0.0
  0
LINE
  5
57D
330
6F
100
AcDbEntity
  8
LOUVER
  6
Continuous
100
AcDbLine
 10
621.3412277190073
 20
172.8364496093642
 30
0.0
 11
617.7412277190016
 21
172.8364496093653
 31
0.0
  0
ARC
  5
57E
330
6F
100
AcDbEntity
  8
LOUVER
  6
Continuous
100
AcDbCircle
 10
617.7412277190017
 20
172.5364496093653
 30
0.0
 40
0.3
100
AcDbArc
 50
90.0
 51
180.0
  0
LINE
  5
57F
330
6F
100
AcDbEntity
  8
LOUVER
  6
Continuous
100
AcDbLine
 10
594.1412277189381
 20
172.8364496093793
 30
0.0
 11
597.7412277189126
 21
172.8364496093764
 31
0.0
  0
ARC
  5
580
330
6F
100
AcDbEntity
  8
LOUVER
  6
Continuous
100
AcDbCircle
 10
597.7412277189122
 20
172.5364496093761
 30
0.0
 40
0.3
100
AcDbArc
 50
0.0
 51
90.0
  0
LINE
  5
581
330
6F
100
AcDbEntity
  8
LOUVER
  6
Continuous
100
AcDbLine
 10
594.1412277189388
 20
196.8364496094068
 30
0.0
 11
594.1412277189595
 21
215.436449609378
 31
0.0
  0
LINE
  5
582
330
6F
100
AcDbEntity
  8
LOUVER
  6
Continuous
100
AcDbLine
 10
621.3412277190021
 20
196.8364496093951
 30
0.0
 11
621.3412277190021
 21
215.4364496093632
 31
0.0
  0
LINE
  5
583
330
6F
100
AcDbEntity
  8
LOUVER
  6
Continuous
100
AcDbLine
 10
621.3412277190027
 20
194.6364496093498
 30
0.0
 11
621.3412277190078
 21
172.8364496093637
 31
0.0
  0
LINE
  5
584
330
6F
100
AcDbEntity
  8
LOUVER
  6
Continuous
100
AcDbLine
 10
594.1412277189388
 20
194.6364496093774
 30
0.0
 11
594.1412277189377
 21
172.8364496093636
 31
0.0
  0
LINE
  5
585
330
6F
100
AcDbEntity
  8
LOUVER
  6
Continuous
100
AcDbLine
 10
607.7412277189806
 20
215.4364496093631
 30
0.0
 11
594.1412277189597
 21
215.4364496093782
 31
0.0
  0
ARC
  5
586
330
6F
100
AcDbEntity
  8
LOUVER
  6
Continuous
100
AcDbCircle
 10
620.3412277190027
 20
194.6364496093493
 30
0.0
 40
1.0
100
AcDbArc
 50
0.0
 51
90.0
  0
ARC
  5
587
330
6F
100
AcDbEntity
  8
LOUVER
  6
Continuous
100
AcDbCircle
 10
595.1412277189388
 20
194.6364496093773
 30
0.0
 40
1.0
100
AcDbArc
 50
90.0
 51
180.0
  0
LINE
  5
588
330
6F
100
AcDbEntity
  8
LOUVER
  6
Continuous
100
AcDbLine
 10
611.0983097853027
 20
196.8364496093951
 30
0.0
 11
621.3412277190021
 21
196.8364496093951
 31
0.0
  0
LINE
  5
589
330
6F
100
AcDbEntity
  8
LOUVER
  6
Continuous
100
AcDbLine
 10
604.3841456526361
 20
196.836449609407
 30
0.0
 11
594.141227718939
 21
196.836449609407
 31
0.0
  0
LINE
  5
58A
330
6F
100
AcDbEntity
  8
LOUVER
  6
Continuous
100
AcDbLine
 10
594.8412277188487
 20
166.6364496093616
 30
0.0
 11
594.0412277189055
 21
166.6364496093625
 31
0.0
  0
LINE
  5
58B
330
6F
100
AcDbEntity
  8
LOUVER
  6
Continuous
100
AcDbLine
 10
620.6412277190588
 20
166.6364496093467
 30
0.0
 11
621.4412277190022
 21
166.6364496093468
 31
0.0
  0
ARC
  5
58C
330
6F
100
AcDbEntity
  8
LOUVER
  6
Continuous
100
AcDbCircle
 10
594.8412277188487
 20
166.4364496093613
 30
0.0
 40
0.2
100
AcDbArc
 50
352.062631914609
 51
90.0
  0
LINE
  5
58D
330
6F
100
AcDbEntity
  8
LOUVER
  6
Continuous
100
AcDbLine
 10
594.5412277188451
 20
162.8364496090645
 30
0.0
 11
595.039311641205
 21
166.4088315047223
 31
0.0
  0
ARC
  5
58E
330
6F
100
AcDbEntity
  8
LOUVER
  6
Continuous
100
AcDbCircle
 10
620.6412277190587
 20
166.436449609347
 30
0.0
 40
0.2
100
AcDbArc
 50
89.99999999993649
 51
187.9373680853275
  0
LINE
  5
58F
330
6F
100
AcDbEntity
  8
LOUVER
  6
Continuous
100
AcDbLine
 10
620.9412277190574
 20
162.83644960905
 30
0.0
 11
620.4431437967018
 21
166.4088315047084
 31
0.0
  0
LINE
  5
590
330
6F
100
AcDbEntity
  8
LOUVER
  6
DASHED
100
AcDbLine
 10
622.7412277188554
 20
216.8364496093798
 30
0.0
 11
592.7412277189614
 21
216.8364496093798
 31
0.0
  0
LINE
  5
591
330
6F
100
AcDbEntity
  8
LOUVER
  6
DASHED
100
AcDbLine
 10
592.7412277189614
 20
216.8364496093798
 30
0.0
 11
592.7412277189614
 21
157.8364496093766
 31
0.0
  0
LINE
  5
592
330
6F
100
AcDbEntity
  8
LOUVER
  6
DASHED
100
AcDbLine
 10
622.7412277189064
 20
157.8364496093766
 30
0.0
 11
622.7412277189064
 21
216.8364496093798
 31
0.0
  0
POINT
  5
593
330
6F
100
AcDbEntity
  8
LOUVER
  6
Continuous
100
AcDbPoint
 10
607.7412277189718
 20
198.6364496093634
 30
0.0
  0
ARC
  5
594
330
6F
100
AcDbEntity
  8
LOUVER
  6
Continuous
100
AcDbCircle
 10
605.9412277187971
 20
200.298526623034
 30
0.0
 40
0.6500000000000014
100
AcDbArc
 50
317.2813554916331
 51
137.2813554916332
  0
ARC
  5
595
330
6F
100
AcDbEntity
  8
LOUVER
  6
Continuous
100
AcDbCircle
 10
609.541227718611
 20
200.2985266236133
 30
0.0
 40
0.6500000000000048
100
AcDbArc
 50
42.7186445268103
 51
222.7186445268103
  0
ARC
  5
596
330
6F
100
AcDbEntity
  8
LOUVER
  6
Continuous
100
AcDbCircle
 10
607.7412277189718
 20
198.6364496093634
 30
0.0
 40
3.1
100
AcDbArc
 50
338.8315511547077
 51
42.71864452680936
  0
ARC
  5
597
330
6F
100
AcDbEntity
  8
LOUVER
  6
Continuous
100
AcDbCircle
 10
607.7412277189718
 20
198.6364496093634
 30
0.0
 40
3.1
100
AcDbArc
 50
137.2813554916337
 51
201.1684488450905
  0
POINT
  5
598
330
6F
100
AcDbEntity
  8
LOUVER
  6
Continuous
100
AcDbPoint
 10
610.2651136118192
 20
196.8364496093951
 30
0.0
  0
POINT
  5
599
330
6F
100
AcDbEntity
  8
LOUVER
  6
Continuous
100
AcDbPoint
 10
605.2173418260912
 20
196.8364496094069
 30
0.0
  0
ARC
  5
59A
330
6F
100
AcDbEntity
  8
LOUVER
  6
Continuous
100
AcDbCircle
 10
611.0983097853027
 20
197.3364496093951
 30
0.0
 40
0.5
100
AcDbArc
 50
158.8315511547071
 51
270.0
  0
ARC
  5
59B
330
6F
100
AcDbEntity
  8
LOUVER
  6
Continuous
100
AcDbCircle
 10
604.3841456526361
 20
197.3364496094069
 30
0.0
 40
0.5
100
AcDbArc
 50
270.0
 51
21.16844884509028
  0
ARC
  5
59C
330
6F
100
AcDbEntity
  8
LOUVER
  6
Continuous
100
AcDbCircle
 10
607.7412277189718
 20
198.6364496093634
 30
0.0
 40
1.799999999999718
100
AcDbArc
 50
137.2813554916416
 51
42.71864452681088
  0
POINT
  5
59D
330
6F
100
AcDbEntity
  8
DXF0
  6
Continuous
 62
     3
100
AcDbPoint
 10
607.7412277190031
 20
156.8364496096264
 30
0.0
  0
DIMENSION
  5
59E
330
6F
100
AcDbEntity
  8
DXF0
  6
Continuous
 62
     3
100
AcDbDimension
280
     0
  2
*D13
 10
206.4757929060333
 20
480.7555691120547
 30
0.0
 11
205.9757929060333
 21
450.7555691121779
 31
0.0
 71
     5
 42
-1.0
 73
     0
 74
     0
 75
     0
  3
Standard
100
AcDbAlignedDimension
 13
132.957215493353
 23
420.7555691123014
 33
0.0
 14
227.727372123391
 24
480.7555691120547
 34
0.0
 50
90.0
100
AcDbRotatedDimension
  0
DIMENSION
  5
59F
330
6F
100
AcDbEntity
  8
DXF0
  6
Continuous
 62
     3
100
AcDbDimension
280
     0
  2
*D14
 10
227.727372123391
 20
491.1236603425904
 30
0.0
 11
242.7273721233636
 21
491.6236603425904
 31
0.0
 71
     5
 42
-1.0
 73
     0
 74
     0
 75
     0
  3
Standard
100
AcDbAlignedDimension
 13
257.7273721233361
 23
480.7555691120547
 33
0.0
 14
227.727372123391
 24
480.7555691120547
 34
0.0
100
AcDbRotatedDimension
  0
DIMENSION
  5
5A0
330
6F
100
AcDbEntity
  8
DXF0
  6
Continuous
 62
     3
100
AcDbDimension
280
     0
  2
*D15
 10
573.8375047445406
 20
495.7555691120545
 30
0.0
 11
573.3375047445406
 21
465.7555691121778
 31
0.0
 71
     5
 42
-1.0
 73
     0
 74
     0
 75
     0
  3
Standard
100
AcDbAlignedDimension
 13
517.4856009406731
 23
435.7555691123014
 33
0.0
 14
592.7412277189616
 24
495.7555691120545
 34
0.0
 50
90.0
100
AcDbRotatedDimension
  0
DIMENSION
  5
5A1
330
6F
100
AcDbEntity
  8
DXF0
  6
Continuous
 62
     3
100
AcDbDimension
280
     0
  2
*D16
 10
622.7412277189064
 20
507.455522780035
 30
0.0
 11
607.741227718934
 21
507.955522780035
 31
0.0
 71
     5
 42
-1.0
 73
     0
 74
     0
 75
     0
  3
Standard
100
AcDbAlignedDimension
 13
592.7412277189616
 23
495.7555691120545
 33
0.0
 14
622.7412277189064
 24
495.7555691120545
 34
0.0
100
AcDbRotatedDimension
  0
DIMENSION
  5
5A2
330
6F
100
AcDbEntity
  8
DXF0
  6
Continuous
 62
     3
100
AcDbDimension
280
     0
  2
*D17
 10
205.8848378951716
 20
158.336449609626
 30
0.0
 11
205.3848378951716
 21
188.3364496095026
 31
0.0
 71
     5
 42
-1.0
 73
     0
 74
     0
 75
     0
  3
Standard
100
AcDbAlignedDimension
 13
227.727372123391
 23
218.3364496093793
 33
0.0
 14
132.4720475945935
 24
158.336449609626
 34
0.0
 50
90.0
100
AcDbRotatedDimension
  0
DIMENSION
  5
5A3
330
6F
100
AcDbEntity
  8
DXF0
  6
Continuous
 62
     3
100
AcDbDimension
280
     0
  2
*D18
 10
227.727372123391
 20
229.2577190016335
 30
0.0
 11
242.7273721233636
 21
229.7577190016335
 31
0.0
 71
     5
 42
-1.0
 73
     0
 74
     0
 75
     0
  3
Standard
100
AcDbAlignedDimension
 13
257.7273721233361
 23
218.3364496093793
 33
0.0
 14
227.727372123391
 24
218.3364496093793
 34
0.0
100
AcDbRotatedDimension
  0
DIMENSION
  5
5A4
330
6F
100
AcDbEntity
  8
DXF0
  6
Continuous
 62
     3
100
AcDbDimension
280
     0
  2
*D19
 10
592.7412277189614
 20
229.2577190016335
 30
0.0
 11
607.7412277189337
 21
229.7577190016335
 31
0.0
 71
     5
 42
-1.0
 73
     0
 74
     0
 75
     0
  3
Standard
100
AcDbAlignedDimension
 13
622.7412277189064
 23
216.8364496093798
 33
0.0
 14
592.7412277189614
 24
216.8364496093798
 34
0.0
100
AcDbRotatedDimension
  0
DIMENSION
  5
5A5
330
6F
100
AcDbEntity
  8
DXF0
  6
Continuous
 62
     3
100
AcDbDimension
280
     0
  2
*D20
 10
569.4013441526393
 20
216.8364496093798
 30
0.0
 11
568.9013441526395
 21
186.8364496095029
 31
0.0
 71
     5
 42
-1.0
 73
     0
 74
     0
 75
     0
  3
Standard
100
AcDbAlignedDimension
 13
518.9620800525037
 23
156.8364496096263
 33
0.0
 14
592.7412277189614
 24
216.8364496093798
 34
0.0
 50
90.0
100
AcDbRotatedDimension
  0
DIMENSION
  5
5A6
330
6F
100
AcDbEntity
  8
DXF0
  6
Continuous
 62
     3
100
AcDbDimension
280
     0
  2
*D21
 10
580.558197715209
 20
435.7555691123014
 30
0.0
 11
580.058197715209
 21
440.7555691123039
 31
0.0
 71
     5
 42
-1.0
 73
     0
 74
     0
 75
     0
  3
Standard
100
AcDbAlignedDimension
 13
583.3526257945477
 23
445.7555691123065
 33
0.0
 14
517.4856009406731
 24
435.7555691123014
 34
0.0
 50
90.0
100
AcDbRotatedDimension
  0
DIMENSION
  5
5A7
330
6F
100
AcDbEntity
  8
DXF0
  6
Continuous
 62
     3
100
AcDbDimension
280
     0
  2
*D22
 10
588.7219933086561
 20
435.7555691123014
 30
0.0
 11
588.221993308656
 21
438.9642206949075
 31
0.0
 71
     5
 42
-1.0
 73
     0
 74
     0
 75
     0
  3
Standard
100
AcDbAlignedDimension
 13
592.7412277189614
 23
436.7555691120514
 33
0.0
 14
517.4856009406731
 24
435.7555691123014
 34
0.0
 50
90.0
100
AcDbRotatedDimension
  0
DIMENSION
  5
5A8
330
6F
100
AcDbEntity
  8
DXF0
  6
Continuous
 62
     3
100
AcDbDimension
280
     0
  2
*D23
 10
222.1339297969453
 20
158.336449609626
 30
0.0
 11
221.6339297969453
 21
161.8910663754012
 31
0.0
 71
     5
 42
-1.0
 73
     0
 74
     0
 75
     0
  3
Standard
100
AcDbAlignedDimension
 13
227.727372123391
 23
159.336449609376
 33
0.0
 14
132.4720475945935
 24
158.336449609626
 34
0.0
 50
90.0
100
AcDbRotatedDimension
  0
DIMENSION
  5
5A9
330
6F
100
AcDbEntity
  8
DXF0
  6
Continuous
 62
     3
100
AcDbDimension
280
     0
  2
*D24
 10
587.5092086814666
 20
156.8364496096263
 30
0.0
 11
587.0092086814666
 21
159.6188595635226
 31
0.0
 71
     5
 42
-1.0
 73
     0
 74
     0
 75
     0
  3
Standard
100
AcDbAlignedDimension
 13
592.7412277189612
 23
157.8364496093764
 33
0.0
 14
518.9620800525037
 24
156.8364496096263
 34
0.0
 50
90.0
100
AcDbRotatedDimension
  0
LINE
  5
5AA
330
6F
100
AcDbEntity
  8
COMMENT
  6
Continuous
100
AcDbLine
 10
242.7273721234328
 20
428.1555691123023
 30
0.0
 11
278.5878708238574
 21
454.3861132526422
 31
0.0
  0
LINE
  5
5AB
330
6F
100
AcDbEntity
  8
COMMENT
  6
Continuous
100
AcDbLine
 10
243.9873942923439
 20
429.8206048964408
 30
0.0
 11
242.7273721234328
 21
428.1555691123021
 31
0.0
  0
LINE
  5
5AC
330
6F
100
AcDbEntity
  8
COMMENT
  6
Continuous
100
AcDbLine
 10
242.7273721234328
 20
428.1555691123021
 30
0.0
 11
244.6958507113208
 21
428.8520546309146
 31
0.0
  0
LINE
  5
5AD
330
6F
100
AcDbEntity
  8
COMMENT
  6
Continuous
100
AcDbLine
 10
278.5878708238574
 20
454.3861132526422
 30
0.0
 11
331.8778694648715
 21
454.3861132526422
 31
0.0
  0
TEXT
  5
5AE
330
6F
100
AcDbEntity
  8
COMMENT
  6
Continuous
100
AcDbText
 10
281.0778708238574
 20
454.8861132526422
 30
0.0
 40
4.0
  1
アンカープラグ%%c8×40
  7
KNJYOKO
100
AcDbText
  0
TEXT
  5
5AF
330
6F
100
AcDbEntity
  8
COMMENT
  6
Continuous
100
AcDbText
 10
281.0778708238574
 20
449.8861132526421
 30
0.0
 40
4.0
  1
AP-840-D18-50
100
AcDbText
  0
LINE
  5
5B0
330
6F
100
AcDbEntity
  8
COMMENT
  6
Continuous
100
AcDbLine
 10
593.1750480483379
 20
435.7555691123013
 30
0.0
 11
576.9733739293314
 21
419.8595286624496
 31
0.0
  0
LINE
  5
5B1
330
6F
100
AcDbEntity
  8
COMMENT
  6
Continuous
100
AcDbLine
 10
576.9733739293315
 20
419.8595286624496
 30
0.0
 11
561.4833742869593
 21
419.8595286624496
 31
0.0
  0
TEXT
  5
5B2
330
6F
100
AcDbEntity
  8
COMMENT
  6
Continuous
100
AcDbText
 10
561.4833742869593
 20
420.3595286624496
 30
0.0
 40
4.0
  1
受け材
  7
KNJYOKO
100
AcDbText
  0
LINE
  5
5B3
330
6F
100
AcDbEntity
  8
COMMENT
  6
Continuous
100
AcDbLine
 10
607.7412277190031
 20
162.7364496094666
 30
0.0
 11
643.5199196779465
 21
190.4047600537179
 31
0.0
  0
LINE
  5
5B4
330
6F
100
AcDbEntity
  8
COMMENT
  6
Continuous
100
AcDbLine
 10
608.9563012648136
 20
164.4345651258205
 30
0.0
 11
607.7412277190031
 21
162.7364496094666
 31
0.0
  0
LINE
  5
5B5
330
6F
100
AcDbEntity
  8
COMMENT
  6
Continuous
100
AcDbLine
 10
607.7412277190031
 20
162.7364496094666
 30
0.0
 11
609.690389420245
 21
163.4852945139841
 31
0.0
  0
LINE
  5
5B6
330
6F
100
AcDbEntity
  8
COMMENT
  6
Continuous
100
AcDbLine
 10
643.5199196779464
 20
190.404760053718
 30
0.0
 11
703.1099181520676
 21
190.404760053718
 31
0.0
  0
TEXT
  5
5B7
330
6F
100
AcDbEntity
  8
COMMENT
  6
Continuous
100
AcDbText
 10
646.0099196779464
 20
190.904760053718
 30
0.0
 40
4.0
  1
ECPアンカー6×33
  7
KNJYOKO
100
AcDbText
  0
TEXT
  5
5B8
330
6F
100
AcDbEntity
  8
COMMENT
  6
Continuous
100
AcDbText
 10
646.0099196779464
 20
185.904760053718
 30
0.0
 40
4.0
  1
AK-ECP633-D18-50
100
AcDbText
  0
LINE
  5
5B9
330
6F
100
AcDbEntity
  8
COMMENT
  6
Continuous
100
AcDbLine
 10
598.1750480483379
 20
156.8364496096259
 30
0.0
 11
582.0624441692466
 21
147.8859808470895
 31
0.0
  0
LINE
  5
5BA
330
6F
100
AcDbEntity
  8
COMMENT
  6
Continuous
100
AcDbLine
 10
596.7180498999982
 20
155.3407369285454
 30
0.0
 11
598.175048048338
 21
156.836449609626
 31
0.0
  0
LINE
  5
5BB
330
6F
100
AcDbEntity
  8
COMMENT
  6
Continuous
100
AcDbLine
 10
598.175048048338
 20
156.836449609626
 30
0.0
 11
596.1353270077072
 21
156.3897527269207
 31
0.0
  0
LINE
  5
5BC
330
6F
100
AcDbEntity
  8
COMMENT
  6
Continuous
100
AcDbLine
 10
582.0624441692465
 20
147.8859808470895
 30
0.0
 11
566.5724445268742
 21
147.8859808470895
 31
0.0
  0
TEXT
  5
5BD
330
6F
100
AcDbEntity
  8
COMMENT
  6
Continuous
100
AcDbText
 10
566.5724445268742
 20
148.3859808470895
 30
0.0
 40
4.0
  1
受け材
  7
KNJYOKO
100
AcDbText
  0
LINE
  5
5BE
330
6F
100
AcDbEntity
  8
COMMENT
  6
Continuous
100
AcDbLine
 10
242.7273721234328
 20
164.2364496094663
 30
0.0
 11
278.506064082376
 21
191.9047600537177
 31
0.0
  0
LINE
  5
5BF
330
6F
100
AcDbEntity
  8
COMMENT
  6
Continuous
100
AcDbLine
 10
243.9424456692432
 20
165.9345651258201
 30
0.0
 11
242.7273721234327
 21
164.2364496094661
 31
0.0
  0
LINE
  5
5C0
330
6F
100
AcDbEntity
  8
COMMENT
  6
Continuous
100
AcDbLine
 10
242.7273721234328
 20
164.2364496094663
 30
0.0
 11
244.6765338246747
 21
164.9852945139838
 31
0.0
  0
LINE
  5
5C1
330
6F
100
AcDbEntity
  8
COMMENT
  6
Continuous
100
AcDbLine
 10
278.5060640823759
 20
191.9047600537176
 30
0.0
 11
345.2960623657622
 21
191.9047600537176
 31
0.0
  0
TEXT
  5
5C2
330
6F
100
AcDbEntity
  8
COMMENT
  6
Continuous
100
AcDbText
 10
280.9960640823759
 20
192.4047600537176
 30
0.0
 40
4.0
  1
シンワッシャー頭ドリルねじ4×40
  7
KNJYOKO
100
AcDbText
  0
TEXT
  5
5C3
330
6F
100
AcDbEntity
  8
COMMENT
  6
Continuous
100
AcDbText
 10
280.9960640823759
 20
187.4047600537176
 30
0.0
 40
4.0
  1
TBS-440-D18-50
100
AcDbText
  0
LINE
  5
5C4
330
6F
100
AcDbEntity
  8
COMMENT
  6
Continuous
100
AcDbLine
 10
223.1611924527676
 20
158.3364496096256
 30
0.0
 11
209.7929092491387
 21
136.1553105691824
 31
0.0
  0
LINE
  5
5C5
330
6F
100
AcDbEntity
  8
COMMENT
  6
Continuous
100
AcDbLine
 10
222.642704261856
 20
156.3137855187556
 30
0.0
 11
223.1611924527676
 21
158.3364496096256
 31
0.0
  0
LINE
  5
5C6
330
6F
100
AcDbEntity
  8
COMMENT
  6
Continuous
100
AcDbLine
 10
223.1611924527676
 20
158.3364496096256
 30
0.0
 11
221.6149330567057
 21
156.9332098194614
 31
0.0
  0
LINE
  5
5C7
330
6F
100
AcDbEntity
  8
COMMENT
  6
Continuous
100
AcDbLine
 10
209.7929092491388
 20
136.1553105691824
 30
0.0
 11
194.3029096067665
 21
136.1553105691824
 31
0.0
  0
TEXT
  5
5C8
330
6F
100
AcDbEntity
  8
COMMENT
  6
Continuous
100
AcDbText
 10
194.3029096067665
 20
136.6553105691824
 30
0.0
 40
4.0
  1
受け材
  7
KNJYOKO
100
AcDbText
  0
LINE
  5
5C9
330
6F
100
AcDbEntity
  8
COMMENT
  6
Continuous
100
AcDbLine
 10
227.7273721234328
 20
111.9183403354645
 30
0.0
 11
202.2584974083888
 21
97.00235121935929
 31
0.0
  0
LINE
  5
5CA
330
6F
100
AcDbEntity
  8
COMMENT
  6
Continuous
100
AcDbLine
 10
226.3047804902857
 20
110.3898662356152
 30
0.0
 11
227.7273721234328
 21
111.9183403354645
 31
0.0
  0
LINE
  5
5CB
330
6F
100
AcDbEntity
  8
COMMENT
  6
Continuous
100
AcDbLine
 10
227.7273721234328
 20
111.9183403354645
 30
0.0
 11
225.6983419786372
 21
111.4253528101446
 31
0.0
  0
LINE
  5
5CC
330
6F
100
AcDbEntity
  8
COMMENT
  6
Continuous
100
AcDbLine
 10
202.2584974083888
 20
97.00235121935929
 30
0.0
 11
167.0574965343463
 21
97.00235121935929
 31
0.0
  0
TEXT
  5
5CD
330
6F
100
AcDbEntity
  8
COMMENT
  6
Continuous
100
AcDbText
 10
167.0574965343463
 20
97.50235121935929
 30
0.0
 40
3.099999904632568
  1
St t=1.6mm以上
  7
KNJYOKO
100
AcDbText
  0
LINE
  5
5CE
330
6F
100
AcDbEntity
  8
COMMENT
  6
Continuous
100
AcDbLine
 10
225.2273721233696
 20
431.2537673600247
 30
0.0
 11
192.080627797438
 21
447.3191334913133
 31
0.0
  0
LINE
  5
5CF
330
6F
100
AcDbEntity
  8
COMMENT
  6
Continuous
100
AcDbLine
 10
223.1659328237933
 20
431.5861346911098
 30
0.0
 11
225.2273721233696
 21
431.2537673600247
 31
0.0
  0
LINE
  5
5D0
330
6F
100
AcDbEntity
  8
COMMENT
  6
Continuous
100
AcDbLine
 10
225.2273721233696
 20
431.2537673600249
 30
0.0
 11
223.689308517596
 21
432.6659856056243
 31
0.0
  0
LINE
  5
5D1
330
6F
100
AcDbEntity
  8
COMMENT
  6
Continuous
100
AcDbLine
 10
192.080627797438
 20
447.3191334913133
 30
0.0
 11
134.2906292756331
 21
447.3191334913133
 31
0.0
  0
TEXT
  5
5D2
330
6F
100
AcDbEntity
  8
COMMENT
  6
Continuous
100
AcDbText
 10
134.2906292756331
 20
447.8191334913133
 30
0.0
 40
4.0
  1
脱落防止ねじ(両端2ヶ所)
  7
KNJYOKO
100
AcDbText
  0
TEXT
  5
5D3
330
6F
100
AcDbEntity
  8
COMMENT
  6
Continuous
100
AcDbText
 10
134.2906292756331
 20
442.8191334913133
 30
0.0
 40
4.0
  1
トラス頭ドリルねじ4×13
  7
KNJYOKO
100
AcDbText
  0
TEXT
  5
5D4
330
6F
100
AcDbEntity
  8
COMMENT
  6
Continuous
100
AcDbText
 10
134.2906292756331
 20
437.8191334913132
 30
0.0
 40
4.0
  1
TBT-413-100
100
AcDbText
  0
LINE
  5
5D5
330
6F
100
AcDbEntity
  8
COMMENT
  6
Continuous
100
AcDbLine
 10
257.8879720846626
 20
459.8828898960023
 30
0.0
 11
270.395804426837
 21
466.9387956161931
 31
0.0
  0
LINE
  5
5D6
330
6F
100
AcDbEntity
  8
COMMENT
  6
Continuous
100
AcDbLine
 10
259.3351175425518
 20
461.3881374013386
 30
0.0
 11
257.8879720846627
 21
459.8828898960023
 31
0.0
  0
LINE
  5
5D7
330
6F
100
AcDbEntity
  8
COMMENT
  6
Continuous
100
AcDbLine
 10
257.8879720846625
 20
459.8828898960023
 30
0.0
 11
259.9247160120479
 21
460.342970544225
 31
0.0
  0
LINE
  5
5D8
330
6F
100
AcDbEntity
  8
COMMENT
  6
Continuous
100
AcDbLine
 10
270.3958044268371
 20
466.9387956161933
 30
0.0
 11
304.7858035685302
 21
466.9387956161933
 31
0.0
  0
TEXT
  5
5D9
330
6F
100
AcDbEntity
  8
COMMENT
  6
Continuous
100
AcDbText
 10
272.885804426837
 20
467.4387956161933
 30
0.0
 40
4.0
  1
アルミルーバー
  7
KNJYOKO
100
AcDbText
  0
TEXT
  5
5DA
330
6F
100
AcDbEntity
  8
COMMENT
  6
Continuous
100
AcDbText
 10
272.885804426837
 20
462.4387956161933
 30
0.0
 40
4.0
  1
CLKSW-3060
100
AcDbText
  0
LINE
  5
5DB
330
6F
100
AcDbEntity
  8
COMMENT
  6
Continuous
100
AcDbLine
 10
233.1611924527678
 20
420.7555691123013
 30
0.0
 11
216.9595183337613
 21
404.8595286624496
 31
0.0
  0
LINE
  5
5DC
330
6F
100
AcDbEntity
  8
COMMENT
  6
Continuous
100
AcDbLine
 10
232.1537827047387
 20
418.9266006521616
 30
0.0
 11
233.1611924527678
 21
420.7555691123014
 31
0.0
  0
LINE
  5
5DD
330
6F
100
AcDbEntity
  8
COMMENT
  6
Continuous
100
AcDbLine
 10
233.1611924527679
 20
420.7555691123014
 30
0.0
 11
231.3133722968282
 21
419.7831696573889
 31
0.0
  0
LINE
  5
5DE
330
6F
100
AcDbEntity
  8
COMMENT
  6
Continuous
100
AcDbLine
 10
216.9595183337613
 20
404.8595286624496
 30
0.0
 11
201.4695186913892
 21
404.8595286624496
 31
0.0
  0
TEXT
  5
5DF
330
6F
100
AcDbEntity
  8
COMMENT
  6
Continuous
100
AcDbText
 10
201.4695186913892
 20
405.3595286624496
 30
0.0
 40
4.0
  1
受け材
  7
KNJYOKO
100
AcDbText
  0
LINE
  5
5E0
330
6F
100
AcDbEntity
  8
COMMENT
  6
Continuous
100
AcDbLine
 10
252.0473447868658
 20
424.2555691123016
 30
0.0
 11
278.3819580462563
 21
439.6648643629863
 31
0.0
  0
LINE
  5
5E1
330
6F
100
AcDbEntity
  8
COMMENT
  6
Continuous
100
AcDbLine
 10
253.4705293237201
 20
425.7834911661608
 30
0.0
 11
252.0473447868658
 21
424.2555691123016
 31
0.0
  0
LINE
  5
5E2
330
6F
100
AcDbEntity
  8
COMMENT
  6
Continuous
100
AcDbLine
 10
252.0473447868658
 20
424.2555691123016
 30
0.0
 11
254.0765660461207
 21
424.747769386172
 31
0.0
  0
LINE
  5
5E3
330
6F
100
AcDbEntity
  8
COMMENT
  6
Continuous
100
AcDbLine
 10
278.3819580462563
 20
439.6648643629863
 30
0.0
 11
316.371957092582
 21
439.6648643629863
 31
0.0
  0
TEXT
  5
5E4
330
6F
100
AcDbEntity
  8
COMMENT
  6
Continuous
100
AcDbText
 10
280.8719580462563
 20
440.1648643629862
 30
0.0
 40
4.0
  1
平座金　
  7
KNJYOKO
100
AcDbText
  0
TEXT
  5
5E5
330
6F
100
AcDbEntity
  8
COMMENT
  6
Continuous
100
AcDbText
 10
280.8719580462563
 20
435.1648643629864
 30
0.0
 40
4.0
  1
D18mm t2mm
100
AcDbText
  0
TEXT
  5
5E6
330
6F
100
AcDbEntity
  8
COMMENT
  6
Continuous
100
AcDbText
 10
259.0226847039764
 20
348.5122722083679
 30
0.0
 40
5.300000190734863
  1
※　　　　　部に凸凹デザイン有り。
  7
KNJYOKO
100
AcDbText
  0
LINE
  5
5E7
330
6F
100
AcDbEntity
  8
LOUVER
  6
DASHED
100
AcDbLine
 10
266.4192913732679
 20
350.9379783061386
 30
0.0
 11
290.703173711493
 21
350.9379783061386
 31
0.0
  0
ENDSEC
  0
SECTION
  2
OBJECTS
  0
DICTIONARY
  5
C
330
0
100
AcDbDictionary
281
     1
  3
ACAD_CIP_PREVIOUS_PRODUCT_INFO
350
5EB
  3
ACAD_COLOR
350
62
  3
ACAD_DETAILVIEWSTYLE
350
69
  3
ACAD_GROUP
350
D
  3
ACAD_LAYOUT
350
61
  3
ACAD_MATERIAL
350
10
  3
ACAD_MLEADERSTYLE
350
65
  3
ACAD_MLINESTYLE
350
5E
  3
ACAD_PLOTSETTINGS
350
60
  3
ACAD_PLOTSTYLENAME
350
E
  3
ACAD_SCALELIST
350
42
  3
ACAD_SECTIONVIEWSTYLE
350
67
  3
ACAD_TABLESTYLE
350
63
  3
ACAD_VISUALSTYLE
350
29
  3
ACDB_RECOMPOSE_DATA
350
61E
  3
AcDbVariableDictionary
350
604
  0
DICTIONARY
  5
5EE
330
54
100
AcDbDictionary
280
     1
281
     1
  3
ADSK_XREC_LAYER_RECONCILED
360
5EF
  0
DICTIONARY
  5
5F0
330
76
100
AcDbDictionary
280
     1
281
     1
  3
ADSK_XREC_LAYER_RECONCILED
360
5F1
  0
DICTIONARY
  5
5F2
330
77
100
AcDbDictionary
280
     1
281
     1
  3
ADSK_XREC_LAYER_RECONCILED
360
5F3
  0
DICTIONARY
  5
5F4
330
78
100
AcDbDictionary
280
     1
281
     1
  3
ADSK_XREC_LAYER_RECONCILED
360
5F5
  0
DICTIONARY
  5
5F6
330
79
100
AcDbDictionary
280
     1
281
     1
  3
ADSK_XREC_LAYER_RECONCILED
360
5F7
  0
DICTIONARY
  5
5F8
330
7A
100
AcDbDictionary
280
     1
281
     1
  3
ADSK_XREC_LAYER_RECONCILED
360
5F9
  0
DICTIONARY
  5
5FA
330
7B
100
AcDbDictionary
280
     1
281
     1
  3
ADSK_XREC_LAYER_RECONCILED
360
5FB
  0
DICTIONARY
  5
5FC
330
7C
100
AcDbDictionary
280
     1
281
     1
  3
ADSK_XREC_LAYER_RECONCILED
360
5FD
  0
DICTIONARY
  5
5FE
330
7D
100
AcDbDictionary
280
     1
281
     1
  3
ADSK_XREC_LAYER_RECONCILED
360
5FF
  0
DICTIONARY
  5
600
330
7E
100
AcDbDictionary
280
     1
281
     1
  3
ADSK_XREC_LAYER_RECONCILED
360
601
  0
DICTIONARY
  5
602
330
7F
100
AcDbDictionary
280
     1
281
     1
  3
ADSK_XREC_LAYER_RECONCILED
360
603
  0
XRECORD
  5
5EB
102
{ACAD_REACTORS
330
C
102
}
330
C
100
AcDbXrecord
280
     1
300
ACD
300
2022
300

  0
DICTIONARY
  5
62
102
{ACAD_REACTORS
330
C
102
}
330
C
100
AcDbDictionary
281
     1
  0
DICTIONARY
  5
69
102
{ACAD_REACTORS
330
C
102
}
330
C
100
AcDbDictionary
281
     1
  3
Imperial24
350
6A
  3
Metric50
350
5E9
  0
DICTIONARY
  5
D
102
{ACAD_REACTORS
330
C
102
}
330
C
100
AcDbDictionary
281
     1
  0
DICTIONARY
  5
61
102
{ACAD_REACTORS
330
C
102
}
330
C
100
AcDbDictionary
281
     1
  3
Model
350
72
  3
レイアウト1
350
6E
  0
DICTIONARY
  5
10
102
{ACAD_REACTORS
330
C
102
}
330
C
100
AcDbDictionary
281
     1
  3
ByBlock
350
19
  3
ByLayer
350
11
  3
Global
350
21
  0
DICTIONARY
  5
65
102
{ACAD_REACTORS
330
C
102
}
330
C
100
AcDbDictionary
281
     1
  3
Standard
350
66
  0
DICTIONARY
  5
5E
102
{ACAD_REACTORS
330
C
102
}
330
C
100
AcDbDictionary
281
     1
  3
Standard
350
5F
  0
DICTIONARY
  5
60
102
{ACAD_REACTORS
330
C
102
}
330
C
100
AcDbDictionary
281
     1
  0
ACDBDICTIONARYWDFLT
  5
E
102
{ACAD_REACTORS
330
C
102
}
330
C
100
AcDbDictionary
281
     1
  3
Normal
350
F
100
AcDbDictionaryWithDefault
340
F
  0
DICTIONARY
  5
42
102
{ACAD_REACTORS
330
C
102
}
330
C
100
AcDbDictionary
281
     1
  3
A0
350
43
  3
A1
350
44
  3
A2
350
45
  3
A3
350
46
  3
A4
350
47
  3
A5
350
48
  3
A6
350
49
  3
A7
350
4A
  3
A8
350
4B
  3
A9
350
4C
  3
B0
350
4D
  3
B1
350
4E
  3
B2
350
4F
  3
B3
350
50
  3
B4
350
51
  3
B5
350
52
  3
B6
350
53
  0
DICTIONARY
  5
67
102
{ACAD_REACTORS
330
C
102
}
330
C
100
AcDbDictionary
281
     1
  3
Imperial24
350
68
  3
Metric50
350
5E8
  0
DICTIONARY
  5
63
102
{ACAD_REACTORS
330
C
102
}
330
C
100
AcDbDictionary
281
     1
  3
Standard
350
64
  0
DICTIONARY
  5
29
102
{ACAD_REACTORS
330
C
102
}
330
C
100
AcDbDictionary
281
     1
  3
2dWireframe
350
2F
  3
Basic
350
2E
  3
Brighten
350
35
  3
ColorChange
350
39
  3
Conceptual
350
32
  3
Dim
350
34
  3
EdgeColorOff
350
41
  3
Facepattern
350
38
  3
Flat
350
2A
  3
FlatWithEdges
350
2B
  3
Gouraud
350
2C
  3
GouraudWithEdges
350
2D
  3
Hidden
350
31
  3
JitterOff
350
3F
  3
Linepattern
350
37
  3
OverhangOff
350
40
  3
Realistic
350
33
  3
Shaded
350
3E
  3
Shaded with edges
350
3D
  3
Shades of Gray
350
3A
  3
Sketchy
350
3B
  3
Thicken
350
36
  3
Wireframe
350
30
  3
X-Ray
350
3C
  0
XRECORD
  5
61E
102
{ACAD_REACTORS
330
C
102
}
330
C
100
AcDbXrecord
280
     1
 90
        1
330
64
  0
DICTIONARY
  5
604
102
{ACAD_REACTORS
330
C
102
}
330
C
100
AcDbDictionary
281
     1
  3
CANNOSCALE
350
60A
  3
CMLEADERSTYLE
350
606
  3
CTABLESTYLE
350
605
  3
CVIEWDETAILSTYLE
350
607
  3
CVIEWSECTIONSTYLE
350
608
  3
LAYEREVAL
350
60C
  3
LAYERNOTIFY
350
60D
  3
LIGHTINGUNITS
350
60B
  3
MSLTSCALE
350
609
  0
XRECORD
  5
5EF
102
{ACAD_REACTORS
330
5EE
102
}
330
5EE
100
AcDbXrecord
280
     1
290
     1
  0
XRECORD
  5
5F1
102
{ACAD_REACTORS
330
5F0
102
}
330
5F0
100
AcDbXrecord
280
     1
290
     1
  0
XRECORD
  5
5F3
102
{ACAD_REACTORS
330
5F2
102
}
330
5F2
100
AcDbXrecord
280
     1
290
     1
  0
XRECORD
  5
5F5
102
{ACAD_REACTORS
330
5F4
102
}
330
5F4
100
AcDbXrecord
280
     1
290
     1
  0
XRECORD
  5
5F7
102
{ACAD_REACTORS
330
5F6
102
}
330
5F6
100
AcDbXrecord
280
     1
290
     1
  0
XRECORD
  5
5F9
102
{ACAD_REACTORS
330
5F8
102
}
330
5F8
100
AcDbXrecord
280
     1
290
     1
  0
XRECORD
  5
5FB
102
{ACAD_REACTORS
330
5FA
102
}
330
5FA
100
AcDbXrecord
280
     1
290
     1
  0
XRECORD
  5
5FD
102
{ACAD_REACTORS
330
5FC
102
}
330
5FC
100
AcDbXrecord
280
     1
290
     1
  0
XRECORD
  5
5FF
102
{ACAD_REACTORS
330
5FE
102
}
330
5FE
100
AcDbXrecord
280
     1
290
     1
  0
XRECORD
  5
601
102
{ACAD_REACTORS
330
600
102
}
330
600
100
AcDbXrecord
280
     1
290
     1
  0
XRECORD
  5
603
102
{ACAD_REACTORS
330
602
102
}
330
602
100
AcDbXrecord
280
     1
290
     1
  0
ACDBDETAILVIEWSTYLE
  5
6A
102
{ACAD_REACTORS
330
69
102
}
330
69
100
AcDbModelDocViewStyle
 70
     0
  3
Imperial24
290
     0
300
Imperial24
 90
        0
100
AcDbDetailViewStyle
 70
     0
 71
     0
 90
        3
 71
     1
340
55
 62
   256
 40
0.24
340
0
 62
   256
 40
0.24
300

 40
0.36
280
     3
 71
     2
340
5C
 90
       25
 62
   256
 71
     3
340
55
 62
   256
 40
0.24
 90
        1
 40
0.75
 90
        1
300
%<\AcVar ViewType \f "%tc1">% %<\AcVar ViewDetailId>%\PSCALE %<\AcVar ViewScale \f "%sn">%
 71
     4
340
5C
 90
       25
 62
   256
340
5C
 90
       25
 62
   256
280
     0
  0
ACDBDETAILVIEWSTYLE
  5
5E9
102
{ACAD_REACTORS
330
69
102
}
330
69
100
AcDbModelDocViewStyle
 70
     0
  3
Metric50
290
     0
300
Metric50
 90
        0
100
AcDbDetailViewStyle
 70
     0
 71
     0
 90
        3
 71
     1
340
55
 62
   256
 40
5.0
340
0
 62
   256
 40
5.0
300

 40
0.0
280
     1
 71
     2
340
5C
 90
       25
 62
   256
 71
     3
340
55
 62
   256
 40
5.0
 90
        0
 40
15.0
 90
        1
300
%<\AcVar ViewDetailId>% (%<\AcVar ViewScale \f "%sn">%)
 71
     4
340
5C
 90
       25
 62
   256
340
5C
 90
       25
 62
   256
280
     0
  0
LAYOUT
  5
72
102
{ACAD_REACTORS
330
61
102
}
330
61
100
AcDbPlotSettings
  1

  2
RICOH MP C2503 JPN RPCS V2
  4

  6

 40
0.0
 41
0.0
 42
0.0
 43
0.0
 44
0.0
 45
0.0
 46
0.0
 47
0.0
 48
0.0
 49
0.0
140
0.0
141
0.0
142
1.0
143
1.0
 70
  1712
 72
     0
 73
     0
 74
     0
  7

 75
     0
147
1.0
 76
     0
 77
     2
 78
   300
148
0.0
149
0.0
100
AcDbLayout
  1
Model
 70
     1
 71
     0
 10
0.0
 20
0.0
 11
12.0
 21
9.0
 12
0.0
 22
0.0
 32
0.0
 14
0.0
 24
0.0
 34
0.0
 15
0.0
 25
0.0
 35
0.0
146
0.0
 13
0.0
 23
0.0
 33
0.0
 16
1.0
 26
0.0
 36
0.0
 17
0.0
 27
1.0
 37
0.0
 76
     0
330
6F
331
85
  0
LAYOUT
  5
6E
102
{ACAD_REACTORS
330
61
102
}
330
61
100
AcDbPlotSettings
  1

  2
RICOH MP C2503 JPN RPCS V2
  4

  6

 40
0.0
 41
0.0
 42
0.0
 43
0.0
 44
0.0
 45
0.0
 46
0.0
 47
0.0
 48
0.0
 49
0.0
140
0.0
141
0.0
142
1.0
143
1.0
 70
   688
 72
     0
 73
     0
 74
     5
  7

 75
    16
147
1.0
 76
     0
 77
     2
 78
   300
148
0.0
149
0.0
100
AcDbLayout
  1
レイアウト1
 70
     1
 71
     1
 10
0.0
 20
0.0
 11
12.0
 21
9.0
 12
0.0
 22
0.0
 32
0.0
 14
1.000000000000000E+20
 24
1.000000000000000E+20
 34
1.000000000000000E+20
 15
-1.000000000000000E+20
 25
-1.000000000000000E+20
 35
-1.000000000000000E+20
146
0.0
 13
0.0
 23
0.0
 33
0.0
 16
1.0
 26
0.0
 36
0.0
 17
0.0
 27
1.0
 37
0.0
 76
     0
330
6B
  0
MATERIAL
  5
19
102
{ACAD_XDICTIONARY
360
1A
102
}
102
{ACAD_REACTORS
330
10
102
}
330
10
100
AcDbMaterial
  1
ByBlock
 72
     0
 43
0.0208333333333333
 43
0.0
 43
0.0
 43
0.0
 43
0.0
 43
0.0208333333333333
 43
0.0
 43
0.0
 43
0.0
 43
0.0
 43
1.0
 43
0.0
 43
0.0
 43
0.0
 43
0.0
 43
1.0
 77
     0
 47
0.0208333333333333
 47
0.0
 47
0.0
 47
0.0
 47
0.0
 47
0.0208333333333333
 47
0.0
 47
0.0
 47
0.0
 47
0.0
 47
1.0
 47
0.0
 47
0.0
 47
0.0
 47
0.0
 47
1.0
171
     0
 49
0.0208333333333333
 49
0.0
 49
0.0
 49
0.0
 49
0.0
 49
0.0208333333333333
 49
0.0
 49
0.0
 49
0.0
 49
0.0
 49
1.0
 49
0.0
 49
0.0
 49
0.0
 49
0.0
 49
1.0
175
     0
142
0.0208333333333333
142
0.0
142
0.0
142
0.0
142
0.0
142
0.0208333333333333
142
0.0
142
0.0
142
0.0
142
0.0
142
1.0
142
0.0
142
0.0
142
0.0
142
0.0
142
1.0
179
     0
144
0.0208333333333333
144
0.0
144
0.0
144
0.0
144
0.0
144
0.0208333333333333
144
0.0
144
0.0
144
0.0
144
0.0
144
1.0
144
0.0
144
0.0
144
0.0
144
0.0
144
1.0
147
0.0208333333333333
147
0.0
147
0.0
147
0.0
147
0.0
147
0.0208333333333333
147
0.0
147
0.0
147
0.0
147
0.0
147
1.0
147
0.0
147
0.0
147
0.0
147
0.0
147
1.0
  0
MATERIAL
  5
11
102
{ACAD_XDICTIONARY
360
12
102
}
102
{ACAD_REACTORS
330
10
102
}
330
10
100
AcDbMaterial
  1
ByLayer
 72
     0
 43
0.0208333333333333
 43
0.0
 43
0.0
 43
0.0
 43
0.0
 43
0.0208333333333333
 43
0.0
 43
0.0
 43
0.0
 43
0.0
 43
1.0
 43
0.0
 43
0.0
 43
0.0
 43
0.0
 43
1.0
 77
     0
 47
0.0208333333333333
 47
0.0
 47
0.0
 47
0.0
 47
0.0
 47
0.0208333333333333
 47
0.0
 47
0.0
 47
0.0
 47
0.0
 47
1.0
 47
0.0
 47
0.0
 47
0.0
 47
0.0
 47
1.0
171
     0
 49
0.0208333333333333
 49
0.0
 49
0.0
 49
0.0
 49
0.0
 49
0.0208333333333333
 49
0.0
 49
0.0
 49
0.0
 49
0.0
 49
1.0
 49
0.0
 49
0.0
 49
0.0
 49
0.0
 49
1.0
175
     0
142
0.0208333333333333
142
0.0
142
0.0
142
0.0
142
0.0
142
0.0208333333333333
142
0.0
142
0.0
142
0.0
142
0.0
142
1.0
142
0.0
142
0.0
142
0.0
142
0.0
142
1.0
179
     0
144
0.0208333333333333
144
0.0
144
0.0
144
0.0
144
0.0
144
0.0208333333333333
144
0.0
144
0.0
144
0.0
144
0.0
144
1.0
144
0.0
144
0.0
144
0.0
144
0.0
144
1.0
147
0.0208333333333333
147
0.0
147
0.0
147
0.0
147
0.0
147
0.0208333333333333
147
0.0
147
0.0
147
0.0
147
0.0
147
1.0
147
0.0
147
0.0
147
0.0
147
0.0
147
1.0
  0
MATERIAL
  5
21
102
{ACAD_XDICTIONARY
360
22
102
}
102
{ACAD_REACTORS
330
10
102
}
330
10
100
AcDbMaterial
  1
Global
 72
     0
 43
0.0208333333333333
 43
0.0
 43
0.0
 43
0.0
 43
0.0
 43
0.0208333333333333
 43
0.0
 43
0.0
 43
0.0
 43
0.0
 43
1.0
 43
0.0
 43
0.0
 43
0.0
 43
0.0
 43
1.0
 77
     0
 47
0.0208333333333333
 47
0.0
 47
0.0
 47
0.0
 47
0.0
 47
0.0208333333333333
 47
0.0
 47
0.0
 47
0.0
 47
0.0
 47
1.0
 47
0.0
 47
0.0
 47
0.0
 47
0.0
 47
1.0
171
     0
 49
0.0208333333333333
 49
0.0
 49
0.0
 49
0.0
 49
0.0
 49
0.0208333333333333
 49
0.0
 49
0.0
 49
0.0
 49
0.0
 49
1.0
 49
0.0
 49
0.0
 49
0.0
 49
0.0
 49
1.0
175
     0
142
0.0208333333333333
142
0.0
142
0.0
142
0.0
142
0.0
142
0.0208333333333333
142
0.0
142
0.0
142
0.0
142
0.0
142
1.0
142
0.0
142
0.0
142
0.0
142
0.0
142
1.0
179
     0
144
0.0208333333333333
144
0.0
144
0.0
144
0.0
144
0.0
144
0.0208333333333333
144
0.0
144
0.0
144
0.0
144
0.0
144
1.0
144
0.0
144
0.0
144
0.0
144
0.0
144
1.0
147
0.0208333333333333
147
0.0
147
0.0
147
0.0
147
0.0
147
0.0208333333333333
147
0.0
147
0.0
147
0.0
147
0.0
147
1.0
147
0.0
147
0.0
147
0.0
147
0.0
147
1.0
  0
MLEADERSTYLE
  5
66
102
{ACAD_REACTORS
330
65
102
}
330
65
100
AcDbMLeaderStyle
179
     2
170
     2
171
     1
172
     0
 90
        2
 40
0.0
 41
0.0
173
     1
 91
-1056964608
340
5A
 92
       -2
290
     1
 42
0.09
291
     1
 43
0.36
  3
Standard
 44
0.18
300

342
55
174
     1
178
     6
175
     1
176
     0
 93
-1056964608
 45
0.18
292
     0
297
     0
 46
0.18
 94
-1056964608
 47
1.0
 49
1.0
140
1.0
293
     1
141
0.0
294
     1
177
     0
142
1.0
295
     0
296
     0
143
0.125
271
     0
272
     9
273
     9
298
     0
  0
MLINESTYLE
  5
5F
102
{ACAD_REACTORS
330
5E
102
}
330
5E
100
AcDbMlineStyle
  2
STANDARD
 70
     0
  3

 62
   256
 51
90.0
 52
90.0
 71
     2
 49
0.5
 62
   256
  6
BYLAYER
 49
-0.5
 62
   256
  6
BYLAYER
  0
ACDBPLACEHOLDER
  5
F
102
{ACAD_REACTORS
330
E
102
}
330
E
  0
SCALE
  5
43
102
{ACAD_REACTORS
330
42
102
}
330
42
100
AcDbScale
 70
     0
300
1:1
140
1.0
141
1.0
290
     1
  0
SCALE
  5
44
102
{ACAD_REACTORS
330
42
102
}
330
42
100
AcDbScale
 70
     0
300
1/128" = 1'-0"
140
0.0078125
141
12.0
290
     0
  0
SCALE
  5
45
102
{ACAD_REACTORS
330
42
102
}
330
42
100
AcDbScale
 70
     0
300
1/64" = 1'-0"
140
0.015625
141
12.0
290
     0
  0
SCALE
  5
46
102
{ACAD_REACTORS
330
42
102
}
330
42
100
AcDbScale
 70
     0
300
1/32" = 1'-0"
140
0.03125
141
12.0
290
     0
  0
SCALE
  5
47
102
{ACAD_REACTORS
330
42
102
}
330
42
100
AcDbScale
 70
     0
300
1/16" = 1'-0"
140
0.0625
141
12.0
290
     0
  0
SCALE
  5
48
102
{ACAD_REACTORS
330
42
102
}
330
42
100
AcDbScale
 70
     0
300
3/32" = 1'-0"
140
0.09375
141
12.0
290
     0
  0
SCALE
  5
49
102
{ACAD_REACTORS
330
42
102
}
330
42
100
AcDbScale
 70
     0
300
1/8" = 1'-0"
140
0.125
141
12.0
290
     0
  0
SCALE
  5
4A
102
{ACAD_REACTORS
330
42
102
}
330
42
100
AcDbScale
 70
     0
300
3/16" = 1'-0"
140
0.1875
141
12.0
290
     0
  0
SCALE
  5
4B
102
{ACAD_REACTORS
330
42
102
}
330
42
100
AcDbScale
 70
     0
300
1/4" = 1'-0"
140
0.25
141
12.0
290
     0
  0
SCALE
  5
4C
102
{ACAD_REACTORS
330
42
102
}
330
42
100
AcDbScale
 70
     0
300
3/8" = 1'-0"
140
0.375
141
12.0
290
     0
  0
SCALE
  5
4D
102
{ACAD_REACTORS
330
42
102
}
330
42
100
AcDbScale
 70
     0
300
1/2" = 1'-0"
140
0.5
141
12.0
290
     0
  0
SCALE
  5
4E
102
{ACAD_REACTORS
330
42
102
}
330
42
100
AcDbScale
 70
     0
300
3/4" = 1'-0"
140
0.75
141
12.0
290
     0
  0
SCALE
  5
4F
102
{ACAD_REACTORS
330
42
102
}
330
42
100
AcDbScale
 70
     0
300
1" = 1'-0"
140
1.0
141
12.0
290
     0
  0
SCALE
  5
50
102
{ACAD_REACTORS
330
42
102
}
330
42
100
AcDbScale
 70
     0
300
1-1/2" = 1'-0"
140
1.5
141
12.0
290
     0
  0
SCALE
  5
51
102
{ACAD_REACTORS
330
42
102
}
330
42
100
AcDbScale
 70
     0
300
3" = 1'-0"
140
3.0
141
12.0
290
     0
  0
SCALE
  5
52
102
{ACAD_REACTORS
330
42
102
}
330
42
100
AcDbScale
 70
     0
300
6" = 1'-0"
140
6.0
141
12.0
290
     0
  0
SCALE
  5
53
102
{ACAD_REACTORS
330
42
102
}
330
42
100
AcDbScale
 70
     0
300
1'-0" = 1'-0"
140
12.0
141
12.0
290
     0
  0
ACDBSECTIONVIEWSTYLE
  5
68
102
{ACAD_REACTORS
330
67
102
}
330
67
100
AcDbModelDocViewStyle
 70
     0
  3
Imperial24
290
     0
300
Imperial24
 90
        0
100
AcDbSectionViewStyle
 70
     0
 71
     0
 90
       78
 71
     1
340
55
 62
   256
 40
0.24
340
0
340
0
 62
   256
 40
0.24
300
I, O, Q, S, X, Z
 40
0.48
 90
        3
 40
0.18
 90
        1
 71
     2
340
5C
 90
       25
 62
   256
340
5C
 90
       50
 62
   256
 40
0.24
 40
0.0
 40
0.24
 71
     3
340
55
 62
   256
 40
0.24
 90
        1
 40
0.75
 90
        1
300
%<\AcVar ViewType \f "%tc1">% %<\AcVar ViewSectionStartId>%-%<\AcVar ViewSectionEndId>%\PSCALE %<\AcVar ViewScale \f "%sn">%
 71
     4
 62
   256
 62
   257
300
ANSI31
 40
1.0
 90
        0
290
     0
290
     0
 90
        6
 40
0.0
 40
1.570796326794896
 40
0.2617993877991494
 40
1.308996938995747
 40
-0.2617993877991494
 40
1.832595714594045
  0
ACDBSECTIONVIEWSTYLE
  5
5E8
102
{ACAD_REACTORS
330
67
102
}
330
67
100
AcDbModelDocViewStyle
 70
     0
  3
Metric50
290
     0
300
Metric50
 90
        0
100
AcDbSectionViewStyle
 70
     0
 71
     0
 90
      102
 71
     1
340
55
 62
   256
 40
5.0
340
0
340
0
 62
   256
 40
5.0
300
I, O, Q, S, X, Z
 40
10.0
 90
        0
 40
2.5
 90
        0
 71
     2
340
5C
 90
       25
 62
   256
340
5C
 90
       50
 62
   256
 40
5.0
 40
2.5
 40
5.0
 71
     3
340
55
 62
   256
 40
5.0
 90
        0
 40
15.0
 90
        1
300
%<\AcVar ViewSectionStartId>%-%<\AcVar ViewSectionEndId>% (%<\AcVar ViewScale \f "%sn">%)
 71
     4
 62
   256
 62
   257
300
ANSI31
 40
1.0
 90
        0
290
     0
290
     0
 90
        6
 40
0.0
 40
1.570796326794896
 40
0.2617993877991494
 40
1.308996938995747
 40
-0.2617993877991494
 40
1.832595714594045
  0
TABLESTYLE
  5
64
102
{ACAD_XDICTIONARY
360
60F
102
}
102
{ACAD_REACTORS
330
63
102
}
330
63
100
AcDbTableStyle
280
     0
  3
Standard
 70
     0
 71
     0
 40
0.06
 41
0.06
280
     0
281
     0
  7
STANDARD
140
0.18
170
     2
 62
     0
 63
     7
283
     0
 90
      512
 91
        0
  1

274
    -2
284
     1
 64
     0
275
    -2
285
     1
 65
     0
276
    -2
286
     1
 66
     0
277
    -2
287
     1
 67
     0
278
    -2
288
     1
 68
     0
279
    -2
289
     1
 69
     0
  7
STANDARD
140
0.25
170
     5
 62
     0
 63
     7
283
     0
 90
      512
 91
        0
  1

274
    -2
284
     1
 64
     0
275
    -2
285
     1
 65
     0
276
    -2
286
     1
 66
     0
277
    -2
287
     1
 67
     0
278
    -2
288
     1
 68
     0
279
    -2
289
     1
 69
     0
  7
STANDARD
140
0.18
170
     5
 62
     0
 63
     7
283
     0
 90
      512
 91
        0
  1

274
    -2
284
     1
 64
     0
275
    -2
285
     1
 65
     0
276
    -2
286
     1
 66
     0
277
    -2
287
     1
 67
     0
278
    -2
288
     1
 68
     0
279
    -2
289
     1
 69
     0
  0
VISUALSTYLE
  5
2F
102
{ACAD_REACTORS
330
29
102
}
330
29
100
AcDbVisualStyle
  2
2dWireframe
 70
     4
177
     3
291
     0
 70
    58
 90
        0
176
     1
 90
        2
176
     1
 90
        0
176
     1
 90
        0
176
     1
 40
0.6
176
     1
 40
30.0
176
     1
 62
     7
420
 16777215
176
     1
 90
        1
176
     1
 90
        4
176
     1
 62
     7
176
     1
 62
   257
176
     1
 90
        1
176
     1
 90
        1
176
     1
 40
1.0
176
     1
 90
        0
176
     1
 62
   257
176
     1
 40
1.0
176
     1
 90
        1
176
     1
 90
        6
176
     1
 90
        2
176
     1
 62
     7
176
     1
 90
        5
176
     1
 90
        0
176
     1
 90
        0
176
     1
290
     0
176
     1
 90
        1
176
     1
 40
0.0
176
     1
 90
        0
176
     1
290
     1
176
     1
290
     1
176
     1
290
     0
176
     1
290
     0
176
     1
290
     0
176
     1
290
     0
176
     1
290
     0
176
     1
290
     0
176
     1
290
     0
176
     1
 90
       50
176
     1
 40
0.0
176
     1
 40
1.0
176
     1
 90
        0
176
     1
 62
    18
176
     1
 90
       50
176
     1
 90
        3
176
     1
 62
     5
420
      255
176
     1
290
     0
176
     1
 90
       50
176
     1
 90
       50
176
     1
 90
       50
176
     1
290
     0
176
     1
 90
       50
176
     1
 62
   256
176
     0
 40
1.0
176
     0
 90
        2
176
     1
  1
strokes_ogs.tif
176
     1
290
     0
176
     1
 40
1.0
176
     1
 40
1.0
176
     1
  0
VISUALSTYLE
  5
2E
102
{ACAD_REACTORS
330
29
102
}
330
29
100
AcDbVisualStyle
  2
Basic
 70
     7
177
     3
291
     1
 70
    58
 90
        1
176
     1
 90
        0
176
     1
 90
        1
176
     1
 90
        0
176
     1
 40
0.6
176
     1
 40
30.0
176
     1
 62
     7
420
 16777215
176
     1
 90
        0
176
     1
 90
        4
176
     1
 62
     7
176
     1
 62
   257
176
     1
 90
        1
176
     1
 90
        1
176
     1
 40
1.0
176
     1
 90
        8
176
     1
 62
     7
176
     1
 40
1.0
176
     1
 90
        1
176
     1
 90
        6
176
     1
 90
        2
176
     1
 62
     7
176
     1
 90
        5
176
     1
 90
        0
176
     1
 90
        0
176
     1
290
     0
176
     1
 90
        1
176
     1
 40
0.0
176
     1
 90
        0
176
     1
290
     0
176
     1
290
     1
176
     1
290
     1
176
     1
290
     0
176
     1
290
     0
176
     1
290
     0
176
     1
290
     0
176
     1
290
     0
176
     1
290
     0
176
     1
 90
       50
176
     1
 40
0.0
176
     1
 40
1.0
176
     1
 90
        0
176
     1
 62
    18
176
     1
 90
       50
176
     1
 90
        3
176
     1
 62
     5
420
      255
176
     1
290
     0
176
     1
 90
       50
176
     1
 90
       50
176
     1
 90
       50
176
     1
290
     0
176
     1
 90
       50
176
     1
 62
   256
176
     0
 40
1.0
176
     0
 90
        2
176
     1
  1
strokes_ogs.tif
176
     1
290
     0
176
     1
 40
1.0
176
     1
 40
1.0
176
     1
  0
VISUALSTYLE
  5
35
102
{ACAD_REACTORS
330
29
102
}
330
29
100
AcDbVisualStyle
  2
Brighten
 70
    12
177
     3
291
     1
 70
    58
 90
        2
176
     1
 90
        2
176
     1
 90
        0
176
     1
 90
        0
176
     1
 40
0.6
176
     1
 40
30.0
176
     1
 62
     7
420
 16777215
176
     1
 90
        1
176
     1
 90
        4
176
     1
 62
     7
176
     1
 62
   257
176
     1
 90
        1
176
     1
 90
        1
176
     1
 40
1.0
176
     1
 90
        8
176
     1
 62
     7
176
     1
 40
1.0
176
     1
 90
        1
176
     1
 90
        6
176
     1
 90
        2
176
     1
 62
     7
176
     1
 90
        5
176
     1
 90
        0
176
     1
 90
        0
176
     1
290
     0
176
     1
 90
        1
176
     1
 40
50.0
176
     1
 90
        0
176
     1
290
     0
176
     1
290
     1
176
     1
290
     1
176
     1
290
     0
176
     1
290
     0
176
     1
290
     0
176
     1
290
     0
176
     1
290
     0
176
     1
290
     0
176
     1
 90
       50
176
     1
 40
0.0
176
     1
 40
1.0
176
     1
 90
        0
176
     1
 62
    18
176
     1
 90
       50
176
     1
 90
        3
176
     1
 62
     5
420
      255
176
     1
290
     0
176
     1
 90
       50
176
     1
 90
       50
176
     1
 90
       50
176
     1
290
     0
176
     1
 90
       50
176
     1
 62
   256
176
     0
 40
1.0
176
     0
 90
        2
176
     1
  1
strokes_ogs.tif
176
     1
290
     0
176
     1
 40
1.0
176
     1
 40
1.0
176
     1
  0
VISUALSTYLE
  5
39
102
{ACAD_REACTORS
330
29
102
}
330
29
100
AcDbVisualStyle
  2
ColorChange
 70
    16
177
     3
291
     1
 70
    58
 90
        2
176
     1
 90
        2
176
     1
 90
        3
176
     1
 90
        0
176
     1
 40
0.6
176
     1
 40
30.0
176
     1
 62
     8
420
  8421504
176
     1
 90
        1
176
     1
 90
        4
176
     1
 62
     7
176
     1
 62
   257
176
     1
 90
        1
176
     1
 90
        1
176
     1
 40
1.0
176
     1
 90
        8
176
     1
 62
     8
420
  8421504
176
     1
 40
1.0
176
     1
 90
        1
176
     1
 90
        6
176
     1
 90
        2
176
     1
 62
     7
176
     1
 90
        5
176
     1
 90
        0
176
     1
 90
        0
176
     1
290
     0
176
     1
 90
        1
176
     1
 40
0.0
176
     1
 90
        0
176
     1
290
     0
176
     1
290
     1
176
     1
290
     1
176
     1
290
     0
176
     1
290
     0
176
     1
290
     0
176
     1
290
     0
176
     1
290
     0
176
     1
290
     0
176
     1
 90
       50
176
     1
 40
0.0
176
     1
 40
1.0
176
     1
 90
        0
176
     1
 62
    18
176
     1
 90
       50
176
     1
 90
        3
176
     1
 62
     5
420
      255
176
     1
290
     0
176
     1
 90
       50
176
     1
 90
       50
176
     1
 90
       50
176
     1
290
     0
176
     1
 90
       50
176
     1
 62
   256
176
     0
 40
1.0
176
     0
 90
        2
176
     1
  1
strokes_ogs.tif
176
     1
290
     0
176
     1
 40
1.0
176
     1
 40
1.0
176
     1
  0
VISUALSTYLE
  5
32
102
{ACAD_REACTORS
330
29
102
}
330
29
100
AcDbVisualStyle
  2
Conceptual
 70
     9
177
     3
291
     0
 70
    58
 90
        3
176
     1
 90
        2
176
     1
 90
        0
176
     1
 90
        0
176
     1
 40
0.6
176
     1
 40
30.0
176
     1
 62
     7
420
 16777215
176
     1
 90
        2
176
     1
 90
        2
176
     1
 62
     7
176
     1
 62
   257
176
     1
 90
        1
176
     1
 90
        1
176
     1
 40
179.0
176
     1
 90
        8
176
     1
 62
     7
176
     1
 40
1.0
176
     1
 90
        1
176
     1
 90
        6
176
     1
 90
        2
176
     1
 62
     7
176
     1
 90
        3
176
     1
 90
        0
176
     1
 90
        0
176
     1
290
     0
176
     1
 90
        1
176
     1
 40
0.0
176
     1
 90
        0
176
     1
290
     0
176
     1
290
     1
176
     1
290
     1
176
     1
290
     0
176
     1
290
     0
176
     1
290
     0
176
     1
290
     0
176
     1
290
     0
176
     1
290
     0
176
     1
 90
       50
176
     1
 40
0.0
176
     1
 40
1.0
176
     1
 90
        0
176
     1
 62
    18
176
     1
 90
       50
176
     1
 90
        3
176
     1
 62
     5
420
      255
176
     1
290
     0
176
     1
 90
       50
176
     1
 90
       50
176
     1
 90
       50
176
     1
290
     0
176
     1
 90
       50
176
     1
 62
   256
176
     0
 40
1.0
176
     0
 90
        2
176
     1
  1
strokes_ogs.tif
176
     1
290
     0
176
     1
 40
1.0
176
     1
 40
1.0
176
     1
  0
VISUALSTYLE
  5
34
102
{ACAD_REACTORS
330
29
102
}
330
29
100
AcDbVisualStyle
  2
Dim
 70
    11
177
     3
291
     1
 70
    58
 90
        2
176
     1
 90
        2
176
     1
 90
        0
176
     1
 90
        0
176
     1
 40
0.6
176
     1
 40
30.0
176
     1
 62
     7
420
 16777215
176
     1
 90
        1
176
     1
 90
        4
176
     1
 62
     7
176
     1
 62
   257
176
     1
 90
        1
176
     1
 90
        1
176
     1
 40
1.0
176
     1
 90
        8
176
     1
 62
     7
176
     1
 40
1.0
176
     1
 90
        1
176
     1
 90
        6
176
     1
 90
        2
176
     1
 62
     7
176
     1
 90
        5
176
     1
 90
        0
176
     1
 90
        0
176
     1
290
     0
176
     1
 90
        1
176
     1
 40
-50.0
176
     1
 90
        0
176
     1
290
     0
176
     1
290
     1
176
     1
290
     1
176
     1
290
     0
176
     1
290
     0
176
     1
290
     0
176
     1
290
     0
176
     1
290
     0
176
     1
290
     0
176
     1
 90
       50
176
     1
 40
0.0
176
     1
 40
1.0
176
     1
 90
        0
176
     1
 62
    18
176
     1
 90
       50
176
     1
 90
        3
176
     1
 62
     5
420
      255
176
     1
290
     0
176
     1
 90
       50
176
     1
 90
       50
176
     1
 90
       50
176
     1
290
     0
176
     1
 90
       50
176
     1
 62
   256
176
     0
 40
1.0
176
     0
 90
        2
176
     1
  1
strokes_ogs.tif
176
     1
290
     0
176
     1
 40
1.0
176
     1
 40
1.0
176
     1
  0
VISUALSTYLE
  5
41
102
{ACAD_REACTORS
330
29
102
}
330
29
100
AcDbVisualStyle
  2
EdgeColorOff
 70
    22
177
     3
291
     1
 70
    58
 90
        2
176
     0
 90
        2
176
     0
 90
        0
176
     0
 90
        0
176
     0
 40
0.6
176
     0
 40
30.0
176
     0
 62
     7
420
 16777215
176
     0
 90
        1
176
     0
 90
        4
176
     0
 62
     7
176
     0
 62
   257
176
     0
 90
        1
176
     0
 90
        1
176
     0
 40
1.0
176
     0
 90
        8
176
     2
 62
     7
176
     0
 40
1.0
176
     0
 90
        1
176
     0
 90
        6
176
     0
 90
        2
176
     0
 62
     7
176
     0
 90
        5
176
     0
 90
        0
176
     0
 90
        0
176
     0
290
     0
176
     0
 90
        1
176
     0
 40
0.0
176
     0
 90
        0
176
     0
290
     0
176
     1
290
     1
176
     1
290
     1
176
     1
290
     0
176
     1
290
     0
176
     1
290
     0
176
     1
290
     0
176
     1
290
     0
176
     1
290
     0
176
     1
 90
       50
176
     0
 40
0.0
176
     0
 40
1.0
176
     0
 90
        0
176
     0
 62
    18
176
     0
 90
       50
176
     0
 90
        3
176
     0
 62
     5
420
      255
176
     0
290
     0
176
     1
 90
       50
176
     0
 90
       50
176
     0
 90
       50
176
     0
290
     0
176
     1
 90
       50
176
     0
 62
   256
176
     0
 40
1.0
176
     0
 90
        2
176
     0
  1
strokes_ogs.tif
176
     0
290
     0
176
     1
 40
1.0
176
     0
 40
1.0
176
     0
  0
VISUALSTYLE
  5
38
102
{ACAD_REACTORS
330
29
102
}
330
29
100
AcDbVisualStyle
  2
Facepattern
 70
    15
177
     3
291
     1
 70
    58
 90
        2
176
     1
 90
        2
176
     1
 90
        0
176
     1
 90
        0
176
     1
 40
0.6
176
     1
 40
30.0
176
     1
 62
     7
420
 16777215
176
     1
 90
        1
176
     1
 90
        4
176
     1
 62
     7
176
     1
 62
   257
176
     1
 90
        1
176
     1
 90
        1
176
     1
 40
1.0
176
     1
 90
        8
176
     1
 62
     7
176
     1
 40
1.0
176
     1
 90
        1
176
     1
 90
        6
176
     1
 90
        2
176
     1
 62
     7
176
     1
 90
        5
176
     1
 90
        0
176
     1
 90
        0
176
     1
290
     0
176
     1
 90
        1
176
     1
 40
0.0
176
     1
 90
        0
176
     1
290
     0
176
     1
290
     1
176
     1
290
     1
176
     1
290
     0
176
     1
290
     0
176
     1
290
     0
176
     1
290
     0
176
     1
290
     0
176
     1
290
     0
176
     1
 90
       50
176
     1
 40
0.0
176
     1
 40
1.0
176
     1
 90
        0
176
     1
 62
    18
176
     1
 90
       50
176
     1
 90
        3
176
     1
 62
     5
420
      255
176
     1
290
     0
176
     1
 90
       50
176
     1
 90
       50
176
     1
 90
       50
176
     1
290
     0
176
     1
 90
       50
176
     1
 62
   256
176
     0
 40
1.0
176
     0
 90
        2
176
     1
  1
strokes_ogs.tif
176
     1
290
     0
176
     1
 40
1.0
176
     1
 40
1.0
176
     1
  0
VISUALSTYLE
  5
2A
102
{ACAD_REACTORS
330
29
102
}
330
29
100
AcDbVisualStyle
  2
Flat
 70
     0
177
     3
291
     1
 70
    58
 90
        2
176
     1
 90
        1
176
     1
 90
        1
176
     1
 90
        2
176
     1
 40
0.6
176
     1
 40
30.0
176
     1
 62
     7
420
 16777215
176
     1
 90
        0
176
     1
 90
        0
176
     1
 62
     7
176
     1
 62
   257
176
     1
 90
        1
176
     1
 90
        1
176
     1
 40
1.0
176
     1
 90
        8
176
     1
 62
     7
176
     1
 40
1.0
176
     1
 90
        1
176
     1
 90
        6
176
     1
 90
        2
176
     1
 62
     7
176
     1
 90
        5
176
     1
 90
        0
176
     1
 90
        0
176
     1
290
     0
176
     1
 90
       13
176
     1
 40
0.0
176
     1
 90
        0
176
     1
290
     0
176
     1
290
     1
176
     1
290
     1
176
     1
290
     0
176
     1
290
     0
176
     1
290
     0
176
     1
290
     0
176
     1
290
     0
176
     1
290
     0
176
     1
 90
       50
176
     1
 40
0.0
176
     1
 40
1.0
176
     1
 90
        0
176
     1
 62
    18
176
     1
 90
       50
176
     1
 90
        3
176
     1
 62
     5
420
      255
176
     1
290
     0
176
     1
 90
       50
176
     1
 90
       50
176
     1
 90
       50
176
     1
290
     0
176
     1
 90
       50
176
     1
 62
   256
176
     0
 40
1.0
176
     0
 90
        2
176
     1
  1
strokes_ogs.tif
176
     1
290
     0
176
     1
 40
1.0
176
     1
 40
1.0
176
     1
  0
VISUALSTYLE
  5
2B
102
{ACAD_REACTORS
330
29
102
}
330
29
100
AcDbVisualStyle
  2
FlatWithEdges
 70
     1
177
     3
291
     1
 70
    58
 90
        2
176
     1
 90
        1
176
     1
 90
        1
176
     1
 90
        2
176
     1
 40
0.6
176
     1
 40
30.0
176
     1
 62
     7
420
 16777215
176
     1
 90
        1
176
     1
 90
        0
176
     1
 62
     7
176
     1
 62
   257
176
     1
 90
        1
176
     1
 90
        1
176
     1
 40
1.0
176
     1
 90
        0
176
     1
 62
   257
176
     1
 40
1.0
176
     1
 90
        1
176
     1
 90
        6
176
     1
 90
        2
176
     1
 62
     7
176
     1
 90
        5
176
     1
 90
        0
176
     1
 90
        0
176
     1
290
     0
176
     1
 90
       13
176
     1
 40
0.0
176
     1
 90
        0
176
     1
290
     0
176
     1
290
     1
176
     1
290
     1
176
     1
290
     0
176
     1
290
     0
176
     1
290
     0
176
     1
290
     0
176
     1
290
     0
176
     1
290
     0
176
     1
 90
       50
176
     1
 40
0.0
176
     1
 40
1.0
176
     1
 90
        0
176
     1
 62
    18
176
     1
 90
       50
176
     1
 90
        3
176
     1
 62
     5
420
      255
176
     1
290
     0
176
     1
 90
       50
176
     1
 90
       50
176
     1
 90
       50
176
     1
290
     0
176
     1
 90
       50
176
     1
 62
   256
176
     0
 40
1.0
176
     0
 90
        2
176
     1
  1
strokes_ogs.tif
176
     1
290
     0
176
     1
 40
1.0
176
     1
 40
1.0
176
     1
  0
VISUALSTYLE
  5
2C
102
{ACAD_REACTORS
330
29
102
}
330
29
100
AcDbVisualStyle
  2
Gouraud
 70
     2
177
     3
291
     1
 70
    58
 90
        2
176
     1
 90
        2
176
     1
 90
        1
176
     1
 90
        2
176
     1
 40
0.6
176
     1
 40
30.0
176
     1
 62
     7
420
 16777215
176
     1
 90
        0
176
     1
 90
        0
176
     1
 62
     7
176
     1
 62
   257
176
     1
 90
        1
176
     1
 90
        1
176
     1
 40
1.0
176
     1
 90
        0
176
     1
 62
     7
176
     1
 40
1.0
176
     1
 90
        1
176
     1
 90
        6
176
     1
 90
        2
176
     1
 62
     7
176
     1
 90
        5
176
     1
 90
        0
176
     1
 90
        0
176
     1
290
     0
176
     1
 90
       13
176
     1
 40
0.0
176
     1
 90
        0
176
     1
290
     0
176
     1
290
     1
176
     1
290
     1
176
     1
290
     0
176
     1
290
     0
176
     1
290
     0
176
     1
290
     0
176
     1
290
     0
176
     1
290
     0
176
     1
 90
       50
176
     1
 40
0.0
176
     1
 40
1.0
176
     1
 90
        0
176
     1
 62
    18
176
     1
 90
       50
176
     1
 90
        3
176
     1
 62
     5
420
      255
176
     1
290
     0
176
     1
 90
       50
176
     1
 90
       50
176
     1
 90
       50
176
     1
290
     0
176
     1
 90
       50
176
     1
 62
   256
176
     0
 40
1.0
176
     0
 90
        2
176
     1
  1
strokes_ogs.tif
176
     1
290
     0
176
     1
 40
1.0
176
     1
 40
1.0
176
     1
  0
VISUALSTYLE
  5
2D
102
{ACAD_REACTORS
330
29
102
}
330
29
100
AcDbVisualStyle
  2
GouraudWithEdges
 70
     3
177
     3
291
     1
 70
    58
 90
        2
176
     1
 90
        2
176
     1
 90
        1
176
     1
 90
        2
176
     1
 40
0.6
176
     1
 40
30.0
176
     1
 62
     7
420
 16777215
176
     1
 90
        1
176
     1
 90
        0
176
     1
 62
     7
176
     1
 62
   257
176
     1
 90
        1
176
     1
 90
        1
176
     1
 40
1.0
176
     1
 90
        0
176
     1
 62
   257
176
     1
 40
1.0
176
     1
 90
        1
176
     1
 90
        6
176
     1
 90
        2
176
     1
 62
     7
176
     1
 90
        5
176
     1
 90
        0
176
     1
 90
        0
176
     1
290
     0
176
     1
 90
       13
176
     1
 40
0.0
176
     1
 90
        0
176
     1
290
     0
176
     1
290
     1
176
     1
290
     1
176
     1
290
     0
176
     1
290
     0
176
     1
290
     0
176
     1
290
     0
176
     1
290
     0
176
     1
290
     0
176
     1
 90
       50
176
     1
 40
0.0
176
     1
 40
1.0
176
     1
 90
        0
176
     1
 62
    18
176
     1
 90
       50
176
     1
 90
        3
176
     1
 62
     5
420
      255
176
     1
290
     0
176
     1
 90
       50
176
     1
 90
       50
176
     1
 90
       50
176
     1
290
     0
176
     1
 90
       50
176
     1
 62
   256
176
     0
 40
1.0
176
     0
 90
        2
176
     1
  1
strokes_ogs.tif
176
     1
290
     0
176
     1
 40
1.0
176
     1
 40
1.0
176
     1
  0
VISUALSTYLE
  5
31
102
{ACAD_REACTORS
330
29
102
}
330
29
100
AcDbVisualStyle
  2
Hidden
 70
     6
177
     3
291
     0
 70
    58
 90
        1
176
     1
 90
        2
176
     1
 90
        2
176
     1
 90
        0
176
     1
 40
0.6
176
     1
 40
30.0
176
     1
 62
     7
420
 16777215
176
     1
 90
        2
176
     1
 90
        2
176
     1
 62
     7
176
     1
 62
   257
176
     1
 90
        2
176
     1
 90
        1
176
     1
 40
40.0
176
     1
 90
        0
176
     1
 62
   257
176
     1
 40
1.0
176
     1
 90
        1
176
     1
 90
        6
176
     1
 90
        2
176
     1
 62
     7
176
     1
 90
        3
176
     1
 90
        0
176
     1
 90
        0
176
     1
290
     0
176
     1
 90
        1
176
     1
 40
0.0
176
     1
 90
        0
176
     1
290
     0
176
     1
290
     1
176
     1
290
     1
176
     1
290
     0
176
     1
290
     0
176
     1
290
     0
176
     1
290
     0
176
     1
290
     0
176
     1
290
     0
176
     1
 90
       50
176
     1
 40
0.0
176
     1
 40
1.0
176
     1
 90
        0
176
     1
 62
    18
176
     1
 90
       50
176
     1
 90
        3
176
     1
 62
     5
420
      255
176
     1
290
     0
176
     1
 90
       50
176
     1
 90
       50
176
     1
 90
       50
176
     1
290
     0
176
     1
 90
       50
176
     1
 62
   256
176
     0
 40
1.0
176
     0
 90
        2
176
     1
  1
strokes_ogs.tif
176
     1
290
     0
176
     1
 40
1.0
176
     1
 40
1.0
176
     1
  0
VISUALSTYLE
  5
3F
102
{ACAD_REACTORS
330
29
102
}
330
29
100
AcDbVisualStyle
  2
JitterOff
 70
    20
177
     3
291
     1
 70
    58
 90
        2
176
     0
 90
        2
176
     0
 90
        0
176
     0
 90
        0
176
     0
 40
0.6
176
     0
 40
30.0
176
     0
 62
     7
420
 16777215
176
     0
 90
        1
176
     0
 90
        4
176
     0
 62
     7
176
     0
 62
   257
176
     0
 90
        1
176
     0
 90
        1
176
     0
 40
1.0
176
     0
 90
       10
176
     2
 62
     7
176
     0
 40
1.0
176
     0
 90
        1
176
     0
 90
        6
176
     0
 90
        2
176
     0
 62
     7
176
     0
 90
        5
176
     0
 90
        0
176
     0
 90
        0
176
     0
290
     0
176
     0
 90
        1
176
     0
 40
0.0
176
     0
 90
        0
176
     0
290
     0
176
     1
290
     1
176
     1
290
     1
176
     1
290
     0
176
     1
290
     0
176
     1
290
     0
176
     1
290
     0
176
     1
290
     0
176
     1
290
     0
176
     1
 90
       50
176
     0
 40
0.0
176
     0
 40
1.0
176
     0
 90
        0
176
     0
 62
    18
176
     0
 90
       50
176
     0
 90
        3
176
     0
 62
     5
420
      255
176
     0
290
     0
176
     1
 90
       50
176
     0
 90
       50
176
     0
 90
       50
176
     0
290
     0
176
     1
 90
       50
176
     0
 62
   256
176
     0
 40
1.0
176
     0
 90
        2
176
     0
  1
strokes_ogs.tif
176
     0
290
     0
176
     1
 40
1.0
176
     0
 40
1.0
176
     0
  0
VISUALSTYLE
  5
37
102
{ACAD_REACTORS
330
29
102
}
330
29
100
AcDbVisualStyle
  2
Linepattern
 70
    14
177
     3
291
     1
 70
    58
 90
        2
176
     1
 90
        2
176
     1
 90
        0
176
     1
 90
        0
176
     1
 40
0.6
176
     1
 40
30.0
176
     1
 62
     7
420
 16777215
176
     1
 90
        1
176
     1
 90
        4
176
     1
 62
     7
176
     1
 62
   257
176
     1
 90
        7
176
     1
 90
        7
176
     1
 40
1.0
176
     1
 90
        8
176
     1
 62
     7
176
     1
 40
1.0
176
     1
 90
        1
176
     1
 90
        6
176
     1
 90
        2
176
     1
 62
     7
176
     1
 90
        5
176
     1
 90
        0
176
     1
 90
        0
176
     1
290
     0
176
     1
 90
        1
176
     1
 40
0.0
176
     1
 90
        0
176
     1
290
     0
176
     1
290
     1
176
     1
290
     1
176
     1
290
     0
176
     1
290
     0
176
     1
290
     0
176
     1
290
     0
176
     1
290
     0
176
     1
290
     0
176
     1
 90
       50
176
     1
 40
0.0
176
     1
 40
1.0
176
     1
 90
        0
176
     1
 62
    18
176
     1
 90
       50
176
     1
 90
        3
176
     1
 62
     5
420
      255
176
     1
290
     0
176
     1
 90
       50
176
     1
 90
       50
176
     1
 90
       50
176
     1
290
     0
176
     1
 90
       50
176
     1
 62
   256
176
     0
 40
1.0
176
     0
 90
        2
176
     1
  1
strokes_ogs.tif
176
     1
290
     0
176
     1
 40
1.0
176
     1
 40
1.0
176
     1
  0
VISUALSTYLE
  5
40
102
{ACAD_REACTORS
330
29
102
}
330
29
100
AcDbVisualStyle
  2
OverhangOff
 70
    21
177
     3
291
     1
 70
    58
 90
        2
176
     0
 90
        2
176
     0
 90
        0
176
     0
 90
        0
176
     0
 40
0.6
176
     0
 40
30.0
176
     0
 62
     7
420
 16777215
176
     0
 90
        1
176
     0
 90
        4
176
     0
 62
     7
176
     0
 62
   257
176
     0
 90
        1
176
     0
 90
        1
176
     0
 40
1.0
176
     0
 90
        9
176
     2
 62
     7
176
     0
 40
1.0
176
     0
 90
        1
176
     0
 90
        6
176
     0
 90
        2
176
     0
 62
     7
176
     0
 90
        5
176
     0
 90
        0
176
     0
 90
        0
176
     0
290
     0
176
     0
 90
        1
176
     0
 40
0.0
176
     0
 90
        0
176
     0
290
     0
176
     1
290
     1
176
     1
290
     1
176
     1
290
     0
176
     1
290
     0
176
     1
290
     0
176
     1
290
     0
176
     1
290
     0
176
     1
290
     0
176
     1
 90
       50
176
     0
 40
0.0
176
     0
 40
1.0
176
     0
 90
        0
176
     0
 62
    18
176
     0
 90
       50
176
     0
 90
        3
176
     0
 62
     5
420
      255
176
     0
290
     0
176
     1
 90
       50
176
     0
 90
       50
176
     0
 90
       50
176
     0
290
     0
176
     1
 90
       50
176
     0
 62
   256
176
     0
 40
1.0
176
     0
 90
        2
176
     0
  1
strokes_ogs.tif
176
     0
290
     0
176
     1
 40
1.0
176
     0
 40
1.0
176
     0
  0
VISUALSTYLE
  5
33
102
{ACAD_REACTORS
330
29
102
}
330
29
100
AcDbVisualStyle
  2
Realistic
 70
     8
177
     3
291
     0
 70
    58
 90
        2
176
     1
 90
        3
176
     1
 90
        0
176
     1
 90
        2
176
     1
 40
0.6
176
     1
 40
30.0
176
     1
 62
     7
420
 16777215
176
     1
 90
        0
176
     1
 90
        0
176
     1
 62
     7
176
     1
 62
   257
176
     1
 90
        1
176
     1
 90
        1
176
     1
 40
1.0
176
     1
 90
        8
176
     1
 62
   257
176
     1
 40
1.0
176
     1
 90
        1
176
     1
 90
        6
176
     1
 90
        2
176
     1
 62
     7
176
     1
 90
        3
176
     1
 90
        0
176
     1
 90
        0
176
     1
290
     0
176
     1
 90
       13
176
     1
 40
0.0
176
     1
 90
        0
176
     1
290
     0
176
     1
290
     1
176
     1
290
     1
176
     1
290
     0
176
     1
290
     0
176
     1
290
     0
176
     1
290
     0
176
     1
290
     0
176
     1
290
     0
176
     1
 90
       50
176
     1
 40
0.0
176
     1
 40
1.0
176
     1
 90
        0
176
     1
 62
    18
176
     1
 90
       50
176
     1
 90
        3
176
     1
 62
     5
420
      255
176
     1
290
     0
176
     1
 90
       50
176
     1
 90
       50
176
     1
 90
       50
176
     1
290
     0
176
     1
 90
       50
176
     1
 62
   256
176
     0
 40
1.0
176
     0
 90
        2
176
     1
  1
strokes_ogs.tif
176
     1
290
     0
176
     1
 40
1.0
176
     1
 40
1.0
176
     1
  0
VISUALSTYLE
  5
3E
102
{ACAD_REACTORS
330
29
102
}
330
29
100
AcDbVisualStyle
  2
Shaded
 70
    27
177
     3
291
     0
 70
    58
 90
        2
176
     1
 90
        2
176
     1
 90
        1
176
     1
 90
        2
176
     1
 40
0.6
176
     1
 40
30.0
176
     1
 62
     7
420
 16777215
176
     1
 90
        0
176
     1
 90
        4
176
     1
 62
     7
176
     1
 62
   257
176
     1
 90
        1
176
     1
 90
        1
176
     1
 40
1.0
176
     1
 90
        8
176
     1
 62
   257
176
     1
 40
1.0
176
     1
 90
        1
176
     1
 90
        6
176
     1
 90
        2
176
     1
 62
     8
420
  7895160
176
     1
 90
        3
176
     1
 90
        0
176
     1
 90
        0
176
     1
290
     0
176
     1
 90
        5
176
     1
 40
0.0
176
     1
 90
        0
176
     1
290
     0
176
     1
290
     1
176
     1
290
     1
176
     1
290
     0
176
     1
290
     0
176
     1
290
     0
176
     1
290
     0
176
     1
290
     0
176
     1
290
     0
176
     1
 90
       50
176
     1
 40
0.0
176
     1
 40
1.0
176
     1
 90
        0
176
     1
 62
    18
176
     1
 90
       50
176
     1
 90
        3
176
     1
 62
     5
420
      255
176
     1
290
     0
176
     1
 90
       50
176
     1
 90
       50
176
     1
 90
       50
176
     1
290
     0
176
     1
 90
       50
176
     1
 62
   256
176
     0
 40
1.0
176
     0
 90
        2
176
     1
  1
strokes_ogs.tif
176
     1
290
     0
176
     1
 40
1.0
176
     1
 40
1.0
176
     1
  0
VISUALSTYLE
  5
3D
102
{ACAD_REACTORS
330
29
102
}
330
29
100
AcDbVisualStyle
  2
Shaded with edges
 70
    26
177
     3
291
     0
 70
    58
 90
        2
176
     1
 90
        2
176
     1
 90
        1
176
     1
 90
        2
176
     1
 40
0.6
176
     1
 40
30.0
176
     1
 62
     7
420
 16777215
176
     1
 90
        1
176
     1
 90
        2
176
     1
 62
     7
176
     1
 62
   257
176
     1
 90
        2
176
     1
 90
        1
176
     1
 40
1.0
176
     1
 90
        8
176
     1
 62
   257
176
     1
 40
1.0
176
     1
 90
        1
176
     1
 90
        6
176
     1
 90
        2
176
     1
 62
     7
176
     1
 90
        3
176
     1
 90
        0
176
     1
 90
        0
176
     1
290
     0
176
     1
 90
        5
176
     1
 40
0.0
176
     1
 90
        0
176
     1
290
     0
176
     1
290
     1
176
     1
290
     1
176
     1
290
     0
176
     1
290
     0
176
     1
290
     0
176
     1
290
     0
176
     1
290
     0
176
     1
290
     0
176
     1
 90
       50
176
     1
 40
0.0
176
     1
 40
1.0
176
     1
 90
        0
176
     1
 62
    18
176
     1
 90
       50
176
     1
 90
        3
176
     1
 62
     5
420
      255
176
     1
290
     0
176
     1
 90
       50
176
     1
 90
       50
176
     1
 90
       50
176
     1
290
     0
176
     1
 90
       50
176
     1
 62
   256
176
     0
 40
1.0
176
     0
 90
        2
176
     1
  1
strokes_ogs.tif
176
     1
290
     0
176
     1
 40
1.0
176
     1
 40
1.0
176
     1
  0
VISUALSTYLE
  5
3A
102
{ACAD_REACTORS
330
29
102
}
330
29
100
AcDbVisualStyle
  2
Shades of Gray
 70
    23
177
     3
291
     0
 70
    58
 90
        2
176
     1
 90
        2
176
     1
 90
        3
176
     1
 90
        0
176
     1
 40
0.6
176
     1
 40
30.0
176
     1
 62
     7
420
 16777215
176
     1
 90
        2
176
     1
 90
        2
176
     1
 62
     7
176
     1
 62
     7
176
     1
 90
        1
176
     1
 90
        1
176
     1
 40
40.0
176
     1
 90
        8
176
     1
 62
     7
176
     1
 40
1.0
176
     1
 90
        1
176
     1
 90
        6
176
     1
 90
        2
176
     1
 62
     7
176
     1
 90
        3
176
     1
 90
        0
176
     1
 90
        0
176
     1
290
     0
176
     1
 90
        1
176
     1
 40
0.0
176
     1
 90
        0
176
     1
290
     0
176
     1
290
     1
176
     1
290
     1
176
     1
290
     0
176
     1
290
     0
176
     1
290
     0
176
     1
290
     0
176
     1
290
     0
176
     1
290
     0
176
     1
 90
       50
176
     1
 40
0.0
176
     1
 40
1.0
176
     1
 90
        0
176
     1
 62
    18
176
     1
 90
       50
176
     1
 90
        3
176
     1
 62
     5
420
      255
176
     1
290
     0
176
     1
 90
       50
176
     1
 90
       50
176
     1
 90
       50
176
     1
290
     0
176
     1
 90
       50
176
     1
 62
   256
176
     0
 40
1.0
176
     0
 90
        2
176
     1
  1
strokes_ogs.tif
176
     1
290
     0
176
     1
 40
1.0
176
     1
 40
1.0
176
     1
  0
VISUALSTYLE
  5
3B
102
{ACAD_REACTORS
330
29
102
}
330
29
100
AcDbVisualStyle
  2
Sketchy
 70
    24
177
     3
291
     0
 70
    58
 90
        1
176
     1
 90
        2
176
     1
 90
        2
176
     1
 90
        0
176
     1
 40
0.6
176
     1
 40
30.0
176
     1
 62
     7
420
 16777215
176
     1
 90
        2
176
     1
 90
        2
176
     1
 62
     7
176
     1
 62
     7
176
     1
 90
        1
176
     1
 90
        1
176
     1
 40
40.0
176
     1
 90
       11
176
     1
 62
     7
176
     1
 40
1.0
176
     1
 90
        1
176
     1
 90
        6
176
     1
 90
        2
176
     1
 62
     7
176
     1
 90
        6
176
     1
 90
        0
176
     1
 90
        0
176
     1
290
     0
176
     1
 90
        1
176
     1
 40
0.0
176
     1
 90
        0
176
     1
290
     0
176
     1
290
     1
176
     1
290
     1
176
     1
290
     0
176
     1
290
     0
176
     1
290
     0
176
     1
290
     0
176
     1
290
     0
176
     1
290
     0
176
     1
 90
       50
176
     1
 40
0.0
176
     1
 40
1.0
176
     1
 90
        0
176
     1
 62
    18
176
     1
 90
       50
176
     1
 90
        3
176
     1
 62
     5
420
      255
176
     1
290
     0
176
     1
 90
       50
176
     1
 90
       50
176
     1
 90
       50
176
     1
290
     0
176
     1
 90
       50
176
     1
 62
   256
176
     0
 40
1.0
176
     0
 90
        2
176
     1
  1
strokes_ogs.tif
176
     1
290
     0
176
     1
 40
1.0
176
     1
 40
1.0
176
     1
  0
VISUALSTYLE
  5
36
102
{ACAD_REACTORS
330
29
102
}
330
29
100
AcDbVisualStyle
  2
Thicken
 70
    13
177
     3
291
     1
 70
    58
 90
        2
176
     1
 90
        2
176
     1
 90
        0
176
     1
 90
        0
176
     1
 40
0.6
176
     1
 40
30.0
176
     1
 62
     7
420
 16777215
176
     1
 90
        1
176
     1
 90
        4
176
     1
 62
     7
176
     1
 62
   257
176
     1
 90
        1
176
     1
 90
        1
176
     1
 40
1.0
176
     1
 90
       12
176
     1
 62
     7
176
     1
 40
1.0
176
     1
 90
        1
176
     1
 90
        6
176
     1
 90
        2
176
     1
 62
     7
176
     1
 90
        5
176
     1
 90
        0
176
     1
 90
        0
176
     1
290
     0
176
     1
 90
        1
176
     1
 40
0.0
176
     1
 90
        0
176
     1
290
     0
176
     1
290
     1
176
     1
290
     1
176
     1
290
     0
176
     1
290
     0
176
     1
290
     0
176
     1
290
     0
176
     1
290
     0
176
     1
290
     0
176
     1
 90
       50
176
     1
 40
0.0
176
     1
 40
1.0
176
     1
 90
        0
176
     1
 62
    18
176
     1
 90
       50
176
     1
 90
        3
176
     1
 62
     5
420
      255
176
     1
290
     0
176
     1
 90
       50
176
     1
 90
       50
176
     1
 90
       50
176
     1
290
     0
176
     1
 90
       50
176
     1
 62
   256
176
     0
 40
1.0
176
     0
 90
        2
176
     1
  1
strokes_ogs.tif
176
     1
290
     0
176
     1
 40
1.0
176
     1
 40
1.0
176
     1
  0
VISUALSTYLE
  5
30
102
{ACAD_REACTORS
330
29
102
}
330
29
100
AcDbVisualStyle
  2
Wireframe
 70
     5
177
     3
291
     0
 70
    58
 90
        0
176
     1
 90
        2
176
     1
 90
        0
176
     1
 90
        0
176
     1
 40
0.6
176
     1
 40
30.0
176
     1
 62
     7
420
 16777215
176
     1
 90
        1
176
     1
 90
        4
176
     1
 62
     7
176
     1
 62
   257
176
     1
 90
        1
176
     1
 90
        1
176
     1
 40
1.0
176
     1
 90
        0
176
     1
 62
   257
176
     1
 40
1.0
176
     1
 90
        1
176
     1
 90
        6
176
     1
 90
        2
176
     1
 62
     7
176
     1
 90
        3
176
     1
 90
        0
176
     1
 90
        0
176
     1
290
     0
176
     1
 90
        1
176
     1
 40
0.0
176
     1
 90
        0
176
     1
290
     0
176
     1
290
     1
176
     1
290
     1
176
     1
290
     0
176
     1
290
     0
176
     1
290
     0
176
     1
290
     0
176
     1
290
     0
176
     1
290
     0
176
     1
 90
       50
176
     1
 40
0.0
176
     1
 40
1.0
176
     1
 90
        0
176
     1
 62
    18
176
     1
 90
       50
176
     1
 90
        3
176
     1
 62
     5
420
      255
176
     1
290
     0
176
     1
 90
       50
176
     1
 90
       50
176
     1
 90
       50
176
     1
290
     0
176
     1
 90
       50
176
     1
 62
   256
176
     0
 40
1.0
176
     0
 90
        2
176
     1
  1
strokes_ogs.tif
176
     1
290
     0
176
     1
 40
1.0
176
     1
 40
1.0
176
     1
  0
VISUALSTYLE
  5
3C
102
{ACAD_REACTORS
330
29
102
}
330
29
100
AcDbVisualStyle
  2
X-Ray
 70
    25
177
     3
291
     0
 70
    58
 90
        2
176
     1
 90
        2
176
     1
 90
        1
176
     1
 90
        1
176
     1
 40
0.5
176
     1
 40
30.0
176
     1
 62
     7
420
 16777215
176
     1
 90
        1
176
     1
 90
        0
176
     1
 62
     7
176
     1
 62
   257
176
     1
 90
        1
176
     1
 90
        1
176
     1
 40
1.0
176
     1
 90
        8
176
     1
 62
     7
176
     1
 40
1.0
176
     1
 90
        1
176
     1
 90
        6
176
     1
 90
        2
176
     1
 62
     7
176
     1
 90
        3
176
     1
 90
        0
176
     1
 90
        0
176
     1
290
     0
176
     1
 90
       13
176
     1
 40
0.0
176
     1
 90
        0
176
     1
290
     0
176
     1
290
     1
176
     1
290
     1
176
     1
290
     0
176
     1
290
     0
176
     1
290
     0
176
     1
290
     0
176
     1
290
     0
176
     1
290
     0
176
     1
 90
       50
176
     1
 40
0.0
176
     1
 40
1.0
176
     1
 90
        0
176
     1
 62
    18
176
     1
 90
       50
176
     1
 90
        3
176
     1
 62
     5
420
      255
176
     1
290
     0
176
     1
 90
       50
176
     1
 90
       50
176
     1
 90
       50
176
     1
290
     0
176
     1
 90
       50
176
     1
 62
   256
176
     0
 40
1.0
176
     0
 90
        2
176
     1
  1
strokes_ogs.tif
176
     1
290
     0
176
     1
 40
1.0
176
     1
 40
1.0
176
     1
  0
DICTIONARYVAR
  5
60A
102
{ACAD_REACTORS
330
604
102
}
330
604
100
DictionaryVariables
280
     0
  1
1:1
  0
DICTIONARYVAR
  5
606
102
{ACAD_REACTORS
330
604
102
}
330
604
100
DictionaryVariables
280
     0
  1
STANDARD
  0
DICTIONARYVAR
  5
605
102
{ACAD_REACTORS
330
604
102
}
330
604
100
DictionaryVariables
280
     0
  1
STANDARD
  0
DICTIONARYVAR
  5
607
102
{ACAD_REACTORS
330
604
102
}
330
604
100
DictionaryVariables
280
     0
  1
Imperial24
  0
DICTIONARYVAR
  5
608
102
{ACAD_REACTORS
330
604
102
}
330
604
100
DictionaryVariables
280
     0
  1
Imperial24
  0
DICTIONARYVAR
  5
60C
102
{ACAD_REACTORS
330
604
102
}
330
604
100
DictionaryVariables
280
     0
  1
1
  0
DICTIONARYVAR
  5
60D
102
{ACAD_REACTORS
330
604
102
}
330
604
100
DictionaryVariables
280
     0
  1
15
  0
DICTIONARYVAR
  5
60B
102
{ACAD_REACTORS
330
604
102
}
330
604
100
DictionaryVariables
280
     0
  1
0
  0
DICTIONARYVAR
  5
609
102
{ACAD_REACTORS
330
604
102
}
330
604
100
DictionaryVariables
280
     0
  1
0
  0
DICTIONARY
  5
1A
330
19
100
AcDbDictionary
280
     1
281
     1
  3
BUMPTILE
360
1C
  3
DIFFUSETILE
360
1B
  3
OPACITYTILE
360
1F
  3
REFLECTIONTILE
360
1E
  3
REFRACTIONTILE
360
20
  3
SPECULARTILE
360
1D
  0
DICTIONARY
  5
12
330
11
100
AcDbDictionary
280
     1
281
     1
  3
BUMPTILE
360
14
  3
DIFFUSETILE
360
13
  3
OPACITYTILE
360
17
  3
REFLECTIONTILE
360
16
  3
REFRACTIONTILE
360
18
  3
SPECULARTILE
360
15
  0
DICTIONARY
  5
22
330
21
100
AcDbDictionary
280
     1
281
     1
  3
BUMPTILE
360
24
  3
DIFFUSETILE
360
23
  3
OPACITYTILE
360
27
  3
REFLECTIONTILE
360
26
  3
REFRACTIONTILE
360
28
  3
SPECULARTILE
360
25
  0
DICTIONARY
  5
60F
330
64
100
AcDbDictionary
280
     1
281
     1
  3
ACAD_ROUNDTRIP_2008_TABLESTYLE_CELLSTYLEMAP
360
61D
  0
XRECORD
  5
1C
102
{ACAD_REACTORS
330
1A
102
}
330
1A
100
AcDbXrecord
280
     1
270
     1
271
     1
  0
XRECORD
  5
1B
102
{ACAD_REACTORS
330
1A
102
}
330
1A
100
AcDbXrecord
280
     1
270
     1
271
     1
  0
XRECORD
  5
1F
102
{ACAD_REACTORS
330
1A
102
}
330
1A
100
AcDbXrecord
280
     1
270
     1
271
     1
  0
XRECORD
  5
1E
102
{ACAD_REACTORS
330
1A
102
}
330
1A
100
AcDbXrecord
280
     1
270
     1
271
     1
  0
XRECORD
  5
20
102
{ACAD_REACTORS
330
1A
102
}
330
1A
100
AcDbXrecord
280
     1
270
     1
271
     1
  0
XRECORD
  5
1D
102
{ACAD_REACTORS
330
1A
102
}
330
1A
100
AcDbXrecord
280
     1
270
     1
271
     1
  0
XRECORD
  5
14
102
{ACAD_REACTORS
330
12
102
}
330
12
100
AcDbXrecord
280
     1
270
     1
271
     1
  0
XRECORD
  5
13
102
{ACAD_REACTORS
330
12
102
}
330
12
100
AcDbXrecord
280
     1
270
     1
271
     1
  0
XRECORD
  5
17
102
{ACAD_REACTORS
330
12
102
}
330
12
100
AcDbXrecord
280
     1
270
     1
271
     1
  0
XRECORD
  5
16
102
{ACAD_REACTORS
330
12
102
}
330
12
100
AcDbXrecord
280
     1
270
     1
271
     1
  0
XRECORD
  5
18
102
{ACAD_REACTORS
330
12
102
}
330
12
100
AcDbXrecord
280
     1
270
     1
271
     1
  0
XRECORD
  5
15
102
{ACAD_REACTORS
330
12
102
}
330
12
100
AcDbXrecord
280
     1
270
     1
271
     1
  0
XRECORD
  5
24
102
{ACAD_REACTORS
330
22
102
}
330
22
100
AcDbXrecord
280
     1
270
     1
271
     1
  0
XRECORD
  5
23
102
{ACAD_REACTORS
330
22
102
}
330
22
100
AcDbXrecord
280
     1
270
     1
271
     1
  0
XRECORD
  5
27
102
{ACAD_REACTORS
330
22
102
}
330
22
100
AcDbXrecord
280
     1
270
     1
271
     1
  0
XRECORD
  5
26
102
{ACAD_REACTORS
330
22
102
}
330
22
100
AcDbXrecord
280
     1
270
     1
271
     1
  0
XRECORD
  5
28
102
{ACAD_REACTORS
330
22
102
}
330
22
100
AcDbXrecord
280
     1
270
     1
271
     1
  0
XRECORD
  5
25
102
{ACAD_REACTORS
330
22
102
}
330
22
100
AcDbXrecord
280
     1
270
     1
271
     1
  0
CELLSTYLEMAP
  5
61D
102
{ACAD_REACTORS
330
60F
102
}
330
60F
100
AcDbCellStyleMap
 90
        3
300
CELLSTYLE
  1
TABLEFORMAT_BEGIN
 90
        5
170
     1
 91
        0
 92
    32768
 62
   257
 93
        1
300
CONTENTFORMAT
  1
CONTENTFORMAT_BEGIN
 90
        0
 91
        0
 92
      512
 93
        0
300

 40
0.0
140
1.0
 94
        5
 62
     0
340
55
144
0.25
309
CONTENTFORMAT_END
171
     1
301
MARGIN
  1
CELLMARGIN_BEGIN
 40
0.06
 40
0.06
 40
0.06
 40
0.06
 40
0.18
 40
0.18
309
CELLMARGIN_END
 94
        6
 95
        1
302
GRIDFORMAT
  1
GRIDFORMAT_BEGIN
 90
        0
 91
        1
 62
     0
 92
       -2
340
0
 93
        0
 40
0.045
309
GRIDFORMAT_END
 95
        2
302
GRIDFORMAT
  1
GRIDFORMAT_BEGIN
 90
        0
 91
        1
 62
     0
 92
       -2
340
0
 93
        0
 40
0.045
309
GRIDFORMAT_END
 95
        4
302
GRIDFORMAT
  1
GRIDFORMAT_BEGIN
 90
        0
 91
        1
 62
     0
 92
       -2
340
0
 93
        0
 40
0.045
309
GRIDFORMAT_END
 95
        8
302
GRIDFORMAT
  1
GRIDFORMAT_BEGIN
 90
        0
 91
        1
 62
     0
 92
       -2
340
0
 93
        0
 40
0.045
309
GRIDFORMAT_END
 95
       16
302
GRIDFORMAT
  1
GRIDFORMAT_BEGIN
 90
        0
 91
        1
 62
     0
 92
       -2
340
0
 93
        0
 40
0.045
309
GRIDFORMAT_END
 95
       32
302
GRIDFORMAT
  1
GRIDFORMAT_BEGIN
 90
        0
 91
        1
 62
     0
 92
       -2
340
0
 93
        0
 40
0.045
309
GRIDFORMAT_END
309
TABLEFORMAT_END
  1
CELLSTYLE_BEGIN
 90
        1
 91
        1
300
_TITLE
309
CELLSTYLE_END
300
CELLSTYLE
  1
TABLEFORMAT_BEGIN
 90
        5
170
     1
 91
        0
 92
        0
 62
   257
 93
        1
300
CONTENTFORMAT
  1
CONTENTFORMAT_BEGIN
 90
        0
 91
        0
 92
      512
 93
        0
300

 40
0.0
140
1.0
 94
        5
 62
     0
340
55
144
0.18
309
CONTENTFORMAT_END
171
     1
301
MARGIN
  1
CELLMARGIN_BEGIN
 40
0.06
 40
0.06
 40
0.06
 40
0.06
 40
0.18
 40
0.18
309
CELLMARGIN_END
 94
        6
 95
        1
302
GRIDFORMAT
  1
GRIDFORMAT_BEGIN
 90
        0
 91
        1
 62
     0
 92
       -2
340
0
 93
        0
 40
0.045
309
GRIDFORMAT_END
 95
        2
302
GRIDFORMAT
  1
GRIDFORMAT_BEGIN
 90
        0
 91
        1
 62
     0
 92
       -2
340
0
 93
        0
 40
0.045
309
GRIDFORMAT_END
 95
        4
302
GRIDFORMAT
  1
GRIDFORMAT_BEGIN
 90
        0
 91
        1
 62
     0
 92
       -2
340
0
 93
        0
 40
0.045
309
GRIDFORMAT_END
 95
        8
302
GRIDFORMAT
  1
GRIDFORMAT_BEGIN
 90
        0
 91
        1
 62
     0
 92
       -2
340
0
 93
        0
 40
0.045
309
GRIDFORMAT_END
 95
       16
302
GRIDFORMAT
  1
GRIDFORMAT_BEGIN
 90
        0
 91
        1
 62
     0
 92
       -2
340
0
 93
        0
 40
0.045
309
GRIDFORMAT_END
 95
       32
302
GRIDFORMAT
  1
GRIDFORMAT_BEGIN
 90
        0
 91
        1
 62
     0
 92
       -2
340
0
 93
        0
 40
0.045
309
GRIDFORMAT_END
309
TABLEFORMAT_END
  1
CELLSTYLE_BEGIN
 90
        2
 91
        1
300
_HEADER
309
CELLSTYLE_END
300
CELLSTYLE
  1
TABLEFORMAT_BEGIN
 90
        5
170
     1
 91
        0
 92
        0
 62
   257
 93
        1
300
CONTENTFORMAT
  1
CONTENTFORMAT_BEGIN
 90
        0
 91
        0
 92
      512
 93
        0
300

 40
0.0
140
1.0
 94
        2
 62
     0
340
55
144
0.18
309
CONTENTFORMAT_END
171
     1
301
MARGIN
  1
CELLMARGIN_BEGIN
 40
0.06
 40
0.06
 40
0.06
 40
0.06
 40
0.18
 40
0.18
309
CELLMARGIN_END
 94
        6
 95
        1
302
GRIDFORMAT
  1
GRIDFORMAT_BEGIN
 90
        0
 91
        1
 62
     0
 92
       -2
340
0
 93
        0
 40
0.045
309
GRIDFORMAT_END
 95
        2
302
GRIDFORMAT
  1
GRIDFORMAT_BEGIN
 90
        0
 91
        1
 62
     0
 92
       -2
340
0
 93
        0
 40
0.045
309
GRIDFORMAT_END
 95
        4
302
GRIDFORMAT
  1
GRIDFORMAT_BEGIN
 90
        0
 91
        1
 62
     0
 92
       -2
340
0
 93
        0
 40
0.045
309
GRIDFORMAT_END
 95
        8
302
GRIDFORMAT
  1
GRIDFORMAT_BEGIN
 90
        0
 91
        1
 62
     0
 92
       -2
340
0
 93
        0
 40
0.045
309
GRIDFORMAT_END
 95
       16
302
GRIDFORMAT
  1
GRIDFORMAT_BEGIN
 90
        0
 91
        1
 62
     0
 92
       -2
340
0
 93
        0
 40
0.045
309
GRIDFORMAT_END
 95
       32
302
GRIDFORMAT
  1
GRIDFORMAT_BEGIN
 90
        0
 91
        1
 62
     0
 92
       -2
340
0
 93
        0
 40
0.045
309
GRIDFORMAT_END
309
TABLEFORMAT_END
  1
CELLSTYLE_BEGIN
 90
        3
 91
        2
300
_DATA
309
CELLSTYLE_END
  0
ENDSEC
  0
EOF
