  0
SECTION
  2
HEADER
  9
$ACADVER
  1
AC1032
  9
$ACADMAINTVER
 90
      197
  9
$DWGCODEPAGE
  3
ANSI_932
  9
$LASTSAVEDBY
  1
hiro-ichiyama
  9
$REQUIREDVERSIONS
160
                 0
  9
$INSBASE
 10
0.0
 20
0.0
 30
0.0
  9
$EXTMIN
 10
33.24572896077962
 20
27.50035294226882
 30
-0.0015258207003583
  9
$EXTMAX
 10
793.6012589395991
 20
574.6841904908465
 30
0.0000000349246037
  9
$LIMMIN
 10
0.0
 20
0.0
  9
$LIMMAX
 10
594.0
 20
841.0
  9
$ORTHOMODE
 70
     0
  9
$REGENMODE
 70
     1
  9
$FILLMODE
 70
     1
  9
$QTEXTMODE
 70
     0
  9
$MIRRTEXT
 70
     0
  9
$LTSCALE
 40
20.0
  9
$ATTMODE
 70
     1
  9
$TEXTSIZE
 40
5.300000190734863
  9
$TRACEWID
 40
0.05
  9
$TEXTSTYLE
  7
STANDARD
  9
$CLAYER
  8
0
  9
$CELTYPE
  6
CONTINUOUS
  9
$CECOLOR
 62
   256
  9
$CELTSCALE
 40
1.0
  9
$DISPSILH
 70
     0
  9
$DIMSCALE
 40
1.0
  9
$DIMASZ
 40
1.0
  9
$DIMEXO
 40
0.8
  9
$DIMDLI
 40
0.38
  9
$DIMRND
 40
0.0
  9
$DIMDLE
 40
0.0
  9
$DIMEXE
 40
2.0
  9
$DIMTP
 40
0.0
  9
$DIMTM
 40
0.0
  9
$DIMTXT
 40
3.1
  9
$DIMCEN
 40
0.09
  9
$DIMTSZ
 40
0.0
  9
$DIMTOL
 70
     0
  9
$DIMLIM
 70
     0
  9
$DIMTIH
 70
     0
  9
$DIMTOH
 70
     0
  9
$DIMSE1
 70
     0
  9
$DIMSE2
 70
     0
  9
$DIMTAD
 70
     1
  9
$DIMZIN
 70
     0
  9
$DIMBLK
  1

  9
$DIMASO
 70
     1
  9
$DIMSHO
 70
     1
  9
$DIMPOST
  1

  9
$DIMAPOST
  1

  9
$DIMALT
 70
     0
  9
$DIMALTD
 70
     2
  9
$DIMALTF
 40
25.4
  9
$DIMLFAC
 40
1.0
  9
$DIMTOFL
 70
     0
  9
$DIMTVP
 40
0.5
  9
$DIMTIX
 70
     0
  9
$DIMSOXD
 70
     0
  9
$DIMSAH
 70
     0
  9
$DIMBLK1
  1

  9
$DIMBLK2
  1

  9
$DIMSTYLE
  2
Standard
  9
$DIMCLRD
 70
     0
  9
$DIMCLRE
 70
     0
  9
$DIMCLRT
 70
     0
  9
$DIMTFAC
 40
1.0
  9
$DIMGAP
 40
0.09
  9
$DIMJUST
 70
     0
  9
$DIMSD1
 70
     0
  9
$DIMSD2
 70
     0
  9
$DIMTOLJ
 70
     1
  9
$DIMTZIN
 70
     0
  9
$DIMALTZ
 70
     0
  9
$DIMALTTZ
 70
     0
  9
$DIMUPT
 70
     0
  9
$DIMDEC
 70
     4
  9
$DIMTDEC
 70
     4
  9
$DIMALTU
 70
     2
  9
$DIMALTTD
 70
     2
  9
$DIMTXSTY
  7
STANDARD
  9
$DIMAUNIT
 70
     0
  9
$DIMADEC
 70
     0
  9
$DIMALTRND
 40
0.0
  9
$DIMAZIN
 70
     0
  9
$DIMDSEP
 70
    46
  9
$DIMATFIT
 70
     3
  9
$DIMFRAC
 70
     0
  9
$DIMLDRBLK
  1

  9
$DIMLUNIT
 70
     2
  9
$DIMLWD
 70
    -2
  9
$DIMLWE
 70
    -2
  9
$DIMTMOVE
 70
     0
  9
$DIMFXL
 40
1.0
  9
$DIMFXLON
 70
     0
  9
$DIMJOGANG
 40
0.7853981633974483
  9
$DIMTFILL
 70
     0
  9
$DIMTFILLCLR
 70
     0
  9
$DIMARCSYM
 70
     0
  9
$DIMLTYPE
  6

  9
$DIMLTEX1
  6

  9
$DIMLTEX2
  6

  9
$DIMTXTDIRECTION
 70
     0
  9
$LUNITS
 70
     2
  9
$LUPREC
 70
     4
  9
$SKETCHINC
 40
0.1
  9
$FILLETRAD
 40
0.0
  9
$AUNITS
 70
     0
  9
$AUPREC
 70
     0
  9
$MENU
  1
.
  9
$ELEVATION
 40
0.0
  9
$PELEVATION
 40
0.0
  9
$THICKNESS
 40
0.0
  9
$LIMCHECK
 70
     0
  9
$CHAMFERA
 40
0.0
  9
$CHAMFERB
 40
0.0
  9
$CHAMFERC
 40
0.0
  9
$CHAMFERD
 40
0.0
  9
$SKPOLY
 70
     0
  9
$TDCREATE
 40
2459992.381863426
  9
$TDUCREATE
 40
2459992.006863426
  9
$TDUPDATE
 40
2459992.389756945
  9
$TDUUPDATE
 40
2459992.014756945
  9
$TDINDWG
 40
0.0078935185
  9
$TDUSRTIMER
 40
0.0078935185
  9
$USRTIMER
 70
     1
  9
$ANGBASE
 50
0.0
  9
$ANGDIR
 70
     0
  9
$PDMODE
 70
     0
  9
$PDSIZE
 40
0.0
  9
$PLINEWID
 40
0.0
  9
$SPLFRAME
 70
     0
  9
$SPLINETYPE
 70
     6
  9
$SPLINESEGS
 70
     8
  9
$HANDSEED
  5
674
  9
$SURFTAB1
 70
     6
  9
$SURFTAB2
 70
     6
  9
$SURFTYPE
 70
     6
  9
$SURFU
 70
     6
  9
$SURFV
 70
     6
  9
$UCSBASE
  2

  9
$UCSNAME
  2

  9
$UCSORG
 10
0.0
 20
0.0
 30
0.0
  9
$UCSXDIR
 10
1.0
 20
0.0
 30
0.0
  9
$UCSYDIR
 10
0.0
 20
1.0
 30
0.0
  9
$UCSORTHOREF
  2

  9
$UCSORTHOVIEW
 70
     0
  9
$UCSORGTOP
 10
0.0
 20
0.0
 30
0.0
  9
$UCSORGBOTTOM
 10
0.0
 20
0.0
 30
0.0
  9
$UCSORGLEFT
 10
0.0
 20
0.0
 30
0.0
  9
$UCSORGRIGHT
 10
0.0
 20
0.0
 30
0.0
  9
$UCSORGFRONT
 10
0.0
 20
0.0
 30
0.0
  9
$UCSORGBACK
 10
0.0
 20
0.0
 30
0.0
  9
$PUCSBASE
  2

  9
$PUCSNAME
  2

  9
$PUCSORG
 10
0.0
 20
0.0
 30
0.0
  9
$PUCSXDIR
 10
1.0
 20
0.0
 30
0.0
  9
$PUCSYDIR
 10
0.0
 20
1.0
 30
0.0
  9
$PUCSORTHOREF
  2

  9
$PUCSORTHOVIEW
 70
     0
  9
$PUCSORGTOP
 10
0.0
 20
0.0
 30
0.0
  9
$PUCSORGBOTTOM
 10
0.0
 20
0.0
 30
0.0
  9
$PUCSORGLEFT
 10
0.0
 20
0.0
 30
0.0
  9
$PUCSORGRIGHT
 10
0.0
 20
0.0
 30
0.0
  9
$PUCSORGFRONT
 10
0.0
 20
0.0
 30
0.0
  9
$PUCSORGBACK
 10
0.0
 20
0.0
 30
0.0
  9
$USERI1
 70
     0
  9
$USERI2
 70
     0
  9
$USERI3
 70
     0
  9
$USERI4
 70
     0
  9
$USERI5
 70
     0
  9
$USERR1
 40
0.0
  9
$USERR2
 40
0.0
  9
$USERR3
 40
0.0
  9
$USERR4
 40
0.0
  9
$USERR5
 40
0.0
  9
$WORLDVIEW
 70
     1
  9
$SHADEDGE
 70
     3
  9
$SHADEDIF
 70
    70
  9
$TILEMODE
 70
     1
  9
$MAXACTVP
 70
    64
  9
$PINSBASE
 10
0.0
 20
0.0
 30
0.0
  9
$PLIMCHECK
 70
     0
  9
$PEXTMIN
 10
1.000000000000000E+20
 20
1.000000000000000E+20
 30
1.000000000000000E+20
  9
$PEXTMAX
 10
-1.000000000000000E+20
 20
-1.000000000000000E+20
 30
-1.000000000000000E+20
  9
$PLIMMIN
 10
0.0
 20
0.0
  9
$PLIMMAX
 10
12.0
 20
9.0
  9
$UNITMODE
 70
     0
  9
$VISRETAIN
 70
     1
  9
$PLINEGEN
 70
     0
  9
$PSLTSCALE
 70
     1
  9
$TREEDEPTH
 70
  3020
  9
$CMLSTYLE
  2
Standard
  9
$CMLJUST
 70
     0
  9
$CMLSCALE
 40
1.0
  9
$PROXYGRAPHICS
 70
     1
  9
$MEASUREMENT
 70
     1
  9
$CELWEIGHT
370
    -1
  9
$ENDCAPS
280
     0
  9
$JOINSTYLE
280
     0
  9
$LWDISPLAY
290
     0
  9
$INSUNITS
 70
     0
  9
$HYPERLINKBASE
  1

  9
$STYLESHEET
  1

  9
$XEDIT
290
     1
  9
$CEPSNTYPE
380
     0
  9
$PSTYLEMODE
290
     1
  9
$FINGERPRINTGUID
  2
{4B66DA38-BE61-3341-B5F5-0302B6039282}
  9
$VERSIONGUID
  2
{1720247B-9193-8749-B105-AFC3FDB73E39}
  9
$EXTNAMES
290
     1
  9
$PSVPSCALE
 40
0.0
  9
$OLESTARTUP
290
     0
  9
$SORTENTS
280
   127
  9
$INDEXCTL
280
     0
  9
$HIDETEXT
280
     0
  9
$XCLIPFRAME
280
     2
  9
$HALOGAP
280
     0
  9
$OBSCOLOR
 70
   257
  9
$OBSLTYPE
280
     0
  9
$INTERSECTIONDISPLAY
280
     0
  9
$INTERSECTIONCOLOR
 70
   257
  9
$DIMASSOC
280
     1
  9
$PROJECTNAME
  1

  9
$CAMERADISPLAY
290
     0
  9
$LENSLENGTH
 40
50.0
  9
$CAMERAHEIGHT
 40
0.0
  9
$STEPSPERSEC
 40
2.0
  9
$STEPSIZE
 40
6.0
  9
$3DDWFPREC
 40
2.0
  9
$PSOLWIDTH
 40
0.25
  9
$PSOLHEIGHT
 40
4.0
  9
$LOFTANG1
 40
1.570796326794896
  9
$LOFTANG2
 40
1.570796326794896
  9
$LOFTMAG1
 40
0.0
  9
$LOFTMAG2
 40
0.0
  9
$LOFTPARAM
 70
     7
  9
$LOFTNORMALS
280
     1
  9
$LATITUDE
 40
37.795
  9
$LONGITUDE
 40
-122.394
  9
$NORTHDIRECTION
 40
0.0
  9
$TIMEZONE
 70
 -8000
  9
$LIGHTGLYPHDISPLAY
280
     1
  9
$TILEMODELIGHTSYNCH
280
     1
  9
$CMATERIAL
347
11
  9
$SOLIDHIST
280
     0
  9
$SHOWHIST
280
     1
  9
$DWFFRAME
280
     2
  9
$DGNFRAME
280
     0
  9
$REALWORLDSCALE
290
     1
  9
$INTERFERECOLOR
 62
     1
  9
$INTERFEREOBJVS
345
33
  9
$INTERFEREVPVS
346
30
  9
$CSHADOW
280
     0
  9
$SHADOWPLANELOCATION
 40
0.0
  0
ENDSEC
  0
SECTION
  2
CLASSES
  0
CLASS
  1
ACDBDICTIONARYWDFLT
  2
AcDbDictionaryWithDefault
  3
ObjectDBX Classes
 90
        0
 91
        1
280
     0
281
     0
  0
CLASS
  1
MATERIAL
  2
AcDbMaterial
  3
ObjectDBX Classes
 90
     1153
 91
        3
280
     0
281
     0
  0
CLASS
  1
VISUALSTYLE
  2
AcDbVisualStyle
  3
ObjectDBX Classes
 90
     4095
 91
       24
280
     0
281
     0
  0
CLASS
  1
SCALE
  2
AcDbScale
  3
ObjectDBX Classes
 90
     1153
 91
       17
280
     0
281
     0
  0
CLASS
  1
TABLESTYLE
  2
AcDbTableStyle
  3
ObjectDBX Classes
 90
     4095
 91
        1
280
     0
281
     0
  0
CLASS
  1
MLEADERSTYLE
  2
AcDbMLeaderStyle
  3
ACDB_MLEADERSTYLE_CLASS
 90
     4095
 91
        1
280
     0
281
     0
  0
CLASS
  1
ACDBSECTIONVIEWSTYLE
  2
AcDbSectionViewStyle
  3
ObjectDBX Classes
 90
     1025
 91
        2
280
     0
281
     0
  0
CLASS
  1
ACDBDETAILVIEWSTYLE
  2
AcDbDetailViewStyle
  3
ObjectDBX Classes
 90
     1025
 91
        2
280
     0
281
     0
  0
CLASS
  1
DICTIONARYVAR
  2
AcDbDictionaryVar
  3
ObjectDBX Classes
 90
        0
 91
       18
280
     0
281
     0
  0
CLASS
  1
CELLSTYLEMAP
  2
AcDbCellStyleMap
  3
ObjectDBX Classes
 90
     1152
 91
        1
280
     0
281
     0
  0
ENDSEC
  0
SECTION
  2
TABLES
  0
TABLE
  2
VPORT
  5
8
330
0
100
AcDbSymbolTable
 70
     1
  0
VPORT
  5
85
330
8
100
AcDbSymbolTableRecord
100
AcDbViewportTableRecord
  2
*Active
 70
     0
 10
0.0
 20
0.0
 11
1.0
 21
1.0
 12
413.4234939501893
 22
301.0922717165577
 13
0.0
 23
0.0
 14
1.0
 24
1.0
 15
0.0
 25
0.0
 16
0.0
 26
0.0
 36
1.0
 17
0.0
 27
0.0
 37
0.0
 40
551.1585385477198
 41
2.295757575757575
 42
50.0
 43
0.0
 44
0.0
 50
0.0
 51
0.0
 71
     0
 72
   100
 73
     1
 74
     1
 75
     0
 76
     0
 77
     0
 78
     0
281
     0
 65
     1
110
0.0
120
0.0
130
0.0
111
1.0
121
0.0
131
0.0
112
0.0
122
1.0
132
0.0
 79
     0
146
0.0
348
2F
 60
     3
 61
     5
292
     1
282
     1
141
0.0
142
0.0
 63
   250
421
  3355443
1001
ACAD_NAV_VCDISPLAY
1070
     3
  0
ENDTAB
  0
TABLE
  2
LTYPE
  5
5
330
0
100
AcDbSymbolTable
 70
     6
  0
LTYPE
  5
5A
330
5
100
AcDbSymbolTableRecord
100
AcDbLinetypeTableRecord
  2
ByBlock
 70
     0
  3

 72
    65
 73
     0
 40
0.0
  0
LTYPE
  5
5B
330
5
100
AcDbSymbolTableRecord
100
AcDbLinetypeTableRecord
  2
ByLayer
 70
     0
  3

 72
    65
 73
     0
 40
0.0
  0
LTYPE
  5
5C
330
5
100
AcDbSymbolTableRecord
100
AcDbLinetypeTableRecord
  2
CONTINUOUS
 70
     0
  3
Solid line (NEC CAE2D for Win R15.2 : 2020.12.23)
 72
    65
 73
     0
 40
0.0
  0
LTYPE
  5
73
330
5
100
AcDbSymbolTableRecord
100
AcDbLinetypeTableRecord
  2
DASHED
 70
     0
  3
__ __ __ __ __ __ __ __ __ __ __ __ __ _
 72
    65
 73
     2
 40
0.75
 49
0.5
 74
     0
 49
-0.25
 74
     0
  0
LTYPE
  5
74
330
5
100
AcDbSymbolTableRecord
100
AcDbLinetypeTableRecord
  2
HIDDEN
 70
     0
  3
__ __ __ __ __ __ __ __ __ __ __ __ __ __
 72
    65
 73
     2
 40
0.375
 49
0.25
 74
     0
 49
-0.125
 74
     0
  0
LTYPE
  5
75
330
5
100
AcDbSymbolTableRecord
100
AcDbLinetypeTableRecord
  2
CENTER
 70
     0
  3
____ _ ____ _ ____ _ ____ _ ____ _ ____
 72
    65
 73
     4
 40
2.0
 49
1.25
 74
     0
 49
-0.25
 74
     0
 49
0.25
 74
     0
 49
-0.25
 74
     0
  0
ENDTAB
  0
TABLE
  2
LAYER
  5
2
330
0
100
AcDbSymbolTable
 70
    11
  0
LAYER
  5
54
102
{ACAD_XDICTIONARY
360
651
102
}
330
2
100
AcDbSymbolTableRecord
100
AcDbLayerTableRecord
  2
0
 70
     0
 62
     7
  6
CONTINUOUS
370
    -3
390
F
347
21
348
0
  0
LAYER
  5
76
102
{ACAD_XDICTIONARY
360
653
102
}
330
2
100
AcDbSymbolTableRecord
100
AcDbLayerTableRecord
  2
DXF0
 70
     0
 62
     3
  6
CONTINUOUS
370
    -3
390
F
347
21
348
0
  0
LAYER
  5
77
102
{ACAD_XDICTIONARY
360
655
102
}
330
2
100
AcDbSymbolTableRecord
100
AcDbLayerTableRecord
  2
LOUVER
 70
     0
 62
     4
  6
CONTINUOUS
370
    -3
390
F
347
21
348
0
  0
LAYER
  5
78
102
{ACAD_XDICTIONARY
360
657
102
}
330
2
100
AcDbSymbolTableRecord
100
AcDbLayerTableRecord
  2
UKEZAI
 70
     0
 62
     5
  6
CONTINUOUS
370
    -3
390
F
347
21
348
0
  0
LAYER
  5
79
102
{ACAD_XDICTIONARY
360
659
102
}
330
2
100
AcDbSymbolTableRecord
100
AcDbLayerTableRecord
  2
ANCHOR
 70
     0
 62
     2
  6
CONTINUOUS
370
    -3
390
F
347
21
348
0
  0
LAYER
  5
7A
102
{ACAD_XDICTIONARY
360
65B
102
}
330
2
100
AcDbSymbolTableRecord
100
AcDbLayerTableRecord
  2
KUTAI
 70
     0
 62
     6
  6
CONTINUOUS
370
    -3
390
F
347
21
348
0
  0
LAYER
  5
7B
102
{ACAD_XDICTIONARY
360
65D
102
}
330
2
100
AcDbSymbolTableRecord
100
AcDbLayerTableRecord
  2
WASHER
 70
     0
 62
     2
  6
CONTINUOUS
370
    -3
390
F
347
21
348
0
  0
LAYER
  5
7C
102
{ACAD_XDICTIONARY
360
65F
102
}
330
2
100
AcDbSymbolTableRecord
100
AcDbLayerTableRecord
  2
COMMENT
 70
     0
 62
     3
  6
CONTINUOUS
370
    -3
390
F
347
21
348
0
  0
LAYER
  5
7D
102
{ACAD_XDICTIONARY
360
661
102
}
330
2
100
AcDbSymbolTableRecord
100
AcDbLayerTableRecord
  2
WAKU
 70
     0
 62
     1
  6
CONTINUOUS
370
    -3
390
F
347
21
348
0
  0
LAYER
  5
7E
102
{ACAD_XDICTIONARY
360
663
102
}
330
2
100
AcDbSymbolTableRecord
100
AcDbLayerTableRecord
  2
UNTITLED0001023
 70
     0
 62
     8
  6
CONTINUOUS
370
    -3
390
F
347
21
348
0
  0
LAYER
  5
7F
102
{ACAD_XDICTIONARY
360
665
102
}
330
2
100
AcDbSymbolTableRecord
100
AcDbLayerTableRecord
  2
DXF1023
 70
     0
 62
     6
  6
CONTINUOUS
370
    -3
390
F
347
21
348
0
  0
ENDTAB
  0
TABLE
  2
STYLE
  5
3
330
0
100
AcDbSymbolTable
 70
     5
  0
STYLE
  5
55
330
3
100
AcDbSymbolTableRecord
100
AcDbTextStyleTableRecord
  2
STANDARD
 70
     0
 40
0.0
 41
1.0
 50
0.0
 71
     0
 42
5.300000190734863
  3
TXT
  4

  0
STYLE
  5
59
330
3
100
AcDbSymbolTableRecord
100
AcDbTextStyleTableRecord
  2
Annotative
 70
     0
 40
0.0
 41
1.0
 50
0.0
 71
     0
 42
0.2
  3
txt
  4

1001
AcadAnnotative
1000
AnnotativeData
1002
{
1070
     1
1070
     1
1002
}
  0
STYLE
  5
80
330
3
100
AcDbSymbolTableRecord
100
AcDbTextStyleTableRecord
  2
ANKTATE
 70
     4
 40
0.0
 41
1.0
 50
0.0
 71
     0
 42
5.300000190734863
  3
TXT
  4

  0
STYLE
  5
81
330
3
100
AcDbSymbolTableRecord
100
AcDbTextStyleTableRecord
  2
KNJYOKO
 70
     0
 40
0.0
 41
1.0
 50
0.0
 71
     0
 42
5.300000190734863
  3
TXT
  4
BIGFONT
  0
STYLE
  5
82
330
3
100
AcDbSymbolTableRecord
100
AcDbTextStyleTableRecord
  2
KNJTATE
 70
     4
 40
0.0
 41
1.0
 50
0.0
 71
     0
 42
5.300000190734863
  3
TXT
  4
BIGFONT
  0
ENDTAB
  0
TABLE
  2
VIEW
  5
6
330
0
100
AcDbSymbolTable
 70
     0
  0
ENDTAB
  0
TABLE
  2
UCS
  5
7
330
0
100
AcDbSymbolTable
 70
     0
  0
ENDTAB
  0
TABLE
  2
APPID
  5
9
330
0
100
AcDbSymbolTable
 70
     4
  0
APPID
  5
56
330
9
100
AcDbSymbolTableRecord
100
AcDbRegAppTableRecord
  2
ACAD
 70
     0
  0
APPID
  5
5D
330
9
100
AcDbSymbolTableRecord
100
AcDbRegAppTableRecord
  2
AcadAnnotative
 70
     0
  0
APPID
  5
626
330
9
100
AcDbSymbolTableRecord
100
AcDbRegAppTableRecord
  2
ACAD_EXEMPT_FROM_CAD_STANDARDS
 70
     0
  0
APPID
  5
62E
330
9
100
AcDbSymbolTableRecord
100
AcDbRegAppTableRecord
  2
ACAD_NAV_VCDISPLAY
 70
     0
  0
ENDTAB
  0
TABLE
  2
DIMSTYLE
  5
A
330
0
100
AcDbSymbolTable
 70
     3
100
AcDbDimStyleTable
 71
     0
  0
DIMSTYLE
105
57
102
{ACAD_REACTORS
330
3E5
330
3E6
330
3E7
330
3E8
330
48F
330
490
330
491
330
5D8
330
5D9
330
5DA
330
5E2
330
5E3
102
}
330
A
100
AcDbSymbolTableRecord
100
AcDbDimStyleTableRecord
  2
Standard
 70
     0
340
55
  0
DIMSTYLE
105
58
330
A
100
AcDbSymbolTableRecord
100
AcDbDimStyleTableRecord
  2
Annotative
 70
     0
340
55
1001
AcadAnnotative
1000
AnnotativeData
1002
{
1070
     1
1070
     1
1002
}
  0
ENDTAB
  0
TABLE
  2
BLOCK_RECORD
  5
1
330
0
100
AcDbSymbolTable
 70
    27
  0
BLOCK_RECORD
  5
6F
330
1
100
AcDbSymbolTableRecord
100
AcDbBlockTableRecord
  2
*Model_Space
340
72
 70
     0
280
     1
281
     0
  0
BLOCK_RECORD
  5
6B
330
1
100
AcDbSymbolTableRecord
100
AcDbBlockTableRecord
  2
*Paper_Space
340
6E
 70
     0
280
     1
281
     0
  0
BLOCK_RECORD
  5
86
330
1
100
AcDbSymbolTableRecord
100
AcDbBlockTableRecord
  2
*X0
340
0
102
{BLKREFS
331
225
102
}
 70
     0
280
     1
281
     0
  0
BLOCK_RECORD
  5
97
330
1
100
AcDbSymbolTableRecord
100
AcDbBlockTableRecord
  2
*D1
340
0
 70
     0
280
     1
281
     0
  0
BLOCK_RECORD
  5
A5
330
1
100
AcDbSymbolTableRecord
100
AcDbBlockTableRecord
  2
*D2
340
0
 70
     0
280
     1
281
     0
  0
BLOCK_RECORD
  5
B3
330
1
100
AcDbSymbolTableRecord
100
AcDbBlockTableRecord
  2
*D3
340
0
 70
     0
280
     1
281
     0
  0
BLOCK_RECORD
  5
C1
330
1
100
AcDbSymbolTableRecord
100
AcDbBlockTableRecord
  2
*D4
340
0
 70
     0
280
     1
281
     0
  0
BLOCK_RECORD
  5
CF
330
1
100
AcDbSymbolTableRecord
100
AcDbBlockTableRecord
  2
*D5
340
0
 70
     0
280
     1
281
     0
  0
BLOCK_RECORD
  5
DE
330
1
100
AcDbSymbolTableRecord
100
AcDbBlockTableRecord
  2
*D6
340
0
 70
     0
280
     1
281
     0
  0
BLOCK_RECORD
  5
ED
330
1
100
AcDbSymbolTableRecord
100
AcDbBlockTableRecord
  2
*D7
340
0
 70
     0
280
     1
281
     0
  0
BLOCK_RECORD
  5
FB
330
1
100
AcDbSymbolTableRecord
100
AcDbBlockTableRecord
  2
*D8
340
0
 70
     0
280
     1
281
     0
  0
BLOCK_RECORD
  5
109
330
1
100
AcDbSymbolTableRecord
100
AcDbBlockTableRecord
  2
*D9
340
0
 70
     0
280
     1
281
     0
  0
BLOCK_RECORD
  5
117
330
1
100
AcDbSymbolTableRecord
100
AcDbBlockTableRecord
  2
*D10
340
0
 70
     0
280
     1
281
     0
  0
BLOCK_RECORD
  5
125
330
1
100
AcDbSymbolTableRecord
100
AcDbBlockTableRecord
  2
*D11
340
0
 70
     0
280
     1
281
     0
  0
BLOCK_RECORD
  5
133
330
1
100
AcDbSymbolTableRecord
100
AcDbBlockTableRecord
  2
*D12
340
0
 70
     0
280
     1
281
     0
  0
BLOCK_RECORD
  5
141
330
1
100
AcDbSymbolTableRecord
100
AcDbBlockTableRecord
  2
*D13
340
0
 70
     0
280
     1
281
     0
  0
BLOCK_RECORD
  5
14F
330
1
100
AcDbSymbolTableRecord
100
AcDbBlockTableRecord
  2
*D14
340
0
 70
     0
280
     1
281
     0
  0
BLOCK_RECORD
  5
15D
330
1
100
AcDbSymbolTableRecord
100
AcDbBlockTableRecord
  2
*D15
340
0
 70
     0
280
     1
281
     0
  0
BLOCK_RECORD
  5
16C
330
1
100
AcDbSymbolTableRecord
100
AcDbBlockTableRecord
  2
*D16
340
0
 70
     0
280
     1
281
     0
  0
BLOCK_RECORD
  5
17A
330
1
100
AcDbSymbolTableRecord
100
AcDbBlockTableRecord
  2
*D17
340
0
 70
     0
280
     1
281
     0
  0
BLOCK_RECORD
  5
188
330
1
100
AcDbSymbolTableRecord
100
AcDbBlockTableRecord
  2
*D18
340
0
 70
     0
280
     1
281
     0
  0
BLOCK_RECORD
  5
197
330
1
100
AcDbSymbolTableRecord
100
AcDbBlockTableRecord
  2
*D19
340
0
 70
     0
280
     1
281
     0
  0
BLOCK_RECORD
  5
1A5
330
1
100
AcDbSymbolTableRecord
100
AcDbBlockTableRecord
  2
*D20
340
0
 70
     0
280
     1
281
     0
  0
BLOCK_RECORD
  5
1B3
330
1
100
AcDbSymbolTableRecord
100
AcDbBlockTableRecord
  2
*D21
340
0
 70
     0
280
     1
281
     0
  0
BLOCK_RECORD
  5
1C1
330
1
100
AcDbSymbolTableRecord
100
AcDbBlockTableRecord
  2
*D22
340
0
 70
     0
280
     1
281
     0
  0
BLOCK_RECORD
  5
1D0
330
1
100
AcDbSymbolTableRecord
100
AcDbBlockTableRecord
  2
*D23
340
0
 70
     0
280
     1
281
     0
  0
BLOCK_RECORD
  5
1DE
330
1
100
AcDbSymbolTableRecord
100
AcDbBlockTableRecord
  2
*D24
340
0
 70
     0
280
     1
281
     0
  0
ENDTAB
  0
ENDSEC
  0
SECTION
  2
BLOCKS
  0
BLOCK
  5
70
330
6F
100
AcDbEntity
  8
0
100
AcDbBlockBegin
  2
*Model_Space
 70
     0
 10
0.0
 20
0.0
 30
0.0
  3
*Model_Space
  1

  0
ENDBLK
  5
71
330
6F
100
AcDbEntity
  8
0
100
AcDbBlockEnd
  0
BLOCK
  5
6C
330
6B
100
AcDbEntity
 67
     1
  8
0
100
AcDbBlockBegin
  2
*Paper_Space
 70
     0
 10
0.0
 20
0.0
 30
0.0
  3
*Paper_Space
  1

  0
ENDBLK
  5
6D
330
6B
100
AcDbEntity
 67
     1
  8
0
100
AcDbBlockEnd
  0
BLOCK
  5
87
330
86
100
AcDbEntity
  8
KUTAI
  6
ByBlock
 62
    12
100
AcDbBlockBegin
  2
*X0
 70
     1
 10
0.0
 20
0.0
 30
0.0
  3
*X0
  1

  0
LINE
  5
88
330
86
100
AcDbEntity
  8
KUTAI
  6
ByBlock
 62
     0
100
AcDbLine
 10
227.7273721234332
 20
45.38001000589581
 30
0.0
 11
229.3273721234317
 21
46.98001000589389
 31
0.0
  0
LINE
  5
89
330
86
100
AcDbEntity
  8
KUTAI
  6
ByBlock
 62
     0
100
AcDbLine
 10
228.0509278357715
 20
44.28935215378678
 30
0.0
 11
229.3908846518856
 21
45.62930897134492
 31
0.0
  0
LINE
  5
8A
330
86
100
AcDbEntity
  8
KUTAI
  6
ByBlock
 62
     0
100
AcDbLine
 10
227.7273721234332
 20
66.59321344149218
 30
0.0
 11
229.3273721234303
 21
68.19321344148979
 31
0.0
  0
LINE
  5
8B
330
86
100
AcDbEntity
  8
KUTAI
  6
ByBlock
 62
     0
100
AcDbLine
 10
256.1273721234334
 20
94.99321344149231
 30
0.0
 11
257.7273721234319
 21
96.59321344149091
 31
0.0
  0
LINE
  5
8C
330
86
100
AcDbEntity
  8
KUTAI
  6
ByBlock
 62
     0
100
AcDbLine
 10
227.7273721234328
 20
65.17899987911801
 30
0.0
 11
229.3273721234318
 21
66.77899987911752
 31
0.0
  0
LINE
  5
8D
330
86
100
AcDbEntity
  8
KUTAI
  6
ByBlock
 62
     0
100
AcDbLine
 10
256.1273721234338
 20
93.57899987911954
 30
0.0
 11
257.7273721234333
 21
95.17899987911899
 31
0.0
  0
LINE
  5
8E
330
86
100
AcDbEntity
  8
KUTAI
  6
ByBlock
 62
     0
100
AcDbLine
 10
227.7273721234315
 20
87.80641687708669
 30
0.0
 11
229.3273721234309
 21
89.40641687708621
 31
0.0
  0
LINE
  5
8F
330
86
100
AcDbEntity
  8
KUTAI
  6
ByBlock
 62
     0
100
AcDbLine
 10
241.7009652522406
 20
101.7800100058959
 30
0.0
 11
243.3009652522401
 21
103.3800100058954
 31
0.0
  0
LINE
  5
90
330
86
100
AcDbEntity
  8
KUTAI
  6
ByBlock
 62
     0
100
AcDbLine
 10
227.7273721234324
 20
86.39220331471443
 30
0.0
 11
229.3273721234314
 21
87.99220331471293
 31
0.0
  0
LINE
  5
91
330
86
100
AcDbEntity
  8
KUTAI
  6
ByBlock
 62
     0
100
AcDbLine
 10
243.1151788146158
 20
101.7800100058974
 30
0.0
 11
244.7151788146125
 21
103.3800100058945
 31
0.0
  0
LINE
  5
92
330
86
100
AcDbEntity
  8
KUTAI
  6
ByBlock
 62
     0
100
AcDbLine
 10
246.940575559029
 20
43.38001000589539
 30
0.0
 11
248.5405755590271
 21
44.98001000589299
 31
0.0
  0
LINE
  5
93
330
86
100
AcDbEntity
  8
KUTAI
  6
ByBlock
 62
     0
100
AcDbLine
 10
256.1273721234341
 20
52.5668065703004
 30
0.0
 11
256.9405755590264
 21
53.38001000589261
 31
0.0
  0
LINE
  5
94
330
86
100
AcDbEntity
  8
KUTAI
  6
ByBlock
 62
     0
100
AcDbLine
 10
248.3547891214028
 20
43.3800100058958
 30
0.0
 11
249.9547891214004
 21
44.9800100058934
 31
0.0
  0
LINE
  5
95
330
86
100
AcDbEntity
  8
KUTAI
  6
ByBlock
 62
     0
100
AcDbLine
 10
256.1273721234347
 20
51.15259300792722
 30
0.0
 11
257.7273721234309
 21
52.75259300792392
 31
0.0
  0
ENDBLK
  5
96
330
86
100
AcDbEntity
  8
KUTAI
  6
ByBlock
 62
    12
100
AcDbBlockEnd
  0
BLOCK
  5
98
330
97
100
AcDbEntity
  8
DXF0
  6
Continuous
 62
     3
100
AcDbBlockBegin
  2
*D1
 70
     1
 10
0.0
 20
0.0
 30
0.0
  3
*D1
  1

  0
LINE
  5
99
330
97
100
AcDbEntity
  8
DXF0
  6
ByBlock
 62
     0
100
AcDbLine
 10
214.0562019761849
 20
377.3920818358516
 30
0.0
 11
214.0562019761849
 21
387.3920818358567
 31
0.0
  0
LWPOLYLINE
  5
9A
330
97
100
AcDbEntity
  8
DXF0
  6
ByBlock
 62
     0
100
AcDbPolyline
 90
        2
 70
     1
 43
0.5
 10
214.3062019761849
 20
377.3920818358516
 42
1.0
 10
213.8062019761849
 20
377.3920818358516
 42
1.0
  0
LWPOLYLINE
  5
9E
330
97
100
AcDbEntity
  8
DXF0
  6
ByBlock
 62
     0
100
AcDbPolyline
 90
        2
 70
     1
 43
0.5
 10
214.3062019761849
 20
387.3920818358567
 42
1.0
 10
213.8062019761849
 20
387.3920818358567
 42
1.0
  0
LINE
  5
A2
330
97
100
AcDbEntity
  8
DXF0
  6
ByBlock
 62
     0
100
AcDbLine
 10
217.5387701870565
 20
387.3920818358567
 30
0.0
 11
212.0562019761849
 21
387.3920818358567
 31
0.0
  0
TEXT
  5
A3
330
97
100
AcDbEntity
  8
DXF0
  6
ByBlock
 62
     0
100
AcDbText
 10
213.5562019761849
 20
379.7920817524077
 30
0.0
 40
3.099999904632568
  1
10
 50
90.0
100
AcDbText
  0
ENDBLK
  5
A4
330
97
100
AcDbEntity
  8
DXF0
  6
Continuous
 62
     3
100
AcDbBlockEnd
  0
BLOCK
  5
A6
330
A5
100
AcDbEntity
  8
DXF0
  6
Continuous
 62
     3
100
AcDbBlockBegin
  2
*D2
 70
     1
 10
0.0
 20
0.0
 30
0.0
  3
*D2
  1

  0
LINE
  5
A7
330
A5
100
AcDbEntity
  8
DXF0
  6
ByBlock
 62
     0
100
AcDbLine
 10
223.4493718243026
 20
377.3920818358516
 30
0.0
 11
223.4493718243026
 21
382.0388980895332
 31
0.0
  0
LWPOLYLINE
  5
A8
330
A5
100
AcDbEntity
  8
DXF0
  6
ByBlock
 62
     0
100
AcDbPolyline
 90
        2
 70
     1
 43
0.5
 10
223.6993718243026
 20
377.3920818358516
 42
1.0
 10
223.1993718243026
 20
377.3920818358516
 42
1.0
  0
LWPOLYLINE
  5
AC
330
A5
100
AcDbEntity
  8
DXF0
  6
ByBlock
 62
     0
100
AcDbPolyline
 90
        2
 70
     1
 43
0.5
 10
223.6993718243026
 20
378.3920818358709
 42
1.0
 10
223.1993718243026
 20
378.3920818358709
 42
1.0
  0
LINE
  5
B0
330
A5
100
AcDbEntity
  8
DXF0
  6
ByBlock
 62
     0
100
AcDbLine
 10
226.9273721114498
 20
378.3920818358709
 30
0.0
 11
221.4493718243026
 21
378.3920818358709
 31
0.0
  0
TEXT
  5
B1
330
A5
100
AcDbEntity
  8
DXF0
  6
ByBlock
 62
     0
100
AcDbText
 10
222.9493718243026
 20
379.4388981215241
 30
0.0
 40
3.099999904632568
  1
1
 50
90.0
100
AcDbText
  0
ENDBLK
  5
B2
330
A5
100
AcDbEntity
  8
DXF0
  6
Continuous
 62
     3
100
AcDbBlockEnd
  0
BLOCK
  5
B4
330
B3
100
AcDbEntity
  8
DXF0
  6
Continuous
 62
     3
100
AcDbBlockBegin
  2
*D3
 70
     1
 10
0.0
 20
0.0
 30
0.0
  3
*D3
  1

  0
LINE
  5
B5
330
B3
100
AcDbEntity
  8
DXF0
  6
ByBlock
 62
     0
100
AcDbLine
 10
227.7273721233707
 20
377.5920818239251
 30
0.0
 11
227.7273721233707
 21
316.1016654367077
 31
0.0
  0
LINE
  5
B6
330
B3
100
AcDbEntity
  8
DXF0
  6
ByBlock
 62
     0
100
AcDbLine
 10
227.7273721233707
 20
318.1016654367077
 30
0.0
 11
242.7273721234328
 21
318.1016654367077
 31
0.0
  0
LWPOLYLINE
  5
B7
330
B3
100
AcDbEntity
  8
DXF0
  6
ByBlock
 62
     0
100
AcDbPolyline
 90
        2
 70
     1
 43
0.5
 10
227.9773721233707
 20
318.1016654367077
 42
1.0
 10
227.4773721233707
 20
318.1016654367077
 42
1.0
  0
LWPOLYLINE
  5
BB
330
B3
100
AcDbEntity
  8
DXF0
  6
ByBlock
 62
     0
100
AcDbPolyline
 90
        2
 70
     1
 43
0.5
 10
242.9773721234328
 20
318.1016654367077
 42
1.0
 10
242.4773721234328
 20
318.1016654367077
 42
1.0
  0
TEXT
  5
BF
330
B3
100
AcDbEntity
  8
DXF0
  6
ByBlock
 62
     0
100
AcDbText
 10
232.6273720399552
 20
318.6016654367076
 30
0.0
 40
3.099999904632568
  1
15
100
AcDbText
  0
ENDBLK
  5
C0
330
B3
100
AcDbEntity
  8
DXF0
  6
Continuous
 62
     3
100
AcDbBlockEnd
  0
BLOCK
  5
C2
330
C1
100
AcDbEntity
  8
DXF0
  6
Continuous
 62
     3
100
AcDbBlockBegin
  2
*D4
 70
     1
 10
0.0
 20
0.0
 30
0.0
  3
*D4
  1

  0
LINE
  5
C3
330
C1
100
AcDbEntity
  8
DXF0
  6
ByBlock
 62
     0
100
AcDbLine
 10
242.7273721234328
 20
318.1016654367077
 30
0.0
 11
257.727372123513
 21
318.1016654367077
 31
0.0
  0
LWPOLYLINE
  5
C4
330
C1
100
AcDbEntity
  8
DXF0
  6
ByBlock
 62
     0
100
AcDbPolyline
 90
        2
 70
     1
 43
0.5
 10
242.9773721234328
 20
318.1016654367077
 42
1.0
 10
242.4773721234328
 20
318.1016654367077
 42
1.0
  0
LWPOLYLINE
  5
C8
330
C1
100
AcDbEntity
  8
DXF0
  6
ByBlock
 62
     0
100
AcDbPolyline
 90
        2
 70
     1
 43
0.5
 10
257.977372123513
 20
318.1016654367077
 42
1.0
 10
257.477372123513
 20
318.1016654367077
 42
1.0
  0
LINE
  5
CC
330
C1
100
AcDbEntity
  8
DXF0
  6
ByBlock
 62
     0
100
AcDbLine
 10
257.727372123513
 20
377.5920818239678
 30
0.0
 11
257.727372123513
 21
316.1016654367077
 31
0.0
  0
TEXT
  5
CD
330
C1
100
AcDbEntity
  8
DXF0
  6
ByBlock
 62
     0
100
AcDbText
 10
247.6273720400264
 20
318.6016654367076
 30
0.0
 40
3.099999904632568
  1
15
100
AcDbText
  0
ENDBLK
  5
CE
330
C1
100
AcDbEntity
  8
DXF0
  6
Continuous
 62
     3
100
AcDbBlockEnd
  0
BLOCK
  5
D0
330
CF
100
AcDbEntity
  8
DXF0
  6
Continuous
 62
     3
100
AcDbBlockBegin
  2
*D5
 70
     1
 10
0.0
 20
0.0
 30
0.0
  3
*D5
  1

  0
LINE
  5
D1
330
CF
100
AcDbEntity
  8
DXF0
  6
ByBlock
 62
     0
100
AcDbLine
 10
592.7412277189412
 20
384.2504265764335
 30
0.0
 11
592.7412277189412
 21
313.1053541694744
 31
0.0
  0
LINE
  5
D2
330
CF
100
AcDbEntity
  8
DXF0
  6
ByBlock
 62
     0
100
AcDbLine
 10
592.7412277189412
 20
315.1053541694744
 30
0.0
 11
607.7412277190031
 21
315.1053541694744
 31
0.0
  0
LWPOLYLINE
  5
D3
330
CF
100
AcDbEntity
  8
DXF0
  6
ByBlock
 62
     0
100
AcDbPolyline
 90
        2
 70
     1
 43
0.5
 10
592.9912277189412
 20
315.1053541694744
 42
1.0
 10
592.4912277189412
 20
315.1053541694744
 42
1.0
  0
LWPOLYLINE
  5
D7
330
CF
100
AcDbEntity
  8
DXF0
  6
ByBlock
 62
     0
100
AcDbPolyline
 90
        2
 70
     1
 43
0.5
 10
607.9912277190032
 20
315.1053541694744
 42
1.0
 10
607.4912277190032
 20
315.1053541694744
 42
1.0
  0
LINE
  5
DB
330
CF
100
AcDbEntity
  8
DXF0
  6
ByBlock
 62
     0
100
AcDbLine
 10
607.7412277190031
 20
322.0389909181588
 30
0.0
 11
607.7412277190031
 21
313.1053541694744
 31
0.0
  0
TEXT
  5
DC
330
CF
100
AcDbEntity
  8
DXF0
  6
ByBlock
 62
     0
100
AcDbText
 10
597.6412276355256
 20
315.6053541694744
 30
0.0
 40
3.099999904632568
  1
15
100
AcDbText
  0
ENDBLK
  5
DD
330
CF
100
AcDbEntity
  8
DXF0
  6
Continuous
 62
     3
100
AcDbBlockEnd
  0
BLOCK
  5
DF
330
DE
100
AcDbEntity
  8
DXF0
  6
Continuous
 62
     3
100
AcDbBlockBegin
  2
*D6
 70
     1
 10
0.0
 20
0.0
 30
0.0
  3
*D6
  1

  0
LINE
  5
E0
330
DE
100
AcDbEntity
  8
DXF0
  6
ByBlock
 62
     0
100
AcDbLine
 10
607.7412277190031
 20
322.0389909181588
 30
0.0
 11
607.7412277190031
 21
313.1053541694744
 31
0.0
  0
LINE
  5
E1
330
DE
100
AcDbEntity
  8
DXF0
  6
ByBlock
 62
     0
100
AcDbLine
 10
607.7412277190031
 20
315.1053541694744
 30
0.0
 11
622.7412277190836
 21
315.1053541694744
 31
0.0
  0
LWPOLYLINE
  5
E2
330
DE
100
AcDbEntity
  8
DXF0
  6
ByBlock
 62
     0
100
AcDbPolyline
 90
        2
 70
     1
 43
0.5
 10
607.9912277190032
 20
315.1053541694744
 42
1.0
 10
607.4912277190032
 20
315.1053541694744
 42
1.0
  0
LWPOLYLINE
  5
E6
330
DE
100
AcDbEntity
  8
DXF0
  6
ByBlock
 62
     0
100
AcDbPolyline
 90
        2
 70
     1
 43
0.5
 10
622.9912277190837
 20
315.1053541694744
 42
1.0
 10
622.4912277190837
 20
315.1053541694744
 42
1.0
  0
LINE
  5
EA
330
DE
100
AcDbEntity
  8
DXF0
  6
ByBlock
 62
     0
100
AcDbLine
 10
622.7412277190836
 20
384.2504265764763
 30
0.0
 11
622.7412277190836
 21
313.1053541694744
 31
0.0
  0
TEXT
  5
EB
330
DE
100
AcDbEntity
  8
DXF0
  6
ByBlock
 62
     0
100
AcDbText
 10
612.6412276355968
 20
315.6053541694744
 30
0.0
 40
3.099999904632568
  1
15
100
AcDbText
  0
ENDBLK
  5
EC
330
DE
100
AcDbEntity
  8
DXF0
  6
Continuous
 62
     3
100
AcDbBlockEnd
  0
BLOCK
  5
EE
330
ED
100
AcDbEntity
  8
DXF0
  6
Continuous
 62
     3
100
AcDbBlockBegin
  2
*D7
 70
     1
 10
0.0
 20
0.0
 30
0.0
  3
*D7
  1

  0
LINE
  5
EF
330
ED
100
AcDbEntity
  8
DXF0
  6
ByBlock
 62
     0
100
AcDbLine
 10
214.0562019761848
 20
106.3800100058962
 30
0.0
 11
214.0562019761848
 21
116.3800100059013
 31
0.0
  0
LWPOLYLINE
  5
F0
330
ED
100
AcDbEntity
  8
DXF0
  6
ByBlock
 62
     0
100
AcDbPolyline
 90
        2
 70
     1
 43
0.5
 10
214.3062019761848
 20
106.3800100058962
 42
1.0
 10
213.8062019761848
 20
106.3800100058962
 42
1.0
  0
LWPOLYLINE
  5
F4
330
ED
100
AcDbEntity
  8
DXF0
  6
ByBlock
 62
     0
100
AcDbPolyline
 90
        2
 70
     1
 43
0.5
 10
214.3062019761848
 20
116.3800100059013
 42
1.0
 10
213.8062019761848
 20
116.3800100059013
 42
1.0
  0
LINE
  5
F8
330
ED
100
AcDbEntity
  8
DXF0
  6
ByBlock
 62
     0
100
AcDbLine
 10
217.5387701870563
 20
116.3800100059013
 30
0.0
 11
212.0562019761848
 21
116.3800100059013
 31
0.0
  0
TEXT
  5
F9
330
ED
100
AcDbEntity
  8
DXF0
  6
ByBlock
 62
     0
100
AcDbText
 10
213.5562019761848
 20
108.7800099224523
 30
0.0
 40
3.099999904632568
  1
10
 50
90.0
100
AcDbText
  0
ENDBLK
  5
FA
330
ED
100
AcDbEntity
  8
DXF0
  6
Continuous
 62
     3
100
AcDbBlockEnd
  0
BLOCK
  5
FC
330
FB
100
AcDbEntity
  8
DXF0
  6
Continuous
 62
     3
100
AcDbBlockBegin
  2
*D8
 70
     1
 10
0.0
 20
0.0
 30
0.0
  3
*D8
  1

  0
LINE
  5
FD
330
FB
100
AcDbEntity
  8
DXF0
  6
ByBlock
 62
     0
100
AcDbLine
 10
227.7273721233707
 20
106.5800099939697
 30
0.0
 11
227.7273721233707
 21
61.52667342535671
 31
0.0
  0
LINE
  5
FE
330
FB
100
AcDbEntity
  8
DXF0
  6
ByBlock
 62
     0
100
AcDbLine
 10
227.7273721233707
 20
63.52667342535671
 30
0.0
 11
242.7273721234328
 21
63.52667342535671
 31
0.0
  0
LWPOLYLINE
  5
FF
330
FB
100
AcDbEntity
  8
DXF0
  6
ByBlock
 62
     0
100
AcDbPolyline
 90
        2
 70
     1
 43
0.5
 10
227.9773721233707
 20
63.52667342535671
 42
1.0
 10
227.4773721233707
 20
63.52667342535671
 42
1.0
  0
LWPOLYLINE
  5
103
330
FB
100
AcDbEntity
  8
DXF0
  6
ByBlock
 62
     0
100
AcDbPolyline
 90
        2
 70
     1
 43
0.5
 10
242.9773721234328
 20
63.52667342535671
 42
1.0
 10
242.4773721234328
 20
63.52667342535671
 42
1.0
  0
TEXT
  5
107
330
FB
100
AcDbEntity
  8
DXF0
  6
ByBlock
 62
     0
100
AcDbText
 10
232.6273720399552
 20
64.02667342535671
 30
0.0
 40
3.099999904632568
  1
15
100
AcDbText
  0
ENDBLK
  5
108
330
FB
100
AcDbEntity
  8
DXF0
  6
Continuous
 62
     3
100
AcDbBlockEnd
  0
BLOCK
  5
10A
330
109
100
AcDbEntity
  8
DXF0
  6
Continuous
 62
     3
100
AcDbBlockBegin
  2
*D9
 70
     1
 10
0.0
 20
0.0
 30
0.0
  3
*D9
  1

  0
LINE
  5
10B
330
109
100
AcDbEntity
  8
DXF0
  6
ByBlock
 62
     0
100
AcDbLine
 10
242.7273721234328
 20
63.52667342535671
 30
0.0
 11
257.7273721235131
 21
63.52667342535671
 31
0.0
  0
LWPOLYLINE
  5
10C
330
109
100
AcDbEntity
  8
DXF0
  6
ByBlock
 62
     0
100
AcDbPolyline
 90
        2
 70
     1
 43
0.5
 10
242.9773721234328
 20
63.52667342535671
 42
1.0
 10
242.4773721234328
 20
63.52667342535671
 42
1.0
  0
LWPOLYLINE
  5
110
330
109
100
AcDbEntity
  8
DXF0
  6
ByBlock
 62
     0
100
AcDbPolyline
 90
        2
 70
     1
 43
0.5
 10
257.9773721235131
 20
63.52667342535671
 42
1.0
 10
257.4773721235132
 20
63.52667342535671
 42
1.0
  0
LINE
  5
114
330
109
100
AcDbEntity
  8
DXF0
  6
ByBlock
 62
     0
100
AcDbLine
 10
257.7273721235131
 20
106.5800099940124
 30
0.0
 11
257.7273721235131
 21
61.52667342535671
 31
0.0
  0
TEXT
  5
115
330
109
100
AcDbEntity
  8
DXF0
  6
ByBlock
 62
     0
100
AcDbText
 10
247.6273720400264
 20
64.02667342535671
 30
0.0
 40
3.099999904632568
  1
15
100
AcDbText
  0
ENDBLK
  5
116
330
109
100
AcDbEntity
  8
DXF0
  6
Continuous
 62
     3
100
AcDbBlockEnd
  0
BLOCK
  5
118
330
117
100
AcDbEntity
  8
DXF0
  6
Continuous
 62
     3
100
AcDbBlockBegin
  2
*D10
 70
     1
 10
0.0
 20
0.0
 30
0.0
  3
*D10
  1

  0
LINE
  5
119
330
117
100
AcDbEntity
  8
DXF0
  6
ByBlock
 62
     0
100
AcDbLine
 10
579.070057571755
 20
99.49581262823654
 30
0.0
 11
579.070057571755
 21
109.4958126282417
 31
0.0
  0
LWPOLYLINE
  5
11A
330
117
100
AcDbEntity
  8
DXF0
  6
ByBlock
 62
     0
100
AcDbPolyline
 90
        2
 70
     1
 43
0.5
 10
579.3200575717549
 20
99.49581262823654
 42
1.0
 10
578.8200575717549
 20
99.49581262823654
 42
1.0
  0
LWPOLYLINE
  5
11E
330
117
100
AcDbEntity
  8
DXF0
  6
ByBlock
 62
     0
100
AcDbPolyline
 90
        2
 70
     1
 43
0.5
 10
579.3200575717549
 20
109.4958126282417
 42
1.0
 10
578.8200575717549
 20
109.4958126282417
 42
1.0
  0
LINE
  5
122
330
117
100
AcDbEntity
  8
DXF0
  6
ByBlock
 62
     0
100
AcDbLine
 10
582.5526257826266
 20
109.4958126282417
 30
0.0
 11
577.0700575717549
 21
109.4958126282417
 31
0.0
  0
TEXT
  5
123
330
117
100
AcDbEntity
  8
DXF0
  6
ByBlock
 62
     0
100
AcDbText
 10
578.570057571755
 20
101.8958125447926
 30
0.0
 40
3.099999904632568
  1
10
 50
90.0
100
AcDbText
  0
ENDBLK
  5
124
330
117
100
AcDbEntity
  8
DXF0
  6
Continuous
 62
     3
100
AcDbBlockEnd
  0
BLOCK
  5
126
330
125
100
AcDbEntity
  8
DXF0
  6
Continuous
 62
     3
100
AcDbBlockBegin
  2
*D11
 70
     1
 10
0.0
 20
0.0
 30
0.0
  3
*D11
  1

  0
LINE
  5
127
330
125
100
AcDbEntity
  8
DXF0
  6
ByBlock
 62
     0
100
AcDbLine
 10
592.7412277189412
 20
99.69581261631001
 30
0.0
 11
592.7412277189412
 21
56.14247604769662
 31
0.0
  0
LINE
  5
128
330
125
100
AcDbEntity
  8
DXF0
  6
ByBlock
 62
     0
100
AcDbLine
 10
592.7412277189412
 20
58.14247604769661
 30
0.0
 11
607.7412277190031
 21
58.14247604769661
 31
0.0
  0
LWPOLYLINE
  5
129
330
125
100
AcDbEntity
  8
DXF0
  6
ByBlock
 62
     0
100
AcDbPolyline
 90
        2
 70
     1
 43
0.5
 10
592.9912277189412
 20
58.14247604769661
 42
1.0
 10
592.4912277189412
 20
58.14247604769661
 42
1.0
  0
LWPOLYLINE
  5
12D
330
125
100
AcDbEntity
  8
DXF0
  6
ByBlock
 62
     0
100
AcDbPolyline
 90
        2
 70
     1
 43
0.5
 10
607.9912277190032
 20
58.14247604769661
 42
1.0
 10
607.4912277190032
 20
58.14247604769661
 42
1.0
  0
TEXT
  5
131
330
125
100
AcDbEntity
  8
DXF0
  6
ByBlock
 62
     0
100
AcDbText
 10
597.6412276355256
 20
58.64247604769662
 30
0.0
 40
3.099999904632568
  1
15
100
AcDbText
  0
ENDBLK
  5
132
330
125
100
AcDbEntity
  8
DXF0
  6
Continuous
 62
     3
100
AcDbBlockEnd
  0
BLOCK
  5
134
330
133
100
AcDbEntity
  8
DXF0
  6
Continuous
 62
     3
100
AcDbBlockBegin
  2
*D12
 70
     1
 10
0.0
 20
0.0
 30
0.0
  3
*D12
  1

  0
LINE
  5
135
330
133
100
AcDbEntity
  8
DXF0
  6
ByBlock
 62
     0
100
AcDbLine
 10
607.7412277190031
 20
58.14247604769661
 30
0.0
 11
622.7412277190836
 21
58.14247604769661
 31
0.0
  0
LWPOLYLINE
  5
136
330
133
100
AcDbEntity
  8
DXF0
  6
ByBlock
 62
     0
100
AcDbPolyline
 90
        2
 70
     1
 43
0.5
 10
607.9912277190032
 20
58.14247604769661
 42
1.0
 10
607.4912277190032
 20
58.14247604769661
 42
1.0
  0
LWPOLYLINE
  5
13A
330
133
100
AcDbEntity
  8
DXF0
  6
ByBlock
 62
     0
100
AcDbPolyline
 90
        2
 70
     1
 43
0.5
 10
622.9912277190837
 20
58.14247604769661
 42
1.0
 10
622.4912277190837
 20
58.14247604769661
 42
1.0
  0
LINE
  5
13E
330
133
100
AcDbEntity
  8
DXF0
  6
ByBlock
 62
     0
100
AcDbLine
 10
622.7412277190836
 20
99.69581261635276
 30
0.0
 11
622.7412277190836
 21
56.14247604769662
 31
0.0
  0
TEXT
  5
13F
330
133
100
AcDbEntity
  8
DXF0
  6
ByBlock
 62
     0
100
AcDbText
 10
612.6412276355968
 20
58.64247604769662
 30
0.0
 40
3.099999904632568
  1
15
100
AcDbText
  0
ENDBLK
  5
140
330
133
100
AcDbEntity
  8
DXF0
  6
Continuous
 62
     3
100
AcDbBlockEnd
  0
BLOCK
  5
142
330
141
100
AcDbEntity
  8
DXF0
  6
Continuous
 62
     3
100
AcDbBlockBegin
  2
*D13
 70
     1
 10
0.0
 20
0.0
 30
0.0
  3
*D13
  1

  0
LINE
  5
143
330
141
100
AcDbEntity
  8
DXF0
  6
ByBlock
 62
     0
100
AcDbLine
 10
221.7264840812696
 20
106.3800100058962
 30
0.0
 11
221.7264840812696
 21
110.9108604163907
 31
0.0
  0
LWPOLYLINE
  5
144
330
141
100
AcDbEntity
  8
DXF0
  6
ByBlock
 62
     0
100
AcDbPolyline
 90
        2
 70
     1
 43
0.5
 10
221.9764840812696
 20
106.3800100058962
 42
1.0
 10
221.4764840812696
 20
106.3800100058962
 42
1.0
  0
LWPOLYLINE
  5
148
330
141
100
AcDbEntity
  8
DXF0
  6
ByBlock
 62
     0
100
AcDbPolyline
 90
        2
 70
     1
 43
0.5
 10
221.9764840812696
 20
107.3800100059293
 42
1.0
 10
221.4764840812696
 20
107.3800100059293
 42
1.0
  0
LINE
  5
14C
330
141
100
AcDbEntity
  8
DXF0
  6
ByBlock
 62
     0
100
AcDbLine
 10
226.9273721117105
 20
107.3800100059293
 30
0.0
 11
219.7264840812696
 21
107.3800100059293
 31
0.0
  0
TEXT
  5
14D
330
141
100
AcDbEntity
  8
DXF0
  6
ByBlock
 62
     0
100
AcDbText
 10
221.2264840812696
 20
108.3108603051181
 30
0.0
 40
3.099999904632568
  1
1
 50
90.0
100
AcDbText
  0
ENDBLK
  5
14E
330
141
100
AcDbEntity
  8
DXF0
  6
Continuous
 62
     3
100
AcDbBlockEnd
  0
BLOCK
  5
150
330
14F
100
AcDbEntity
  8
DXF0
  6
Continuous
 62
     3
100
AcDbBlockBegin
  2
*D14
 70
     1
 10
0.0
 20
0.0
 30
0.0
  3
*D14
  1

  0
LINE
  5
151
330
14F
100
AcDbEntity
  8
DXF0
  6
ByBlock
 62
     0
100
AcDbLine
 10
226.9273721117103
 20
256.3800100059167
 30
0.0
 11
197.2731519240804
 21
256.3800100059167
 31
0.0
  0
LINE
  5
152
330
14F
100
AcDbEntity
  8
DXF0
  6
ByBlock
 62
     0
100
AcDbLine
 10
199.2731519240804
 20
256.3800100059167
 30
0.0
 11
199.2731519240804
 21
106.3800100058962
 31
0.0
  0
LWPOLYLINE
  5
153
330
14F
100
AcDbEntity
  8
DXF0
  6
ByBlock
 62
     0
100
AcDbPolyline
 90
        2
 70
     1
 43
0.5
 10
199.5231519240804
 20
256.3800100059167
 42
1.0
 10
199.0231519240804
 20
256.3800100059167
 42
1.0
  0
LWPOLYLINE
  5
157
330
14F
100
AcDbEntity
  8
DXF0
  6
ByBlock
 62
     0
100
AcDbPolyline
 90
        2
 70
     1
 43
0.5
 10
199.5231519240804
 20
106.3800100058962
 42
1.0
 10
199.0231519240804
 20
106.3800100058962
 42
1.0
  0
TEXT
  5
15B
330
14F
100
AcDbEntity
  8
DXF0
  6
ByBlock
 62
     0
100
AcDbText
 10
198.7731519240804
 20
177.3850098819288
 30
0.0
 40
3.099999904632568
  1
150
 50
90.0
100
AcDbText
  0
ENDBLK
  5
15C
330
14F
100
AcDbEntity
  8
DXF0
  6
Continuous
 62
     3
100
AcDbBlockEnd
  0
BLOCK
  5
15E
330
15D
100
AcDbEntity
  8
DXF0
  6
Continuous
 62
     3
100
AcDbBlockBegin
  2
*D15
 70
     1
 10
0.0
 20
0.0
 30
0.0
  3
*D15
  1

  0
LINE
  5
15F
330
15D
100
AcDbEntity
  8
DXF0
  6
ByBlock
 62
     0
100
AcDbLine
 10
227.7273721236315
 20
257.1800100178379
 30
0.0
 11
227.7273721236315
 21
273.1055124797484
 31
0.0
  0
LINE
  5
160
330
15D
100
AcDbEntity
  8
DXF0
  6
ByBlock
 62
     0
100
AcDbLine
 10
227.7273721236315
 20
271.1055124797484
 30
0.0
 11
257.7273721234313
 21
271.1055124797484
 31
0.0
  0
LWPOLYLINE
  5
161
330
15D
100
AcDbEntity
  8
DXF0
  6
ByBlock
 62
     0
100
AcDbPolyline
 90
        2
 70
     1
 43
0.5
 10
227.9773721236315
 20
271.1055124797484
 42
1.0
 10
227.4773721236315
 20
271.1055124797484
 42
1.0
  0
LWPOLYLINE
  5
165
330
15D
100
AcDbEntity
  8
DXF0
  6
ByBlock
 62
     0
100
AcDbPolyline
 90
        2
 70
     1
 43
0.5
 10
257.9773721234313
 20
271.1055124797484
 42
1.0
 10
257.4773721234314
 20
271.1055124797484
 42
1.0
  0
LINE
  5
169
330
15D
100
AcDbEntity
  8
DXF0
  6
ByBlock
 62
     0
100
AcDbLine
 10
257.7273721234313
 20
257.1800100178374
 30
0.0
 11
257.7273721234313
 21
273.1055124797484
 31
0.0
  0
TEXT
  5
16A
330
15D
100
AcDbEntity
  8
DXF0
  6
ByBlock
 62
     0
100
AcDbText
 10
240.1273720400849
 20
271.6055124797484
 30
0.0
 40
3.099999904632568
  1
30
100
AcDbText
  0
ENDBLK
  5
16B
330
15D
100
AcDbEntity
  8
DXF0
  6
Continuous
 62
     3
100
AcDbBlockEnd
  0
BLOCK
  5
16D
330
16C
100
AcDbEntity
  8
DXF0
  6
Continuous
 62
     3
100
AcDbBlockBegin
  2
*D16
 70
     1
 10
0.0
 20
0.0
 30
0.0
  3
*D16
  1

  0
LINE
  5
16E
330
16C
100
AcDbEntity
  8
DXF0
  6
ByBlock
 62
     0
100
AcDbLine
 10
568.0021507604987
 20
99.49581262823642
 30
0.0
 11
568.0021507604987
 21
249.495812628257
 31
0.0
  0
LWPOLYLINE
  5
16F
330
16C
100
AcDbEntity
  8
DXF0
  6
ByBlock
 62
     0
100
AcDbPolyline
 90
        2
 70
     1
 43
0.5
 10
568.2521507604986
 20
99.49581262823642
 42
1.0
 10
567.7521507604986
 20
99.49581262823642
 42
1.0
  0
LWPOLYLINE
  5
173
330
16C
100
AcDbEntity
  8
DXF0
  6
ByBlock
 62
     0
100
AcDbPolyline
 90
        2
 70
     1
 43
0.5
 10
568.2521507604986
 20
249.495812628257
 42
1.0
 10
567.7521507604986
 20
249.495812628257
 42
1.0
  0
LINE
  5
177
330
16C
100
AcDbEntity
  8
DXF0
  6
ByBlock
 62
     0
100
AcDbLine
 10
591.9412277072805
 20
249.495812628257
 30
0.0
 11
566.0021507604986
 21
249.495812628257
 31
0.0
  0
TEXT
  5
178
330
16C
100
AcDbEntity
  8
DXF0
  6
ByBlock
 62
     0
100
AcDbText
 10
567.5021507604987
 20
170.500812504269
 30
0.0
 40
3.099999904632568
  1
150
 50
90.0
100
AcDbText
  0
ENDBLK
  5
179
330
16C
100
AcDbEntity
  8
DXF0
  6
Continuous
 62
     3
100
AcDbBlockEnd
  0
BLOCK
  5
17B
330
17A
100
AcDbEntity
  8
DXF0
  6
Continuous
 62
     3
100
AcDbBlockBegin
  2
*D17
 70
     1
 10
0.0
 20
0.0
 30
0.0
  3
*D17
  1

  0
LINE
  5
17C
330
17A
100
AcDbEntity
  8
DXF0
  6
ByBlock
 62
     0
100
AcDbLine
 10
586.6062975656437
 20
99.49581262823642
 30
0.0
 11
586.6062975656437
 21
103.6257686352733
 31
0.0
  0
LWPOLYLINE
  5
17D
330
17A
100
AcDbEntity
  8
DXF0
  6
ByBlock
 62
     0
100
AcDbPolyline
 90
        2
 70
     1
 43
0.5
 10
586.8562975656438
 20
99.49581262823642
 42
1.0
 10
586.3562975656438
 20
99.49581262823642
 42
1.0
  0
LWPOLYLINE
  5
181
330
17A
100
AcDbEntity
  8
DXF0
  6
ByBlock
 62
     0
100
AcDbPolyline
 90
        2
 70
     1
 43
0.5
 10
586.8562975656438
 20
100.4958126282696
 42
1.0
 10
586.3562975656438
 20
100.4958126282696
 42
1.0
  0
LINE
  5
185
330
17A
100
AcDbEntity
  8
DXF0
  6
ByBlock
 62
     0
100
AcDbLine
 10
591.9412277072806
 20
100.4958126282696
 30
0.0
 11
584.6062975656438
 21
100.4958126282696
 31
0.0
  0
TEXT
  5
186
330
17A
100
AcDbEntity
  8
DXF0
  6
ByBlock
 62
     0
100
AcDbText
 10
586.1062975656437
 20
101.0257684754208
 30
0.0
 40
3.099999904632568
  1
1
 50
90.0
100
AcDbText
  0
ENDBLK
  5
187
330
17A
100
AcDbEntity
  8
DXF0
  6
Continuous
 62
     3
100
AcDbBlockEnd
  0
BLOCK
  5
189
330
188
100
AcDbEntity
  8
DXF0
  6
Continuous
 62
     3
100
AcDbBlockBegin
  2
*D18
 70
     1
 10
0.0
 20
0.0
 30
0.0
  3
*D18
  1

  0
LINE
  5
18A
330
188
100
AcDbEntity
  8
DXF0
  6
ByBlock
 62
     0
100
AcDbLine
 10
592.7412277192018
 20
250.2958126401782
 30
0.0
 11
592.7412277192017
 21
273.1055124797484
 31
0.0
  0
LINE
  5
18B
330
188
100
AcDbEntity
  8
DXF0
  6
ByBlock
 62
     0
100
AcDbLine
 10
592.7412277192017
 20
271.1055124797484
 30
0.0
 11
622.7412277190015
 21
271.1055124797484
 31
0.0
  0
LWPOLYLINE
  5
18C
330
188
100
AcDbEntity
  8
DXF0
  6
ByBlock
 62
     0
100
AcDbPolyline
 90
        2
 70
     1
 43
0.5
 10
592.9912277192016
 20
271.1055124797484
 42
1.0
 10
592.4912277192016
 20
271.1055124797484
 42
1.0
  0
LWPOLYLINE
  5
190
330
188
100
AcDbEntity
  8
DXF0
  6
ByBlock
 62
     0
100
AcDbPolyline
 90
        2
 70
     1
 43
0.5
 10
622.9912277190014
 20
271.1055124797484
 42
1.0
 10
622.4912277190014
 20
271.1055124797484
 42
1.0
  0
LINE
  5
194
330
188
100
AcDbEntity
  8
DXF0
  6
ByBlock
 62
     0
100
AcDbLine
 10
622.7412277190015
 20
250.2958126401777
 30
0.0
 11
622.7412277190015
 21
273.1055124797484
 31
0.0
  0
TEXT
  5
195
330
188
100
AcDbEntity
  8
DXF0
  6
ByBlock
 62
     0
100
AcDbText
 10
605.141227635655
 20
271.6055124797484
 30
0.0
 40
3.099999904632568
  1
30
100
AcDbText
  0
ENDBLK
  5
196
330
188
100
AcDbEntity
  8
DXF0
  6
Continuous
 62
     3
100
AcDbBlockEnd
  0
BLOCK
  5
198
330
197
100
AcDbEntity
  8
DXF0
  6
Continuous
 62
     3
100
AcDbBlockBegin
  2
*D19
 70
     1
 10
0.0
 20
0.0
 30
0.0
  3
*D19
  1

  0
LINE
  5
199
330
197
100
AcDbEntity
  8
DXF0
  6
ByBlock
 62
     0
100
AcDbLine
 10
591.9412277072806
 20
534.0504265883803
 30
0.0
 11
568.5500932065997
 21
534.0504265883803
 31
0.0
  0
LINE
  5
19A
330
197
100
AcDbEntity
  8
DXF0
  6
ByBlock
 62
     0
100
AcDbLine
 10
570.5500932065997
 20
534.0504265883803
 30
0.0
 11
570.5500932065997
 21
384.05042658836
 31
0.0
  0
LWPOLYLINE
  5
19B
330
197
100
AcDbEntity
  8
DXF0
  6
ByBlock
 62
     0
100
AcDbPolyline
 90
        2
 70
     1
 43
0.5
 10
570.8000932065997
 20
534.0504265883803
 42
1.0
 10
570.3000932065997
 20
534.0504265883803
 42
1.0
  0
LWPOLYLINE
  5
19F
330
197
100
AcDbEntity
  8
DXF0
  6
ByBlock
 62
     0
100
AcDbPolyline
 90
        2
 70
     1
 43
0.5
 10
570.8000932065997
 20
384.05042658836
 42
1.0
 10
570.3000932065997
 20
384.05042658836
 42
1.0
  0
TEXT
  5
1A3
330
197
100
AcDbEntity
  8
DXF0
  6
ByBlock
 62
     0
100
AcDbText
 10
570.0500932065997
 20
455.0554264643926
 30
0.0
 40
3.099999904632568
  1
150
 50
90.0
100
AcDbText
  0
ENDBLK
  5
1A4
330
197
100
AcDbEntity
  8
DXF0
  6
Continuous
 62
     3
100
AcDbBlockEnd
  0
BLOCK
  5
1A6
330
1A5
100
AcDbEntity
  8
DXF0
  6
Continuous
 62
     3
100
AcDbBlockBegin
  2
*D20
 70
     1
 10
0.0
 20
0.0
 30
0.0
  3
*D20
  1

  0
LINE
  5
1A7
330
1A5
100
AcDbEntity
  8
DXF0
  6
ByBlock
 62
     0
100
AcDbLine
 10
580.608523730303
 20
384.05042658836
 30
0.0
 11
580.608523730303
 21
394.0504265883651
 31
0.0
  0
LWPOLYLINE
  5
1A8
330
1A5
100
AcDbEntity
  8
DXF0
  6
ByBlock
 62
     0
100
AcDbPolyline
 90
        2
 70
     1
 43
0.5
 10
580.8585237303031
 20
384.05042658836
 42
1.0
 10
580.3585237303031
 20
384.05042658836
 42
1.0
  0
LWPOLYLINE
  5
1AC
330
1A5
100
AcDbEntity
  8
DXF0
  6
ByBlock
 62
     0
100
AcDbPolyline
 90
        2
 70
     1
 43
0.5
 10
580.8585237303031
 20
394.0504265883651
 42
1.0
 10
580.3585237303031
 20
394.0504265883651
 42
1.0
  0
LINE
  5
1B0
330
1A5
100
AcDbEntity
  8
DXF0
  6
ByBlock
 62
     0
100
AcDbLine
 10
582.5526257826269
 20
394.0504265883651
 30
0.0
 11
578.6085237303031
 21
394.0504265883651
 31
0.0
  0
TEXT
  5
1B1
330
1A5
100
AcDbEntity
  8
DXF0
  6
ByBlock
 62
     0
100
AcDbText
 10
580.1085237303031
 20
386.450426504916
 30
0.0
 40
3.099999904632568
  1
10
 50
90.0
100
AcDbText
  0
ENDBLK
  5
1B2
330
1A5
100
AcDbEntity
  8
DXF0
  6
Continuous
 62
     3
100
AcDbBlockEnd
  0
BLOCK
  5
1B4
330
1B3
100
AcDbEntity
  8
DXF0
  6
Continuous
 62
     3
100
AcDbBlockBegin
  2
*D21
 70
     1
 10
0.0
 20
0.0
 30
0.0
  3
*D21
  1

  0
LINE
  5
1B5
330
1B3
100
AcDbEntity
  8
DXF0
  6
ByBlock
 62
     0
100
AcDbLine
 10
588.5685241013327
 20
384.05042658836
 30
0.0
 11
588.5685241013327
 21
389.2947307685383
 31
0.0
  0
LWPOLYLINE
  5
1B6
330
1B3
100
AcDbEntity
  8
DXF0
  6
ByBlock
 62
     0
100
AcDbPolyline
 90
        2
 70
     1
 43
0.5
 10
588.8185241013327
 20
384.05042658836
 42
1.0
 10
588.3185241013327
 20
384.05042658836
 42
1.0
  0
LWPOLYLINE
  5
1BA
330
1B3
100
AcDbEntity
  8
DXF0
  6
ByBlock
 62
     0
100
AcDbPolyline
 90
        2
 70
     1
 43
0.5
 10
588.8185241013327
 20
385.0504265883931
 42
1.0
 10
588.3185241013327
 20
385.0504265883931
 42
1.0
  0
LINE
  5
1BE
330
1B3
100
AcDbEntity
  8
DXF0
  6
ByBlock
 62
     0
100
AcDbLine
 10
591.9412277072807
 20
385.0504265883931
 30
0.0
 11
586.5685241013327
 21
385.0504265883931
 31
0.0
  0
TEXT
  5
1BF
330
1B3
100
AcDbEntity
  8
DXF0
  6
ByBlock
 62
     0
100
AcDbText
 10
588.0685241013327
 20
386.6947306493644
 30
0.0
 40
3.099999904632568
  1
1
 50
90.0
100
AcDbText
  0
ENDBLK
  5
1C0
330
1B3
100
AcDbEntity
  8
DXF0
  6
Continuous
 62
     3
100
AcDbBlockEnd
  0
BLOCK
  5
1C2
330
1C1
100
AcDbEntity
  8
DXF0
  6
Continuous
 62
     3
100
AcDbBlockBegin
  2
*D22
 70
     1
 10
0.0
 20
0.0
 30
0.0
  3
*D22
  1

  0
LINE
  5
1C3
330
1C1
100
AcDbEntity
  8
DXF0
  6
ByBlock
 62
     0
100
AcDbLine
 10
592.7412277192018
 20
534.8504266003017
 30
0.0
 11
592.7412277192018
 21
542.8502386818731
 31
0.0
  0
LINE
  5
1C4
330
1C1
100
AcDbEntity
  8
DXF0
  6
ByBlock
 62
     0
100
AcDbLine
 10
592.7412277192018
 20
540.8502386818732
 30
0.0
 11
622.7412277190018
 21
540.8502386818732
 31
0.0
  0
LWPOLYLINE
  5
1C5
330
1C1
100
AcDbEntity
  8
DXF0
  6
ByBlock
 62
     0
100
AcDbPolyline
 90
        2
 70
     1
 43
0.5
 10
592.9912277192017
 20
540.8502386818732
 42
1.0
 10
592.4912277192017
 20
540.8502386818732
 42
1.0
  0
LWPOLYLINE
  5
1C9
330
1C1
100
AcDbEntity
  8
DXF0
  6
ByBlock
 62
     0
100
AcDbPolyline
 90
        2
 70
     1
 43
0.5
 10
622.9912277190018
 20
540.8502386818732
 42
1.0
 10
622.4912277190018
 20
540.8502386818732
 42
1.0
  0
LINE
  5
1CD
330
1C1
100
AcDbEntity
  8
DXF0
  6
ByBlock
 62
     0
100
AcDbLine
 10
622.7412277190018
 20
534.8504266003012
 30
0.0
 11
622.7412277190018
 21
542.8502386818731
 31
0.0
  0
TEXT
  5
1CE
330
1C1
100
AcDbEntity
  8
DXF0
  6
ByBlock
 62
     0
100
AcDbText
 10
605.1412276356552
 20
541.3502386818731
 30
0.0
 40
3.099999904632568
  1
30
100
AcDbText
  0
ENDBLK
  5
1CF
330
1C1
100
AcDbEntity
  8
DXF0
  6
Continuous
 62
     3
100
AcDbBlockEnd
  0
BLOCK
  5
1D1
330
1D0
100
AcDbEntity
  8
DXF0
  6
Continuous
 62
     3
100
AcDbBlockBegin
  2
*D23
 70
     1
 10
0.0
 20
0.0
 30
0.0
  3
*D23
  1

  0
LINE
  5
1D2
330
1D0
100
AcDbEntity
  8
DXF0
  6
ByBlock
 62
     0
100
AcDbLine
 10
204.6453689488535
 20
377.3920818358516
 30
0.0
 11
204.6453689488535
 21
527.392081835872
 31
0.0
  0
LWPOLYLINE
  5
1D3
330
1D0
100
AcDbEntity
  8
DXF0
  6
ByBlock
 62
     0
100
AcDbPolyline
 90
        2
 70
     1
 43
0.5
 10
204.8953689488535
 20
377.3920818358516
 42
1.0
 10
204.3953689488535
 20
377.3920818358516
 42
1.0
  0
LWPOLYLINE
  5
1D7
330
1D0
100
AcDbEntity
  8
DXF0
  6
ByBlock
 62
     0
100
AcDbPolyline
 90
        2
 70
     1
 43
0.5
 10
204.8953689488535
 20
527.392081835872
 42
1.0
 10
204.3953689488535
 20
527.392081835872
 42
1.0
  0
LINE
  5
1DB
330
1D0
100
AcDbEntity
  8
DXF0
  6
ByBlock
 62
     0
100
AcDbLine
 10
226.9273721117104
 20
527.392081835872
 30
0.0
 11
202.6453689488535
 21
527.392081835872
 31
0.0
  0
TEXT
  5
1DC
330
1D0
100
AcDbEntity
  8
DXF0
  6
ByBlock
 62
     0
100
AcDbText
 10
204.1453689488535
 20
448.3970817118841
 30
0.0
 40
3.099999904632568
  1
150
 50
90.0
100
AcDbText
  0
ENDBLK
  5
1DD
330
1D0
100
AcDbEntity
  8
DXF0
  6
Continuous
 62
     3
100
AcDbBlockEnd
  0
BLOCK
  5
1DF
330
1DE
100
AcDbEntity
  8
DXF0
  6
Continuous
 62
     3
100
AcDbBlockBegin
  2
*D24
 70
     1
 10
0.0
 20
0.0
 30
0.0
  3
*D24
  1

  0
LINE
  5
1E0
330
1DE
100
AcDbEntity
  8
DXF0
  6
ByBlock
 62
     0
100
AcDbLine
 10
227.7273721236315
 20
528.1920818477932
 30
0.0
 11
227.7273721236315
 21
542.8502386818731
 31
0.0
  0
LINE
  5
1E1
330
1DE
100
AcDbEntity
  8
DXF0
  6
ByBlock
 62
     0
100
AcDbLine
 10
227.7273721236315
 20
540.8502386818732
 30
0.0
 11
257.7273721234313
 21
540.8502386818732
 31
0.0
  0
LWPOLYLINE
  5
1E2
330
1DE
100
AcDbEntity
  8
DXF0
  6
ByBlock
 62
     0
100
AcDbPolyline
 90
        2
 70
     1
 43
0.5
 10
227.9773721236315
 20
540.8502386818732
 42
1.0
 10
227.4773721236315
 20
540.8502386818732
 42
1.0
  0
LWPOLYLINE
  5
1E6
330
1DE
100
AcDbEntity
  8
DXF0
  6
ByBlock
 62
     0
100
AcDbPolyline
 90
        2
 70
     1
 43
0.5
 10
257.9773721234313
 20
540.8502386818732
 42
1.0
 10
257.4773721234314
 20
540.8502386818732
 42
1.0
  0
LINE
  5
1EA
330
1DE
100
AcDbEntity
  8
DXF0
  6
ByBlock
 62
     0
100
AcDbLine
 10
257.7273721234313
 20
528.1920818477927
 30
0.0
 11
257.7273721234313
 21
542.8502386818731
 31
0.0
  0
TEXT
  5
1EB
330
1DE
100
AcDbEntity
  8
DXF0
  6
ByBlock
 62
     0
100
AcDbText
 10
240.1273720400849
 20
541.3502386818731
 30
0.0
 40
3.099999904632568
  1
30
100
AcDbText
  0
ENDBLK
  5
1EC
330
1DE
100
AcDbEntity
  8
DXF0
  6
Continuous
 62
     3
100
AcDbBlockEnd
  0
ENDSEC
  0
SECTION
  2
ENTITIES
  0
LINE
  5
1EE
330
6F
100
AcDbEntity
  8
WASHER
  6
HIDDEN
100
AcDbLine
 10
239.5273721234329
 20
378.8920818358516
 30
0.0
 11
239.5273721234329
 21
380.892081835845
 31
0.0
  0
LINE
  5
1EF
330
6F
100
AcDbEntity
  8
WASHER
  6
HIDDEN
100
AcDbLine
 10
245.9273721234328
 20
378.8920818358516
 30
0.0
 11
245.9273721234328
 21
380.8920818358583
 31
0.0
  0
LINE
  5
1F0
330
6F
100
AcDbEntity
  8
KUTAI
  6
Continuous
100
AcDbLine
 10
284.0129803851768
 20
341.3353105594375
 30
0.0
 11
320.0697516615908
 21
377.3920818358516
 31
0.0
  0
LINE
  5
1F1
330
6F
100
AcDbEntity
  8
KUTAI
  6
Continuous
100
AcDbLine
 10
276.941912573311
 20
341.3353105594373
 30
0.0
 11
312.9986838497251
 21
377.3920818358515
 31
0.0
  0
LINE
  5
1F2
330
6F
100
AcDbEntity
  8
KUTAI
  6
Continuous
100
AcDbLine
 10
269.8708447614457
 20
341.3353105594375
 30
0.0
 11
305.9276160378598
 21
377.3920818358516
 31
0.0
  0
LINE
  5
1F3
330
6F
100
AcDbEntity
  8
KUTAI
  6
Continuous
100
AcDbLine
 10
148.4647851474592
 20
341.3353105594373
 30
0.0
 11
184.5215564238731
 21
377.3920818358513
 31
0.0
  0
LINE
  5
1F4
330
6F
100
AcDbEntity
  8
KUTAI
  6
Continuous
100
AcDbLine
 10
141.3937173355937
 20
341.3353105594375
 30
0.0
 11
177.4504886120079
 21
377.3920818358516
 31
0.0
  0
LINE
  5
1F5
330
6F
100
AcDbEntity
  8
KUTAI
  6
Continuous
100
AcDbLine
 10
134.3226495237282
 20
341.3353105594373
 30
0.0
 11
170.3794208001425
 21
377.3920818358516
 31
0.0
  0
LINE
  5
1FB
330
6F
100
AcDbEntity
  8
KUTAI
  6
Continuous
100
AcDbLine
 10
132.4720475945935
 20
106.3800100058962
 30
0.0
 11
334.6456117066339
 21
106.3800100058962
 31
0.0
  0
LINE
  5
1FC
330
6F
100
AcDbEntity
  8
ANCHOR
  6
CENTER
100
AcDbLine
 10
242.7273721234328
 20
59.80995444670121
 30
0.0
 11
242.7273721234328
 21
119.8503766655434
 31
0.0
  0
LINE
  5
1FD
330
6F
100
AcDbEntity
  8
ANCHOR
  6
Continuous
100
AcDbLine
 10
248.2273721234651
 20
109.8800100059001
 30
0.0
 11
237.2273721234651
 21
109.880010005892
 31
0.0
  0
LINE
  5
1FE
330
6F
100
AcDbEntity
  8
ANCHOR
  6
Continuous
100
AcDbLine
 10
248.2273721234645
 20
109.8800100059006
 30
0.0
 11
248.2273721234648
 21
110.6800100059003
 31
0.0
  0
LINE
  5
1FF
330
6F
100
AcDbEntity
  8
ANCHOR
  6
Continuous
100
AcDbLine
 10
237.2273721234645
 20
109.8800100058921
 30
0.0
 11
237.2273721234648
 21
110.6800100058923
 31
0.0
  0
LINE
  5
200
330
6F
100
AcDbEntity
  8
ANCHOR
  6
Continuous
100
AcDbLine
 10
248.2273721234645
 20
110.6800100059003
 30
0.0
 11
237.2273721234645
 21
110.6800100058922
 31
0.0
  0
ARC
  5
201
330
6F
100
AcDbEntity
  8
ANCHOR
  6
Continuous
100
AcDbCircle
 10
242.7273721234668
 20
106.8241276529551
 30
0.0
 40
5.555882352941173
100
AcDbArc
 50
43.94901598298635
 51
136.0509840170985
  0
LINE
  5
202
330
6F
100
AcDbEntity
  8
ANCHOR
  6
HIDDEN
100
AcDbLine
 10
240.7273721233263
 20
73.38001000594852
 30
0.0
 11
240.7273721232859
 21
109.880010006072
 31
0.0
  0
LINE
  5
203
330
6F
100
AcDbEntity
  8
ANCHOR
  6
HIDDEN
100
AcDbLine
 10
244.7273721233263
 20
73.38001000539342
 30
0.0
 11
244.7273721232859
 21
109.8800100060876
 31
0.0
  0
LINE
  5
204
330
6F
100
AcDbEntity
  8
ANCHOR
  6
HIDDEN
100
AcDbLine
 10
241.727372123318
 20
70.45736027518332
 30
0.0
 11
241.7273721233219
 21
72.38001000593782
 31
0.0
  0
LINE
  5
205
330
6F
100
AcDbEntity
  8
ANCHOR
  6
HIDDEN
100
AcDbLine
 10
243.727372123318
 20
70.4573602749874
 30
0.0
 11
243.7273721233219
 21
72.38001000539991
 31
0.0
  0
LINE
  5
206
330
6F
100
AcDbEntity
  8
ANCHOR
  6
HIDDEN
100
AcDbLine
 10
242.7273721234784
 20
69.88001000589523
 30
0.0
 11
241.7273721233177
 21
70.45736027518263
 31
0.0
  0
LINE
  5
207
330
6F
100
AcDbEntity
  8
ANCHOR
  6
HIDDEN
100
AcDbLine
 10
243.727372123317
 20
70.45736027498701
 30
0.0
 11
242.7273721234781
 21
69.88001000589523
 31
0.0
  0
ARC
  5
208
330
6F
100
AcDbEntity
  8
ANCHOR
  6
HIDDEN
100
AcDbCircle
 10
242.7273721233194
 20
71.88001000539009
 30
0.0
 40
0.5
100
AcDbArc
 50
7.206793861208892
 51
172.7932061383134
  0
LINE
  5
209
330
6F
100
AcDbEntity
  8
ANCHOR
  6
HIDDEN
100
AcDbLine
 10
243.2234220397803
 20
71.94273544185501
 30
0.0
 11
243.7273721233181
 21
70.45736027498661
 31
0.0
  0
LINE
  5
20A
330
6F
100
AcDbEntity
  8
ANCHOR
  6
HIDDEN
100
AcDbLine
 10
242.2313222068599
 20
71.9427354418585
 30
0.0
 11
241.7273721233178
 21
70.45736027518302
 31
0.0
  0
LINE
  5
20B
330
6F
100
AcDbEntity
  8
ANCHOR
  6
HIDDEN
100
AcDbLine
 10
241.7273721233227
 20
72.38001000593981
 30
0.0
 11
240.7273721233254
 21
73.3800100059492
 31
0.0
  0
LINE
  5
20C
330
6F
100
AcDbEntity
  8
ANCHOR
  6
HIDDEN
100
AcDbLine
 10
244.7273721233234
 20
73.38001000539347
 30
0.0
 11
243.7273721233232
 21
72.38001000540094
 31
0.0
  0
LINE
  5
20D
330
6F
100
AcDbEntity
  8
ANCHOR
  6
HIDDEN
100
AcDbLine
 10
244.727372123324
 20
73.38001000566179
 30
0.0
 11
240.727372123324
 21
73.38001000567661
 31
0.0
  0
LINE
  5
20E
330
6F
100
AcDbEntity
  8
ANCHOR
  6
HIDDEN
100
AcDbLine
 10
243.7273721233241
 20
72.38001000589651
 30
0.0
 11
241.7273721233241
 21
72.3800100059057
 31
0.0
  0
LINE
  5
20F
330
6F
100
AcDbEntity
  8
ANCHOR
  6
HIDDEN
100
AcDbLine
 10
243.9273721233238
 20
72.58001000539831
 30
0.0
 11
243.9273721232827
 21
109.8800100060837
 31
0.0
  0
LINE
  5
210
330
6F
100
AcDbEntity
  8
ANCHOR
  6
HIDDEN
100
AcDbLine
 10
241.5273721233242
 20
72.58001000593951
 30
0.0
 11
241.5273721232831
 21
109.8800100060745
 31
0.0
  0
LINE
  5
211
330
6F
100
AcDbEntity
  8
KUTAI
  6
Continuous
100
AcDbLine
 10
227.7273721234328
 20
45.38001000589616
 30
0.0
 11
227.7273721234328
 21
101.3800100058962
 31
0.0
  0
LINE
  5
212
330
6F
100
AcDbEntity
  8
KUTAI
  6
Continuous
100
AcDbLine
 10
229.7273721234328
 20
43.38001000589616
 30
0.0
 11
255.7273721234328
 21
43.38001000589616
 31
0.0
  0
LINE
  5
213
330
6F
100
AcDbEntity
  8
KUTAI
  6
Continuous
100
AcDbLine
 10
230.3273721234328
 20
101.7800100058962
 30
0.0
 11
255.1273721234328
 21
101.7800100058962
 31
0.0
  0
LINE
  5
214
330
6F
100
AcDbEntity
  8
KUTAI
  6
Continuous
100
AcDbLine
 10
229.3273721234328
 20
45.98001000589615
 30
0.0
 11
229.3273721234328
 21
100.7800100058962
 31
0.0
  0
LINE
  5
215
330
6F
100
AcDbEntity
  8
KUTAI
  6
Continuous
100
AcDbLine
 10
230.3273721234328
 20
44.98001000589615
 30
0.0
 11
255.1273721234329
 21
44.98001000589615
 31
0.0
  0
LINE
  5
216
330
6F
100
AcDbEntity
  8
KUTAI
  6
Continuous
100
AcDbLine
 10
256.1273721234328
 20
93.38001000589621
 30
0.0
 11
257.7273721234328
 21
93.38001000589621
 31
0.0
  0
LINE
  5
217
330
6F
100
AcDbEntity
  8
KUTAI
  6
Continuous
100
AcDbLine
 10
256.1273721234328
 20
53.38001000589621
 30
0.0
 11
257.7273721234328
 21
53.38001000589621
 31
0.0
  0
LINE
  5
218
330
6F
100
AcDbEntity
  8
KUTAI
  6
Continuous
100
AcDbLine
 10
256.1273721234328
 20
45.98001000589615
 30
0.0
 11
256.1273721234328
 21
53.38001000589621
 31
0.0
  0
LINE
  5
219
330
6F
100
AcDbEntity
  8
KUTAI
  6
Continuous
100
AcDbLine
 10
256.1273721234328
 20
93.38001000589621
 30
0.0
 11
256.1273721234328
 21
100.7800100058962
 31
0.0
  0
LINE
  5
21A
330
6F
100
AcDbEntity
  8
KUTAI
  6
Continuous
100
AcDbLine
 10
257.7273721234328
 20
45.38001000589616
 30
0.0
 11
257.7273721234328
 21
53.38001000589621
 31
0.0
  0
LINE
  5
21B
330
6F
100
AcDbEntity
  8
KUTAI
  6
Continuous
100
AcDbLine
 10
257.7273721234328
 20
93.38001000589621
 30
0.0
 11
257.7273721234328
 21
101.3800100058962
 31
0.0
  0
ARC
  5
21C
330
6F
100
AcDbEntity
  8
KUTAI
  6
Continuous
100
AcDbCircle
 10
255.7273721234328
 20
101.3800100058962
 30
0.0
 40
2.0
100
AcDbArc
 50
0.0
 51
90.0
  0
ARC
  5
21D
330
6F
100
AcDbEntity
  8
KUTAI
  6
Continuous
100
AcDbCircle
 10
229.7273721234328
 20
101.3800100058962
 30
0.0
 40
2.0
100
AcDbArc
 50
90.0
 51
180.0
  0
ARC
  5
21E
330
6F
100
AcDbEntity
  8
KUTAI
  6
Continuous
100
AcDbCircle
 10
229.7273721234328
 20
45.38001000589616
 30
0.0
 40
2.0
100
AcDbArc
 50
180.0
 51
270.0
  0
ARC
  5
21F
330
6F
100
AcDbEntity
  8
KUTAI
  6
Continuous
100
AcDbCircle
 10
255.7273721234328
 20
45.38001000589616
 30
0.0
 40
2.0
100
AcDbArc
 50
270.0
 51
0.0
  0
ARC
  5
220
330
6F
100
AcDbEntity
  8
KUTAI
  6
Continuous
100
AcDbCircle
 10
255.1273721234329
 20
45.98001000589615
 30
0.0
 40
1.0
100
AcDbArc
 50
270.0
 51
0.0
  0
ARC
  5
221
330
6F
100
AcDbEntity
  8
KUTAI
  6
Continuous
100
AcDbCircle
 10
255.1273721234328
 20
100.7800100058962
 30
0.0
 40
1.0
100
AcDbArc
 50
0.0
 51
90.0
  0
ARC
  5
222
330
6F
100
AcDbEntity
  8
KUTAI
  6
Continuous
100
AcDbCircle
 10
230.3273721234328
 20
100.7800100058962
 30
0.0
 40
1.0
100
AcDbArc
 50
90.0
 51
180.0
  0
ARC
  5
223
330
6F
100
AcDbEntity
  8
KUTAI
  6
Continuous
100
AcDbCircle
 10
230.3273721234328
 20
45.98001000589615
 30
0.0
 40
1.0
100
AcDbArc
 50
180.0
 51
270.0
  0
LINE
  5
224
330
6F
100
AcDbEntity
  8
KUTAI
  6
Continuous
100
AcDbLine
 10
132.4720475945935
 20
103.3800100058962
 30
0.0
 11
334.6456117066339
 21
103.3800100058962
 31
0.0
  0
INSERT
  5
225
330
6F
100
AcDbEntity
  8
KUTAI
  6
Continuous
100
AcDbBlockReference
  2
*X0
 10
0.0
 20
0.0
 30
0.0
  0
TEXT
  5
226
330
6F
100
AcDbEntity
  8
COMMENT
  6
Continuous
100
AcDbText
 10
349.9418172490461
 20
322.2594101746117
 30
0.0
 40
6.0
  1
RC納まり図
  7
KNJYOKO
100
AcDbText
  0
LINE
  5
227
330
6F
100
AcDbEntity
  8
COMMENT
  6
Continuous
100
AcDbLine
 10
343.7194436660042
 20
316.0977062953458
 30
0.0
 11
393.4272863119038
 21
316.0977062953458
 31
0.0
  0
LINE
  5
228
330
6F
100
AcDbEntity
  8
COMMENT
  6
Continuous
100
AcDbLine
 10
393.4272863119038
 20
316.0977062953458
 30
0.0
 11
393.4272863119038
 21
332.4572886387153
 31
0.0
  0
LINE
  5
229
330
6F
100
AcDbEntity
  8
COMMENT
  6
Continuous
100
AcDbLine
 10
393.4272863119038
 20
332.4572886387153
 30
0.0
 11
343.7194436660042
 21
332.4572886387153
 31
0.0
  0
LINE
  5
22A
330
6F
100
AcDbEntity
  8
COMMENT
  6
Continuous
100
AcDbLine
 10
343.7194436660042
 20
332.4572886387153
 30
0.0
 11
343.7194436660042
 21
316.0977062953458
 31
0.0
  0
TEXT
  5
235
330
6F
100
AcDbEntity
  8
COMMENT
  6
Continuous
100
AcDbText
 10
349.941817249046
 20
53.68204903107908
 30
0.0
 40
6.0
  1
鉄骨納まり図
  7
KNJYOKO
100
AcDbText
  0
LINE
  5
236
330
6F
100
AcDbEntity
  8
COMMENT
  6
Continuous
100
AcDbLine
 10
343.7194436660041
 20
47.52034515181315
 30
0.0
 11
393.4272863119038
 21
47.52034515181315
 31
0.0
  0
LINE
  5
237
330
6F
100
AcDbEntity
  8
COMMENT
  6
Continuous
100
AcDbLine
 10
393.4272863119038
 20
47.52034515181315
 30
0.0
 11
393.4272863119038
 21
63.87992749518264
 31
0.0
  0
LINE
  5
238
330
6F
100
AcDbEntity
  8
COMMENT
  6
Continuous
100
AcDbLine
 10
393.4272863119038
 20
63.87992749518264
 30
0.0
 11
343.7194436660041
 21
63.87992749518264
 31
0.0
  0
LINE
  5
239
330
6F
100
AcDbEntity
  8
COMMENT
  6
Continuous
100
AcDbLine
 10
343.7194436660041
 20
63.87992749518264
 30
0.0
 11
343.7194436660041
 21
47.52034515181315
 31
0.0
  0
LINE
  5
23A
330
6F
100
AcDbEntity
  8
WAKU
  6
Continuous
100
AcDbLine
 10
33.25789717601344
 20
27.52034515181316
 30
0.0
 11
793.5966754467925
 21
27.52034515181316
 31
0.0
  0
LINE
  5
23B
330
6F
100
AcDbEntity
  8
WAKU
  6
Continuous
100
AcDbLine
 10
793.5966754467925
 20
27.52034515181316
 30
0.0
 11
793.5966754467925
 21
574.6750674359869
 31
0.0
  0
LINE
  5
23C
330
6F
100
AcDbEntity
  8
WAKU
  6
Continuous
100
AcDbLine
 10
33.25789717601344
 20
574.6750674359869
 30
0.0
 11
33.25789717601344
 21
27.52034515181316
 31
0.0
  0
LINE
  5
23D
330
6F
100
AcDbEntity
  8
WAKU
  6
Continuous
100
AcDbLine
 10
793.5966754467925
 20
296.0977062953458
 30
0.0
 11
33.25789717601344
 21
296.0977062953458
 31
0.0
  0
LINE
  5
23E
330
6F
100
AcDbEntity
  8
WAKU
  6
Continuous
100
AcDbLine
 10
413.4272863119038
 20
27.52034515181315
 30
0.0
 11
413.4272863119038
 21
549.6750674359869
 31
0.0
  0
LINE
  5
23F
330
6F
100
AcDbEntity
  8
WAKU
  6
Continuous
100
AcDbLine
 10
793.5966754467925
 20
574.6750674359869
 30
0.0
 11
33.25789717601344
 21
574.6750674359869
 31
0.0
  0
LINE
  5
240
330
6F
100
AcDbEntity
  8
WAKU
  6
Continuous
100
AcDbLine
 10
793.5966754467925
 20
549.6750674359869
 30
0.0
 11
33.25789717601344
 21
549.6750674359869
 31
0.0
  0
TEXT
  5
28B
330
6F
100
AcDbEntity
  8
WAKU
  6
Continuous
100
AcDbText
 10
38.64675006063919
 20
555.4024753726626
 30
0.0
 40
12.0
  1
外装ルーバー　スカイフィット　直付タイプ
  7
KNJYOKO
100
AcDbText
  0
LINE
  5
28C
330
6F
100
AcDbEntity
  8
ANCHOR
  6
CENTER
100
AcDbLine
 10
242.7273721234328
 20
316.1806461775715
 30
0.0
 11
242.7273721234328
 21
390.8263435503732
 31
0.0
  0
LINE
  5
28D
330
6F
100
AcDbEntity
  8
WASHER
  6
Continuous
100
AcDbLine
 10
233.7273721234328
 20
380.8920818358519
 30
0.0
 11
251.7273721234328
 21
380.8920818358519
 31
0.0
  0
LINE
  5
28E
330
6F
100
AcDbEntity
  8
WASHER
  6
Continuous
100
AcDbLine
 10
251.7273721234328
 20
378.8920818358519
 30
0.0
 11
251.7273721234328
 21
380.8920818358519
 31
0.0
  0
LINE
  5
28F
330
6F
100
AcDbEntity
  8
WASHER
  6
Continuous
100
AcDbLine
 10
233.7273721234328
 20
378.8920818358519
 30
0.0
 11
233.7273721234328
 21
380.8920818358519
 31
0.0
  0
LINE
  5
290
330
6F
100
AcDbEntity
  8
KUTAI
  6
Continuous
100
AcDbLine
 10
335.1307796053935
 20
377.3920818358516
 30
0.0
 11
132.957215493353
 21
377.3920818358516
 31
0.0
  0
LINE
  5
291
330
6F
100
AcDbEntity
  8
ANCHOR
  6
CENTER
100
AcDbLine
 10
236.7877330595503
 20
387.392081835835
 30
0.0
 11
218.3387701989774
 21
387.3920818358567
 31
0.0
  0
LINE
  5
292
330
6F
100
AcDbEntity
  8
ANCHOR
  6
HIDDEN
100
AcDbLine
 10
237.2273721245227
 20
389.3920818359418
 30
0.0
 11
227.7273721231939
 21
389.3920818359823
 31
0.0
  0
LINE
  5
293
330
6F
100
AcDbEntity
  8
ANCHOR
  6
HIDDEN
100
AcDbLine
 10
237.2273721250777
 20
385.3920818359418
 30
0.0
 11
227.7273721231783
 21
385.3920818359823
 31
0.0
  0
LINE
  5
294
330
6F
100
AcDbEntity
  8
ANCHOR
  6
HIDDEN
100
AcDbLine
 10
240.1500218552881
 20
388.3920818359507
 30
0.0
 11
238.2273721245333
 21
388.3920818359467
 31
0.0
  0
LINE
  5
295
330
6F
100
AcDbEntity
  8
ANCHOR
  6
HIDDEN
100
AcDbLine
 10
240.150021855484
 20
386.3920818359506
 30
0.0
 11
238.2273721250713
 21
386.3920818359467
 31
0.0
  0
LINE
  5
296
330
6F
100
AcDbEntity
  8
ANCHOR
  6
HIDDEN
100
AcDbLine
 10
240.7273721245755
 20
387.3920818357904
 30
0.0
 11
240.150021855288
 21
388.3920818359511
 31
0.0
  0
LINE
  5
297
330
6F
100
AcDbEntity
  8
ANCHOR
  6
HIDDEN
100
AcDbLine
 10
240.1500218554848
 20
386.3920818359522
 30
0.0
 11
240.7273721245764
 21
387.3920818357911
 31
0.0
  0
ARC
  5
298
330
6F
100
AcDbEntity
  8
ANCHOR
  6
HIDDEN
100
AcDbCircle
 10
238.7273721250807
 20
387.3920818359492
 30
0.0
 40
0.5
100
AcDbArc
 50
97.20679386168658
 51
262.7932061387912
  0
LINE
  5
299
330
6F
100
AcDbEntity
  8
ANCHOR
  6
HIDDEN
100
AcDbLine
 10
238.6646466886157
 20
386.8960319194881
 30
0.0
 11
240.150021855484
 21
386.3920818359504
 31
0.0
  0
LINE
  5
29A
330
6F
100
AcDbEntity
  8
ANCHOR
  6
HIDDEN
100
AcDbLine
 10
238.6646466886122
 20
387.8881317524093
 30
0.0
 11
240.1500218552879
 21
388.3920818359513
 31
0.0
  0
LINE
  5
29B
330
6F
100
AcDbEntity
  8
ANCHOR
  6
HIDDEN
100
AcDbLine
 10
238.2273721245318
 20
388.392081835946
 30
0.0
 11
237.2273721245223
 21
389.3920818359435
 31
0.0
  0
LINE
  5
29C
330
6F
100
AcDbEntity
  8
ANCHOR
  6
HIDDEN
100
AcDbLine
 10
237.2273721250782
 20
385.3920818359458
 30
0.0
 11
238.2273721250707
 21
386.392081835946
 31
0.0
  0
LINE
  5
29D
330
6F
100
AcDbEntity
  8
ANCHOR
  6
HIDDEN
100
AcDbLine
 10
237.2273721248092
 20
385.3920818359443
 30
0.0
 11
237.2273721247944
 21
389.3920818359443
 31
0.0
  0
LINE
  5
29E
330
6F
100
AcDbEntity
  8
ANCHOR
  6
HIDDEN
100
AcDbLine
 10
238.2273721245752
 20
386.3920818359447
 30
0.0
 11
238.2273721245659
 21
388.3920818359447
 31
0.0
  0
LINE
  5
29F
330
6F
100
AcDbEntity
  8
ANCHOR
  6
HIDDEN
100
AcDbLine
 10
238.0273721250729
 20
386.1920818359447
 30
0.0
 11
227.7273721231823
 21
386.1920818359858
 31
0.0
  0
LINE
  5
2A0
330
6F
100
AcDbEntity
  8
ANCHOR
  6
HIDDEN
100
AcDbLine
 10
238.0273721245317
 20
388.5920818359444
 30
0.0
 11
227.7273721231914
 21
388.5920818359855
 31
0.0
  0
LINE
  5
2A1
330
6F
100
AcDbEntity
  8
ANCHOR
  6
Continuous
100
AcDbLine
 10
225.7050615420443
 20
387.8902800835747
 30
0.0
 11
225.7050615420448
 21
386.8938835880925
 31
0.0
  0
LINE
  5
2A2
330
6F
100
AcDbEntity
  8
ANCHOR
  6
Continuous
100
AcDbLine
 10
225.7050615420441
 20
387.8902800835751
 30
0.0
 11
225.2273721233696
 21
387.8902800835751
 31
0.0
  0
LINE
  5
2A3
330
6F
100
AcDbEntity
  8
ANCHOR
  6
Continuous
100
AcDbLine
 10
225.7050615420445
 20
386.8938835880928
 30
0.0
 11
225.2273721233702
 21
386.8938835880928
 31
0.0
  0
LINE
  5
2A4
330
6F
100
AcDbEntity
  8
ANCHOR
  6
Continuous
100
AcDbLine
 10
227.2273721233867
 20
382.6920818358319
 30
0.0
 11
227.7273721233867
 21
382.6920818358322
 31
0.0
  0
ARC
  5
2A5
330
6F
100
AcDbEntity
  8
ANCHOR
  6
Continuous
100
AcDbCircle
 10
231.3188375176927
 20
387.2164504025167
 30
0.0
 40
6.099999999999999
100
AcDbArc
 50
183.0312034848472
 51
227.876411461438
  0
LINE
  5
2A6
330
6F
100
AcDbEntity
  8
ANCHOR
  6
Continuous
100
AcDbLine
 10
227.2273721233528
 20
392.0920818358339
 30
0.0
 11
227.2273721233875
 21
382.6920818358324
 31
0.0
  0
ARC
  5
2A7
330
6F
100
AcDbEntity
  8
ANCHOR
  6
Continuous
100
AcDbCircle
 10
231.3188375176927
 20
387.5677132691543
 30
0.0
 40
6.099999999999999
100
AcDbArc
 50
132.1235885386251
 51
176.9687965152159
  0
LINE
  5
2A8
330
6F
100
AcDbEntity
  8
ANCHOR
  6
Continuous
100
AcDbLine
 10
227.7273721233533
 20
392.0920818358352
 30
0.0
 11
227.727372123388
 21
382.6920818358337
 31
0.0
  0
LINE
  5
2A9
330
6F
100
AcDbEntity
  8
ANCHOR
  6
Continuous
100
AcDbLine
 10
227.2273721233822
 20
392.0920818358336
 30
0.0
 11
227.7273721233822
 21
392.0920818358339
 31
0.0
  0
LINE
  5
2AA
330
6F
100
AcDbEntity
  8
WASHER
  6
Continuous
100
AcDbLine
 10
233.7273721234328
 20
378.8920818358519
 30
0.0
 11
251.7273721234328
 21
378.8920818358519
 31
0.0
  0
LINE
  5
2AB
330
6F
100
AcDbEntity
  8
ANCHOR
  6
HIDDEN
100
AcDbLine
 10
242.7273721234749
 20
370.3920818358625
 30
0.0
 11
243.0273721234833
 21
370.3920818358625
 31
0.0
  0
LINE
  5
2AC
330
6F
100
AcDbEntity
  8
ANCHOR
  6
HIDDEN
100
AcDbLine
 10
243.0273721235101
 20
344.8920818358628
 30
0.0
 11
243.0273721234819
 21
370.3920818358629
 31
0.0
  0
LINE
  5
2AD
330
6F
100
AcDbEntity
  8
ANCHOR
  6
HIDDEN
100
AcDbLine
 10
241.0689159441696
 20
337.0637780155956
 30
0.0
 11
238.6982166493243
 21
337.3228487770323
 31
0.0
  0
LINE
  5
2AE
330
6F
100
AcDbEntity
  8
ANCHOR
  6
HIDDEN
100
AcDbLine
 10
238.7273721234807
 20
372.3920818358537
 30
0.0
 11
238.0273721234753
 21
377.3920818358516
 31
0.0
  0
LINE
  5
2AF
330
6F
100
AcDbEntity
  8
ANCHOR
  6
HIDDEN
100
AcDbLine
 10
242.7273721234893
 20
370.3920818358619
 30
0.0
 11
242.4273721234827
 21
370.3920818358612
 31
0.0
  0
LINE
  5
2B0
330
6F
100
AcDbEntity
  8
ANCHOR
  6
HIDDEN
100
AcDbLine
 10
242.4273721235109
 20
344.8920818358612
 30
0.0
 11
242.4273721234825
 21
370.3920818358616
 31
0.0
  0
LINE
  5
2B1
330
6F
100
AcDbEntity
  8
ANCHOR
  6
HIDDEN
100
AcDbLine
 10
238.7273721234866
 20
366.8920818358533
 30
0.0
 11
239.7273721234865
 21
366.3920818358559
 31
0.0
  0
LINE
  5
2B2
330
6F
100
AcDbEntity
  8
ANCHOR
  6
HIDDEN
100
AcDbLine
 10
239.7273721234872
 20
366.3920818358564
 30
0.0
 11
239.9773721234958
 21
358.3920818358568
 31
0.0
  0
LINE
  5
2B3
330
6F
100
AcDbEntity
  8
ANCHOR
  6
HIDDEN
100
AcDbLine
 10
238.7273721234875
 20
366.8920818358537
 30
0.0
 11
238.7273721234759
 21
377.3920818358537
 31
0.0
  0
LINE
  5
2B4
330
6F
100
AcDbEntity
  8
ANCHOR
  6
HIDDEN
100
AcDbLine
 10
241.8918576058291
 20
339.9917068093856
 30
0.0
 11
237.6324027755069
 21
340.4571813672926
 31
0.0
  0
LINE
  5
2B5
330
6F
100
AcDbEntity
  8
ANCHOR
  6
HIDDEN
100
AcDbLine
 10
242.0004911829198
 20
340.9857886701642
 30
0.0
 11
238.3871895621033
 21
341.3806514029629
 31
0.0
  0
LINE
  5
2B6
330
6F
100
AcDbEntity
  8
ANCHOR
  6
HIDDEN
100
AcDbLine
 10
238.6982166493257
 20
337.3228487770315
 30
0.0
 11
237.6324027755076
 21
340.4571813672922
 31
0.0
  0
LINE
  5
2B7
330
6F
100
AcDbEntity
  8
ANCHOR
  6
HIDDEN
100
AcDbLine
 10
237.6324027755063
 20
340.4571813672916
 30
0.0
 11
238.3871895621032
 21
341.3806514029624
 31
0.0
  0
LINE
  5
2B8
330
6F
100
AcDbEntity
  8
ANCHOR
  6
HIDDEN
100
AcDbLine
 10
242.1091247600114
 20
341.9798705309416
 30
0.0
 11
237.8496699296875
 21
342.4453450888486
 31
0.0
  0
LINE
  5
2B9
330
6F
100
AcDbEntity
  8
ANCHOR
  6
HIDDEN
100
AcDbLine
 10
238.387189562104
 20
341.3806514029616
 30
0.0
 11
237.8496699296886
 21
342.4453450888479
 31
0.0
  0
LINE
  5
2BA
330
6F
100
AcDbEntity
  8
ANCHOR
  6
HIDDEN
100
AcDbLine
 10
242.2720751256486
 20
343.4709933221092
 30
0.0
 11
238.0126202953246
 21
343.9364678800163
 31
0.0
  0
LINE
  5
2BB
330
6F
100
AcDbEntity
  8
ANCHOR
  6
HIDDEN
100
AcDbLine
 10
237.8496699296879
 20
342.4453450888486
 30
0.0
 11
238.0126202953238
 21
343.936467880016
 31
0.0
  0
LINE
  5
2BC
330
6F
100
AcDbEntity
  8
ANCHOR
  6
HIDDEN
100
AcDbLine
 10
238.1918656975243
 20
345.5767029502951
 30
0.0
 11
238.4471546036877
 21
347.9127953231291
 31
0.0
  0
LINE
  5
2BD
330
6F
100
AcDbEntity
  8
ANCHOR
  6
HIDDEN
100
AcDbLine
 10
242.3263919141914
 20
343.9680342524995
 30
0.0
 11
238.7130902933712
 21
344.3628969852984
 31
0.0
  0
LINE
  5
2BE
330
6F
100
AcDbEntity
  8
ANCHOR
  6
HIDDEN
100
AcDbLine
 10
242.3807087027381
 20
344.4650751828878
 30
0.0
 11
238.7674070819162
 21
344.8599379156872
 31
0.0
  0
LINE
  5
2BF
330
6F
100
AcDbEntity
  8
ANCHOR
  6
HIDDEN
100
AcDbLine
 10
238.713090293372
 20
344.3628969852977
 30
0.0
 11
238.0126202953234
 21
343.936467880016
 31
0.0
  0
LINE
  5
2C0
330
6F
100
AcDbEntity
  8
ANCHOR
  6
HIDDEN
100
AcDbLine
 10
238.7130902933732
 20
344.3628969852973
 30
0.0
 11
238.7674070819173
 21
344.8599379156865
 31
0.0
  0
LINE
  5
2C1
330
6F
100
AcDbEntity
  8
ANCHOR
  6
HIDDEN
100
AcDbLine
 10
238.7674070819151
 20
344.8599379156872
 30
0.0
 11
238.1918656975218
 21
345.5767029502957
 31
0.0
  0
LINE
  5
2C2
330
6F
100
AcDbEntity
  8
ANCHOR
  6
HIDDEN
100
AcDbLine
 10
242.0258493024886
 20
347.5217144456071
 30
0.0
 11
238.4471546036859
 21
347.9127953231293
 31
0.0
  0
LINE
  5
2C3
330
6F
100
AcDbEntity
  8
ANCHOR
  6
HIDDEN
100
AcDbLine
 10
239.0933078131907
 20
347.8421834980214
 30
0.0
 11
239.1476246017349
 21
348.3392244284103
 31
0.0
  0
LINE
  5
2C4
330
6F
100
AcDbEntity
  8
ANCHOR
  6
HIDDEN
100
AcDbLine
 10
242.0801660910341
 20
348.0187553759969
 30
0.0
 11
239.1476246017333
 21
348.3392244284114
 31
0.0
  0
LINE
  5
2C5
330
6F
100
AcDbEntity
  8
ANCHOR
  6
HIDDEN
100
AcDbLine
 10
239.147624601732
 20
348.3392244284092
 30
0.0
 11
238.5720832173386
 21
349.0559894630177
 31
0.0
  0
LINE
  5
2C6
330
6F
100
AcDbEntity
  8
ANCHOR
  6
HIDDEN
100
AcDbLine
 10
238.8273721235076
 20
349.0420818358491
 30
0.0
 11
238.8273721235049
 21
351.3920818358541
 31
0.0
  0
LINE
  5
2C7
330
6F
100
AcDbEntity
  8
ANCHOR
  6
HIDDEN
100
AcDbLine
 10
242.4273721235044
 20
351.3920818358613
 30
0.0
 11
238.8273721235041
 21
351.3920818358533
 31
0.0
  0
LINE
  5
2C8
330
6F
100
AcDbEntity
  8
ANCHOR
  6
HIDDEN
100
AcDbLine
 10
239.4773721234997
 20
351.3920818358545
 30
0.0
 11
239.477372123498
 21
351.8920818358545
 31
0.0
  0
LINE
  5
2C9
330
6F
100
AcDbEntity
  8
ANCHOR
  6
HIDDEN
100
AcDbLine
 10
242.4273721235045
 20
351.8920818358619
 30
0.0
 11
239.4773721234983
 21
351.8920818358553
 31
0.0
  0
LINE
  5
2CA
330
6F
100
AcDbEntity
  8
ANCHOR
  6
HIDDEN
100
AcDbLine
 10
239.4773721234978
 20
351.8920818358558
 30
0.0
 11
238.8273721235016
 21
352.5420818358493
 31
0.0
  0
LINE
  5
2CB
330
6F
100
AcDbEntity
  8
ANCHOR
  6
HIDDEN
100
AcDbLine
 10
238.8273721235035
 20
352.5420818358488
 30
0.0
 11
238.8273721235008
 21
354.8920818358538
 31
0.0
  0
LINE
  5
2CC
330
6F
100
AcDbEntity
  8
ANCHOR
  6
HIDDEN
100
AcDbLine
 10
242.427372123501
 20
354.8920818358624
 30
0.0
 11
238.8273721235007
 21
354.8920818358542
 31
0.0
  0
LINE
  5
2CD
330
6F
100
AcDbEntity
  8
ANCHOR
  6
HIDDEN
100
AcDbLine
 10
239.4773721234977
 20
354.8920818358554
 30
0.0
 11
239.4773721234961
 21
355.3920818358554
 31
0.0
  0
LINE
  5
2CE
330
6F
100
AcDbEntity
  8
ANCHOR
  6
HIDDEN
100
AcDbLine
 10
242.4273721235005
 20
355.3920818358624
 30
0.0
 11
239.4773721234961
 21
355.3920818358558
 31
0.0
  0
LINE
  5
2CF
330
6F
100
AcDbEntity
  8
ANCHOR
  6
HIDDEN
100
AcDbLine
 10
239.4773721234946
 20
355.3920818358552
 30
0.0
 11
238.8273721234982
 21
356.0420818358486
 31
0.0
  0
LINE
  5
2D0
330
6F
100
AcDbEntity
  8
ANCHOR
  6
HIDDEN
100
AcDbLine
 10
238.8273721235006
 20
354.892081835854
 30
0.0
 11
238.8273721234967
 21
358.3920818358545
 31
0.0
  0
LINE
  5
2D1
330
6F
100
AcDbEntity
  8
ANCHOR
  6
HIDDEN
100
AcDbLine
 10
242.4273721234962
 20
358.3920818358619
 30
0.0
 11
238.7273721233555
 21
358.3920818358537
 31
0.0
  0
LINE
  5
2D2
330
6F
100
AcDbEntity
  8
ANCHOR
  6
HIDDEN
100
AcDbLine
 10
242.4273721234953
 20
358.892081835862
 30
0.0
 11
239.9617471234946
 21
358.8920818358567
 31
0.0
  0
LINE
  5
2D3
330
6F
100
AcDbEntity
  8
ANCHOR
  6
HIDDEN
100
AcDbLine
 10
242.4273721234893
 20
361.8920818358625
 30
0.0
 11
239.8679971234922
 21
361.8920818358569
 31
0.0
  0
LINE
  5
2D4
330
6F
100
AcDbEntity
  8
ANCHOR
  6
HIDDEN
100
AcDbLine
 10
242.4273721234866
 20
362.392081835862
 30
0.0
 11
239.8523721234913
 21
362.3920818358564
 31
0.0
  0
LINE
  5
2D5
330
6F
100
AcDbEntity
  8
ANCHOR
  6
HIDDEN
100
AcDbLine
 10
242.4273721234815
 20
365.3920818358616
 30
0.0
 11
239.758622123488
 21
365.3920818358558
 31
0.0
  0
LINE
  5
2D6
330
6F
100
AcDbEntity
  8
ANCHOR
  6
HIDDEN
100
AcDbLine
 10
242.4273721234794
 20
365.892081835862
 30
0.0
 11
239.7429971234878
 21
365.8920818358562
 31
0.0
  0
LINE
  5
2D7
330
6F
100
AcDbEntity
  8
ANCHOR
  6
HIDDEN
100
AcDbLine
 10
242.4273721235093
 20
344.8920818358496
 30
0.0
 11
241.6202736631017
 21
337.5065021574389
 31
0.0
  0
ARC
  5
2D8
330
6F
100
AcDbEntity
  8
ANCHOR
  6
HIDDEN
100
AcDbCircle
 10
241.123232732715
 20
337.5608189459847
 30
0.0
 40
0.5
100
AcDbArc
 50
263.7634467283077
 51
353.7634467282444
  0
LINE
  5
2D9
330
6F
100
AcDbEntity
  8
ANCHOR
  6
HIDDEN
100
AcDbLine
 10
242.7273720779525
 20
370.3920818358629
 30
0.0
 11
242.4273720779441
 21
370.3920818358604
 31
0.0
  0
LINE
  5
2DA
330
6F
100
AcDbEntity
  8
ANCHOR
  6
HIDDEN
100
AcDbLine
 10
242.4273720781444
 20
344.8920818358599
 30
0.0
 11
242.4273720779464
 21
370.3920818358599
 31
0.0
  0
LINE
  5
2DB
330
6F
100
AcDbEntity
  8
ANCHOR
  6
HIDDEN
100
AcDbLine
 10
244.3858282575542
 20
337.06377801561
 30
0.0
 11
246.7565275523973
 21
337.3228487770682
 31
0.0
  0
LINE
  5
2DC
330
6F
100
AcDbEntity
  8
ANCHOR
  6
HIDDEN
100
AcDbLine
 10
246.7273720779321
 20
372.3920818358889
 30
0.0
 11
247.4273720778932
 21
377.392081835894
 31
0.0
  0
LINE
  5
2DD
330
6F
100
AcDbEntity
  8
ANCHOR
  6
HIDDEN
100
AcDbLine
 10
242.7273720779369
 20
370.392081835862
 30
0.0
 11
243.0273720779452
 21
370.3920818358641
 31
0.0
  0
LINE
  5
2DE
330
6F
100
AcDbEntity
  8
ANCHOR
  6
HIDDEN
100
AcDbLine
 10
243.0273720781441
 20
344.8920818358641
 30
0.0
 11
243.0273720779462
 21
370.3920818358641
 31
0.0
  0
LINE
  5
2DF
330
6F
100
AcDbEntity
  8
ANCHOR
  6
HIDDEN
100
AcDbLine
 10
246.7273720779745
 20
366.8920818358893
 30
0.0
 11
245.7273720779772
 21
366.3920818358823
 31
0.0
  0
LINE
  5
2E0
330
6F
100
AcDbEntity
  8
ANCHOR
  6
HIDDEN
100
AcDbLine
 10
245.7273720779773
 20
366.3920818358822
 30
0.0
 11
245.4773720780396
 21
358.3920818358808
 31
0.0
  0
LINE
  5
2E1
330
6F
100
AcDbEntity
  8
ANCHOR
  6
HIDDEN
100
AcDbLine
 10
246.727372077972
 20
366.8920818358895
 30
0.0
 11
246.7273720778905
 21
377.3920818358897
 31
0.0
  0
LINE
  5
2E2
330
6F
100
AcDbEntity
  8
ANCHOR
  6
HIDDEN
100
AcDbLine
 10
243.5628865958693
 20
339.9917068093925
 30
0.0
 11
247.8223414261872
 21
340.4571813673373
 31
0.0
  0
LINE
  5
2E3
330
6F
100
AcDbEntity
  8
ANCHOR
  6
HIDDEN
100
AcDbLine
 10
243.4542530187666
 20
340.9857886701694
 30
0.0
 11
247.0675546395796
 21
341.3806514030001
 31
0.0
  0
LINE
  5
2E4
330
6F
100
AcDbEntity
  8
ANCHOR
  6
HIDDEN
100
AcDbLine
 10
246.7565275523973
 20
337.322848777068
 30
0.0
 11
247.8223414261875
 21
340.4571813673376
 31
0.0
  0
LINE
  5
2E5
330
6F
100
AcDbEntity
  8
ANCHOR
  6
HIDDEN
100
AcDbLine
 10
247.8223414261859
 20
340.4571813673377
 30
0.0
 11
247.0675546395811
 21
341.3806514030012
 31
0.0
  0
LINE
  5
2E6
330
6F
100
AcDbEntity
  8
ANCHOR
  6
HIDDEN
100
AcDbLine
 10
243.3456194416709
 20
341.9798705309476
 30
0.0
 11
247.6050742719883
 21
342.4453450888921
 31
0.0
  0
LINE
  5
2E7
330
6F
100
AcDbEntity
  8
ANCHOR
  6
HIDDEN
100
AcDbLine
 10
247.0675546395805
 20
341.3806514030018
 30
0.0
 11
247.6050742719866
 21
342.4453450888931
 31
0.0
  0
LINE
  5
2E8
330
6F
100
AcDbEntity
  8
ANCHOR
  6
HIDDEN
100
AcDbLine
 10
243.1826690760211
 20
343.4709933221129
 30
0.0
 11
247.442123906341
 21
343.9364678800576
 31
0.0
  0
LINE
  5
2E9
330
6F
100
AcDbEntity
  8
ANCHOR
  6
HIDDEN
100
AcDbLine
 10
247.6050742719885
 20
342.445345088892
 30
0.0
 11
247.4421239063395
 21
343.936467880058
 31
0.0
  0
LINE
  5
2EA
330
6F
100
AcDbEntity
  8
ANCHOR
  6
HIDDEN
100
AcDbLine
 10
247.2628785041254
 20
345.5767029503353
 30
0.0
 11
247.0075895979412
 21
347.9127953231671
 31
0.0
  0
LINE
  5
2EB
330
6F
100
AcDbEntity
  8
ANCHOR
  6
HIDDEN
100
AcDbLine
 10
243.1283522874705
 20
343.9680342525026
 30
0.0
 11
246.7416539082872
 21
344.3628969853336
 31
0.0
  0
LINE
  5
2EC
330
6F
100
AcDbEntity
  8
ANCHOR
  6
HIDDEN
100
AcDbLine
 10
243.0740354989202
 20
344.4650751828912
 30
0.0
 11
246.6873371197386
 21
344.8599379157225
 31
0.0
  0
LINE
  5
2ED
330
6F
100
AcDbEntity
  8
ANCHOR
  6
HIDDEN
100
AcDbLine
 10
246.7416539082859
 20
344.3628969853337
 30
0.0
 11
247.4421239063381
 21
343.9364678800582
 31
0.0
  0
LINE
  5
2EE
330
6F
100
AcDbEntity
  8
ANCHOR
  6
HIDDEN
100
AcDbLine
 10
246.7416539082867
 20
344.3628969853332
 30
0.0
 11
246.6873371197381
 21
344.8599379157221
 31
0.0
  0
LINE
  5
2EF
330
6F
100
AcDbEntity
  8
ANCHOR
  6
HIDDEN
100
AcDbLine
 10
246.6873371197378
 20
344.859937915722
 30
0.0
 11
247.2628785041247
 21
345.5767029503355
 31
0.0
  0
LINE
  5
2F0
330
6F
100
AcDbEntity
  8
ANCHOR
  6
HIDDEN
100
AcDbLine
 10
243.4288948991427
 20
347.5217144456132
 30
0.0
 11
247.0075895979419
 21
347.9127953231671
 31
0.0
  0
LINE
  5
2F1
330
6F
100
AcDbEntity
  8
ANCHOR
  6
HIDDEN
100
AcDbLine
 10
246.3614363884374
 20
347.8421834980531
 30
0.0
 11
246.3071195998888
 21
348.339224428442
 31
0.0
  0
LINE
  5
2F2
330
6F
100
AcDbEntity
  8
ANCHOR
  6
HIDDEN
100
AcDbLine
 10
243.3745781105925
 20
348.0187553760025
 30
0.0
 11
246.3071195998905
 21
348.3392244284432
 31
0.0
  0
LINE
  5
2F3
330
6F
100
AcDbEntity
  8
ANCHOR
  6
HIDDEN
100
AcDbLine
 10
246.3071195998912
 20
348.339224428442
 30
0.0
 11
246.8826609842781
 21
349.0559894630556
 31
0.0
  0
LINE
  5
2F4
330
6F
100
AcDbEntity
  8
ANCHOR
  6
HIDDEN
100
AcDbLine
 10
246.6273720781127
 20
349.0420818358832
 30
0.0
 11
246.6273720780944
 21
351.3920818358881
 31
0.0
  0
LINE
  5
2F5
330
6F
100
AcDbEntity
  8
ANCHOR
  6
HIDDEN
100
AcDbLine
 10
243.027372078093
 20
351.3920818358641
 30
0.0
 11
246.6273720780934
 21
351.3920818358881
 31
0.0
  0
LINE
  5
2F6
330
6F
100
AcDbEntity
  8
ANCHOR
  6
HIDDEN
100
AcDbLine
 10
245.977372078096
 20
351.3920818358841
 30
0.0
 11
245.9773720780933
 21
351.8920818358841
 31
0.0
  0
LINE
  5
2F7
330
6F
100
AcDbEntity
  8
ANCHOR
  6
HIDDEN
100
AcDbLine
 10
243.0273720780882
 20
351.8920818358653
 30
0.0
 11
245.9773720780926
 21
351.8920818358849
 31
0.0
  0
LINE
  5
2F8
330
6F
100
AcDbEntity
  8
ANCHOR
  6
HIDDEN
100
AcDbLine
 10
245.9773720780935
 20
351.8920818358822
 30
0.0
 11
246.627372078084
 21
352.5420818358814
 31
0.0
  0
LINE
  5
2F9
330
6F
100
AcDbEntity
  8
ANCHOR
  6
HIDDEN
100
AcDbLine
 10
246.6273720780855
 20
352.5420818358832
 30
0.0
 11
246.6273720780672
 21
354.8920818358881
 31
0.0
  0
LINE
  5
2FA
330
6F
100
AcDbEntity
  8
ANCHOR
  6
HIDDEN
100
AcDbLine
 10
243.0273720780668
 20
354.8920818358642
 30
0.0
 11
246.6273720780671
 21
354.8920818358881
 31
0.0
  0
LINE
  5
2FB
330
6F
100
AcDbEntity
  8
ANCHOR
  6
HIDDEN
100
AcDbLine
 10
245.9773720780699
 20
354.8920818358836
 30
0.0
 11
245.9773720780672
 21
355.3920818358836
 31
0.0
  0
LINE
  5
2FC
330
6F
100
AcDbEntity
  8
ANCHOR
  6
HIDDEN
100
AcDbLine
 10
243.0273720780612
 20
355.3920818358649
 30
0.0
 11
245.9773720780656
 21
355.3920818358847
 31
0.0
  0
LINE
  5
2FD
330
6F
100
AcDbEntity
  8
ANCHOR
  6
HIDDEN
100
AcDbLine
 10
245.9773720780665
 20
355.392081835884
 30
0.0
 11
246.627372078057
 21
356.0420818358833
 31
0.0
  0
LINE
  5
2FE
330
6F
100
AcDbEntity
  8
ANCHOR
  6
HIDDEN
100
AcDbLine
 10
246.6273720780676
 20
354.8920818358886
 30
0.0
 11
246.6273720780405
 21
358.392081835889
 31
0.0
  0
LINE
  5
2FF
330
6F
100
AcDbEntity
  8
ANCHOR
  6
HIDDEN
100
AcDbLine
 10
243.0273720780384
 20
358.3920818358648
 30
0.0
 11
246.727372078181
 21
358.3920818358894
 31
0.0
  0
LINE
  5
300
330
6F
100
AcDbEntity
  8
ANCHOR
  6
HIDDEN
100
AcDbLine
 10
243.0273720780355
 20
358.8920818358645
 30
0.0
 11
245.4929970780345
 21
358.8920818358809
 31
0.0
  0
LINE
  5
301
330
6F
100
AcDbEntity
  8
ANCHOR
  6
HIDDEN
100
AcDbLine
 10
243.0273720780167
 20
361.8920818358649
 30
0.0
 11
245.586747078012
 21
361.8920818358822
 31
0.0
  0
LINE
  5
302
330
6F
100
AcDbEntity
  8
ANCHOR
  6
HIDDEN
100
AcDbLine
 10
243.027372078013
 20
362.3920818358641
 30
0.0
 11
245.6023720780082
 21
362.3920818358812
 31
0.0
  0
LINE
  5
303
330
6F
100
AcDbEntity
  8
ANCHOR
  6
HIDDEN
100
AcDbLine
 10
243.0273720779926
 20
365.392081835864
 30
0.0
 11
245.6961220779842
 21
365.3920818358816
 31
0.0
  0
LINE
  5
304
330
6F
100
AcDbEntity
  8
ANCHOR
  6
HIDDEN
100
AcDbLine
 10
243.0273720779903
 20
365.8920818358642
 30
0.0
 11
245.7117470779819
 21
365.892081835882
 31
0.0
  0
LINE
  5
305
330
6F
100
AcDbEntity
  8
ANCHOR
  6
HIDDEN
100
AcDbLine
 10
243.0273720781427
 20
344.8920818358529
 30
0.0
 11
243.8344705386158
 21
337.5065021574492
 31
0.0
  0
ARC
  5
306
330
6F
100
AcDbEntity
  8
ANCHOR
  6
HIDDEN
100
AcDbCircle
 10
244.3315114690056
 20
337.5608189459987
 30
0.0
 40
0.5
100
AcDbArc
 50
186.2365532722638
 51
276.2365532722005
  0
LINE
  5
307
330
6F
100
AcDbEntity
  8
ANCHOR
  6
HIDDEN
100
AcDbLine
 10
238.727372123356
 20
358.3920818358544
 30
0.0
 11
237.1158880971462
 21
366.2280960796381
 31
0.0
  0
LINE
  5
308
330
6F
100
AcDbEntity
  8
ANCHOR
  6
HIDDEN
100
AcDbLine
 10
238.2116887197266
 20
365.864015966135
 30
0.0
 11
237.1158880971752
 21
366.2280960794983
 31
0.0
  0
LINE
  5
309
330
6F
100
AcDbEntity
  8
ANCHOR
  6
HIDDEN
100
AcDbLine
 10
239.7482993129742
 20
358.3920818358561
 30
0.0
 11
238.2116887197267
 21
365.8640159661352
 31
0.0
  0
LINE
  5
30A
330
6F
100
AcDbEntity
  8
ANCHOR
  6
HIDDEN
100
AcDbLine
 10
246.7273720781786
 20
358.3920818358602
 30
0.0
 11
248.3388561043711
 21
366.2280960796477
 31
0.0
  0
LINE
  5
30B
330
6F
100
AcDbEntity
  8
ANCHOR
  6
HIDDEN
100
AcDbLine
 10
247.2430554817932
 20
365.8640159661417
 30
0.0
 11
248.3388561043439
 21
366.2280960795076
 31
0.0
  0
LINE
  5
30C
330
6F
100
AcDbEntity
  8
ANCHOR
  6
HIDDEN
100
AcDbLine
 10
245.7064448885615
 20
358.3920818358593
 30
0.0
 11
247.2430554817922
 21
365.8640159661413
 31
0.0
  0
LINE
  5
30D
330
6F
100
AcDbEntity
  8
ANCHOR
  6
HIDDEN
100
AcDbLine
 10
242.7273721689338
 20
325.3920818358615
 30
0.0
 11
239.9773721344775
 21
335.6552216849765
 31
0.0
  0
LINE
  5
30E
330
6F
100
AcDbEntity
  8
ANCHOR
  6
HIDDEN
100
AcDbLine
 10
242.7273721234753
 20
325.3920818358612
 30
0.0
 11
245.4773721342489
 21
335.655221596955
 31
0.0
  0
LINE
  5
30F
330
6F
100
AcDbEntity
  8
ANCHOR
  6
HIDDEN
100
AcDbLine
 10
239.977372134479
 20
335.6552216849769
 30
0.0
 11
239.9773721339327
 21
337.183062265046
 31
0.0
  0
LINE
  5
310
330
6F
100
AcDbEntity
  8
ANCHOR
  6
HIDDEN
100
AcDbLine
 10
245.477372134249
 20
335.6552215969547
 30
0.0
 11
245.4773721338875
 21
337.183062272294
 31
0.0
  0
ARC
  5
311
330
6F
100
AcDbEntity
  8
ANCHOR
  6
Continuous
100
AcDbCircle
 10
242.727372123424
 20
370.7920818358525
 30
0.0
 40
14.0
100
AcDbArc
 50
74.63751496329646
 51
105.3624850364064
  0
LINE
  5
312
330
6F
100
AcDbEntity
  8
ANCHOR
  6
Continuous
100
AcDbLine
 10
237.4773721234012
 20
381.4920818358414
 30
0.0
 11
237.485713432094
 21
381.5544190163118
 31
0.0
  0
LINE
  5
313
330
6F
100
AcDbEntity
  8
ANCHOR
  6
Continuous
100
AcDbLine
 10
247.977372123405
 20
381.4920818358635
 30
0.0
 11
247.8257322491112
 21
382.6253335302035
 31
0.0
  0
ARC
  5
314
330
6F
100
AcDbEntity
  8
ANCHOR
  6
Continuous
100
AcDbCircle
 10
245.9329623227175
 20
382.459737618949
 30
0.0
 40
1.9
100
AcDbArc
 50
5.000000000119887
 51
74.63751496329646
  0
LINE
  5
315
330
6F
100
AcDbEntity
  8
ANCHOR
  6
Continuous
100
AcDbLine
 10
249.2273721234341
 20
381.4920818358656
 30
0.0
 11
236.2273721234414
 21
381.4920818358382
 31
0.0
  0
LINE
  5
316
330
6F
100
AcDbEntity
  8
ANCHOR
  6
Continuous
100
AcDbLine
 10
236.2273721234336
 20
380.8920818358395
 30
0.0
 11
236.2273721234337
 21
380.9264707225905
 31
0.0
  0
LINE
  5
317
330
6F
100
AcDbEntity
  8
ANCHOR
  6
Continuous
100
AcDbLine
 10
249.2273721234325
 20
380.8920818358665
 30
0.0
 11
249.227372123433
 21
381.4920818358664
 31
0.0
  0
LINE
  5
318
330
6F
100
AcDbEntity
  8
ANCHOR
  6
HIDDEN
100
AcDbLine
 10
245.4773721246137
 20
375.8920818356739
 30
0.0
 11
245.4773721234311
 21
380.8920818358582
 31
0.0
  0
LINE
  5
319
330
6F
100
AcDbEntity
  8
ANCHOR
  6
HIDDEN
100
AcDbLine
 10
239.9773721252206
 20
375.8920818356883
 30
0.0
 11
239.9773721234328
 21
380.892081835847
 31
0.0
  0
LINE
  5
31A
330
6F
100
AcDbEntity
  8
ANCHOR
  6
Continuous
100
AcDbLine
 10
249.2273721234336
 20
380.8920818358653
 30
0.0
 11
236.2273721234336
 21
380.8920818358379
 31
0.0
  0
LINE
  5
31B
330
6F
100
AcDbEntity
  8
ANCHOR
  6
Continuous
100
AcDbLine
 10
237.4773721234735
 20
381.4920818359349
 30
0.0
 11
237.6290119977819
 21
382.6253335302719
 31
0.0
  0
ARC
  5
31C
330
6F
100
AcDbEntity
  8
ANCHOR
  6
Continuous
100
AcDbCircle
 10
239.5217819241686
 20
382.4597376189926
 30
0.0
 40
1.9
100
AcDbArc
 50
105.3624850359274
 51
174.999999999104
  0
LINE
  5
31D
330
6F
100
AcDbEntity
  8
ANCHOR
  6
Continuous
100
AcDbLine
 10
236.2273721234348
 20
380.8920818359545
 30
0.0
 11
236.2273721234426
 21
381.4920818359544
 31
0.0
  0
ARC
  5
3C2
330
6F
100
AcDbEntity
  8
UKEZAI
  6
Continuous
100
AcDbCircle
 10
242.7273721234342
 20
378.8920818358517
 30
0.0
 40
0.3
100
AcDbArc
 50
180.0
 51
270.0
  0
LINE
  5
3C3
330
6F
100
AcDbEntity
  8
UKEZAI
  6
Continuous
100
AcDbLine
 10
231.0273721234339
 20
380.3920818358516
 30
0.0
 11
231.0273721234339
 21
387.3920818358516
 31
0.0
  0
LINE
  5
3C4
330
6F
100
AcDbEntity
  8
UKEZAI
  6
Continuous
100
AcDbLine
 10
229.5273721234349
 20
379.3920818358516
 30
0.0
 11
229.7148721234349
 21
380.3920818358514
 31
0.0
  0
LINE
  5
3C5
330
6F
100
AcDbEntity
  8
UKEZAI
  6
Continuous
100
AcDbLine
 10
229.5273721233824
 20
377.3920818358516
 30
0.0
 11
229.5273721233802
 21
379.3920818355615
 31
0.0
  0
LINE
  5
3C6
330
6F
100
AcDbEntity
  8
UKEZAI
  6
Continuous
100
AcDbLine
 10
232.5273721234339
 20
378.8920818358516
 30
0.0
 11
232.5273721234339
 21
391.6420818358515
 31
0.0
  0
ARC
  5
3C7
330
6F
100
AcDbEntity
  8
UKEZAI
  6
Continuous
100
AcDbCircle
 10
231.7773721234341
 20
391.6420818358517
 30
0.0
 40
0.75
100
AcDbArc
 50
0.0
 51
160.1120356917755
  0
LINE
  5
3C8
330
6F
100
AcDbEntity
  8
UKEZAI
  6
Continuous
100
AcDbLine
 10
231.0273721234343
 20
387.3920818358065
 30
0.0
 11
229.7273721231299
 21
387.3920818358075
 31
0.0
  0
LINE
  5
3C9
330
6F
100
AcDbEntity
  8
UKEZAI
  6
Continuous
100
AcDbLine
 10
231.0273721234339
 20
380.3920818358516
 30
0.0
 11
229.7148721234339
 21
380.3920818358516
 31
0.0
  0
LINE
  5
3CA
330
6F
100
AcDbEntity
  8
UKEZAI
  6
Continuous
100
AcDbLine
 10
229.5273721233825
 20
377.3920818358516
 30
0.0
 11
242.7273721234328
 21
377.3920818358516
 31
0.0
  0
ARC
  5
3CB
330
6F
100
AcDbEntity
  8
UKEZAI
  6
Continuous
100
AcDbCircle
 10
229.7273721231297
 20
387.5920818358073
 30
0.0
 40
0.2
100
AcDbArc
 50
160.1120356917742
 51
270.0
  0
LINE
  5
3CC
330
6F
100
AcDbEntity
  8
UKEZAI
  6
Continuous
100
AcDbLine
 10
231.0721024180148
 20
391.8972183534597
 30
0.0
 11
229.5393002016848
 21
387.6601182405024
 31
0.0
  0
ARC
  5
3CD
330
6F
100
AcDbEntity
  8
UKEZAI
  6
Continuous
100
AcDbCircle
 10
240.7273721234328
 20
378.8920818358517
 30
0.0
 40
0.3
100
AcDbArc
 50
0.0
 51
180.0
  0
LINE
  5
3CE
330
6F
100
AcDbEntity
  8
UKEZAI
  6
Continuous
100
AcDbLine
 10
232.5273721234339
 20
378.8920818358516
 30
0.0
 11
240.4273721234326
 21
378.8920818358516
 31
0.0
  0
LINE
  5
3CF
330
6F
100
AcDbEntity
  8
UKEZAI
  6
Continuous
100
AcDbLine
 10
241.0273721234325
 20
378.8920818358516
 30
0.0
 11
242.4273721234345
 21
378.8920818358516
 31
0.0
  0
ARC
  5
3D0
330
6F
100
AcDbEntity
  8
UKEZAI
  6
Continuous
100
AcDbCircle
 10
242.727372123431
 20
378.8920818358517
 30
0.0
 40
0.3
100
AcDbArc
 50
270.0
 51
0.0
  0
LINE
  5
3D1
330
6F
100
AcDbEntity
  8
UKEZAI
  6
Continuous
100
AcDbLine
 10
254.4273721234306
 20
380.3920818358516
 30
0.0
 11
254.4273721234306
 21
387.3920818358516
 31
0.0
  0
LINE
  5
3D2
330
6F
100
AcDbEntity
  8
UKEZAI
  6
Continuous
100
AcDbLine
 10
255.9273721234308
 20
379.3920818358519
 30
0.0
 11
255.7398721234308
 21
380.3920818358517
 31
0.0
  0
LINE
  5
3D3
330
6F
100
AcDbEntity
  8
UKEZAI
  6
Continuous
100
AcDbLine
 10
255.9273721234828
 20
377.3920818358512
 30
0.0
 11
255.927372123485
 21
379.3920818355612
 31
0.0
  0
LINE
  5
3D4
330
6F
100
AcDbEntity
  8
UKEZAI
  6
Continuous
100
AcDbLine
 10
252.9273721234306
 20
378.8920818358516
 30
0.0
 11
252.9273721234306
 21
391.6420818358515
 31
0.0
  0
ARC
  5
3D5
330
6F
100
AcDbEntity
  8
UKEZAI
  6
Continuous
100
AcDbCircle
 10
253.6773721234308
 20
391.6420818358517
 30
0.0
 40
0.75
100
AcDbArc
 50
19.88796430822549
 51
180.0
  0
LINE
  5
3D6
330
6F
100
AcDbEntity
  8
UKEZAI
  6
Continuous
100
AcDbLine
 10
254.427372123431
 20
387.3920818358056
 30
0.0
 11
255.7273721237354
 21
387.3920818358067
 31
0.0
  0
LINE
  5
3D7
330
6F
100
AcDbEntity
  8
UKEZAI
  6
Continuous
100
AcDbLine
 10
254.4273721234306
 20
380.3920818358516
 30
0.0
 11
255.7398721234306
 21
380.3920818358516
 31
0.0
  0
LINE
  5
3D8
330
6F
100
AcDbEntity
  8
UKEZAI
  6
Continuous
100
AcDbLine
 10
255.9273721234824
 20
377.3920818358516
 30
0.0
 11
242.7273721234328
 21
377.3920818358516
 31
0.0
  0
ARC
  5
3D9
330
6F
100
AcDbEntity
  8
UKEZAI
  6
Continuous
100
AcDbCircle
 10
255.7273721237352
 20
387.5920818358073
 30
0.0
 40
0.2
100
AcDbArc
 50
270.0
 51
19.88796430822582
  0
LINE
  5
3DA
330
6F
100
AcDbEntity
  8
UKEZAI
  6
Continuous
100
AcDbLine
 10
254.3826418288511
 20
391.8972183534604
 30
0.0
 11
255.9154440451812
 21
387.6601182405032
 31
0.0
  0
ARC
  5
3DB
330
6F
100
AcDbEntity
  8
UKEZAI
  6
Continuous
100
AcDbCircle
 10
244.7273721234328
 20
378.8920818358517
 30
0.0
 40
0.3
100
AcDbArc
 50
0.0
 51
180.0
  0
LINE
  5
3DC
330
6F
100
AcDbEntity
  8
UKEZAI
  6
Continuous
100
AcDbLine
 10
252.9273721234306
 20
378.8920818358516
 30
0.0
 11
245.0273721234323
 21
378.8920818358516
 31
0.0
  0
LINE
  5
3DD
330
6F
100
AcDbEntity
  8
UKEZAI
  6
Continuous
100
AcDbLine
 10
244.4273721234324
 20
378.8920818358516
 30
0.0
 11
243.0273721234307
 21
378.8920818358516
 31
0.0
  0
POINT
  5
3DE
330
6F
100
AcDbEntity
  8
ANCHOR
  6
Continuous
100
AcDbPoint
 10
227.7273721233707
 20
387.3920818358457
 30
0.0
  0
TEXT
  5
3E1
330
6F
100
AcDbEntity
  8
COMMENT
  6
Continuous
100
AcDbText
 10
273.5647051234784
 20
71.80332524859259
 30
0.0
 40
5.300000190734863
  1
※　　　　　部に凸凹デザイン有り。
  7
KNJYOKO
100
AcDbText
  0
LINE
  5
3E2
330
6F
100
AcDbEntity
  8
LOUVER
  6
DASHED
100
AcDbLine
 10
280.9613117927699
 20
74.22903134636332
 30
0.0
 11
305.245194130995
 21
74.22903134636332
 31
0.0
  0
DIMENSION
  5
3E5
330
6F
100
AcDbEntity
  8
DXF0
  6
Continuous
 62
     3
100
AcDbDimension
280
     0
  2
*D1
 10
214.0562019761849
 20
377.3920818358516
 30
0.0
 11
213.5562019761849
 21
382.3920818358542
 31
0.0
 71
     5
 42
-1.0
 73
     0
 74
     0
 75
     0
  3
Standard
100
AcDbAlignedDimension
 13
218.3387701989774
 23
387.3920818358567
 33
0.0
 14
132.957215493353
 24
377.3920818358516
 34
0.0
 50
90.0
100
AcDbRotatedDimension
  0
DIMENSION
  5
3E6
330
6F
100
AcDbEntity
  8
DXF0
  6
Continuous
 62
     3
100
AcDbDimension
280
     0
  2
*D2
 10
223.4493718243026
 20
377.3920818358516
 30
0.0
 11
222.9493718243026
 21
380.6438981644394
 31
0.0
 71
     5
 42
-1.0
 73
     0
 74
     0
 75
     0
  3
Standard
100
AcDbAlignedDimension
 13
227.7273721233707
 23
378.3920818358709
 33
0.0
 14
132.957215493353
 24
377.3920818358516
 34
0.0
 50
90.0
100
AcDbRotatedDimension
  0
DIMENSION
  5
3E7
330
6F
100
AcDbEntity
  8
DXF0
  6
Continuous
 62
     3
100
AcDbDimension
280
     0
  2
*D3
 10
227.7273721233707
 20
318.1016654367077
 30
0.0
 11
235.2273721234017
 21
318.6016654367076
 31
0.0
 71
     5
 42
-1.0
 73
     0
 74
     0
 75
     0
  3
Standard
100
AcDbAlignedDimension
 13
242.7273721234328
 23
390.8263435503732
 33
0.0
 14
227.7273721233707
 24
378.392081835846
 34
0.0
100
AcDbRotatedDimension
  0
DIMENSION
  5
3E8
330
6F
100
AcDbEntity
  8
DXF0
  6
Continuous
 62
     3
100
AcDbDimension
280
     0
  2
*D4
 10
242.7273721234328
 20
318.1016654367077
 30
0.0
 11
250.2273721234729
 21
318.6016654367076
 31
0.0
 71
     5
 42
-1.0
 73
     0
 74
     0
 75
     0
  3
Standard
100
AcDbAlignedDimension
 13
257.727372123513
 23
378.3920818358887
 33
0.0
 14
242.7273721234328
 24
390.8263435503732
 34
0.0
100
AcDbRotatedDimension
  0
LINE
  5
440
330
6F
100
AcDbEntity
  8
WASHER
  6
HIDDEN
100
AcDbLine
 10
239.527372123433
 20
107.8800100058962
 30
0.0
 11
239.527372123433
 21
109.8800100058896
 31
0.0
  0
LINE
  5
441
330
6F
100
AcDbEntity
  8
WASHER
  6
HIDDEN
100
AcDbLine
 10
245.9273721234328
 20
107.8800100058962
 30
0.0
 11
245.9273721234328
 21
109.8800100059029
 31
0.0
  0
LINE
  5
442
330
6F
100
AcDbEntity
  8
WASHER
  6
Continuous
100
AcDbLine
 10
233.7273721234328
 20
109.8800100058965
 30
0.0
 11
251.7273721234328
 21
109.8800100058965
 31
0.0
  0
LINE
  5
443
330
6F
100
AcDbEntity
  8
WASHER
  6
Continuous
100
AcDbLine
 10
251.7273721234328
 20
107.8800100058965
 30
0.0
 11
251.7273721234328
 21
109.8800100058965
 31
0.0
  0
LINE
  5
444
330
6F
100
AcDbEntity
  8
WASHER
  6
Continuous
100
AcDbLine
 10
233.7273721234328
 20
107.8800100058965
 30
0.0
 11
233.7273721234328
 21
109.8800100058965
 31
0.0
  0
LINE
  5
445
330
6F
100
AcDbEntity
  8
ANCHOR
  6
CENTER
100
AcDbLine
 10
236.7877330595504
 20
116.3800100058796
 30
0.0
 11
218.3387701989775
 21
116.3800100059014
 31
0.0
  0
LINE
  5
446
330
6F
100
AcDbEntity
  8
ANCHOR
  6
HIDDEN
100
AcDbLine
 10
237.2273721245226
 20
118.3800100059865
 30
0.0
 11
227.7273721231938
 21
118.3800100060269
 31
0.0
  0
LINE
  5
447
330
6F
100
AcDbEntity
  8
ANCHOR
  6
HIDDEN
100
AcDbLine
 10
237.2273721250776
 20
114.3800100059865
 30
0.0
 11
227.7273721231782
 21
114.3800100060269
 31
0.0
  0
LINE
  5
448
330
6F
100
AcDbEntity
  8
ANCHOR
  6
HIDDEN
100
AcDbLine
 10
240.1500218552881
 20
117.3800100059952
 30
0.0
 11
238.2273721245334
 21
117.3800100059913
 31
0.0
  0
LINE
  5
449
330
6F
100
AcDbEntity
  8
ANCHOR
  6
HIDDEN
100
AcDbLine
 10
240.1500218554841
 20
115.3800100059952
 30
0.0
 11
238.2273721250713
 21
115.3800100059913
 31
0.0
  0
LINE
  5
44A
330
6F
100
AcDbEntity
  8
ANCHOR
  6
HIDDEN
100
AcDbLine
 10
240.7273721245754
 20
116.380010005835
 30
0.0
 11
240.1500218552878
 21
117.3800100059959
 31
0.0
  0
LINE
  5
44B
330
6F
100
AcDbEntity
  8
ANCHOR
  6
HIDDEN
100
AcDbLine
 10
240.1500218554848
 20
115.3800100059967
 30
0.0
 11
240.7273721245766
 21
116.3800100058357
 31
0.0
  0
ARC
  5
44C
330
6F
100
AcDbEntity
  8
ANCHOR
  6
HIDDEN
100
AcDbCircle
 10
238.7273721250808
 20
116.3800100059938
 30
0.0
 40
0.5
100
AcDbArc
 50
97.20679386168658
 51
262.7932061387912
  0
LINE
  5
44D
330
6F
100
AcDbEntity
  8
ANCHOR
  6
HIDDEN
100
AcDbLine
 10
238.6646466886156
 20
115.8839600895326
 30
0.0
 11
240.1500218554839
 21
115.3800100059949
 31
0.0
  0
LINE
  5
44E
330
6F
100
AcDbEntity
  8
ANCHOR
  6
HIDDEN
100
AcDbLine
 10
238.6646466886122
 20
116.8760599224539
 30
0.0
 11
240.1500218552879
 21
117.3800100059959
 31
0.0
  0
LINE
  5
44F
330
6F
100
AcDbEntity
  8
ANCHOR
  6
HIDDEN
100
AcDbLine
 10
238.2273721245319
 20
117.3800100059906
 30
0.0
 11
237.2273721245223
 21
118.3800100059882
 31
0.0
  0
LINE
  5
450
330
6F
100
AcDbEntity
  8
ANCHOR
  6
HIDDEN
100
AcDbLine
 10
237.2273721250781
 20
114.3800100059906
 30
0.0
 11
238.2273721250706
 21
115.3800100059907
 31
0.0
  0
LINE
  5
451
330
6F
100
AcDbEntity
  8
ANCHOR
  6
HIDDEN
100
AcDbLine
 10
237.2273721248091
 20
114.380010005989
 30
0.0
 11
237.2273721247942
 21
118.380010005989
 31
0.0
  0
LINE
  5
452
330
6F
100
AcDbEntity
  8
ANCHOR
  6
HIDDEN
100
AcDbLine
 10
238.227372124575
 20
115.3800100059893
 30
0.0
 11
238.2273721245657
 21
117.3800100059893
 31
0.0
  0
LINE
  5
453
330
6F
100
AcDbEntity
  8
ANCHOR
  6
HIDDEN
100
AcDbLine
 10
238.0273721250729
 20
115.1800100059893
 30
0.0
 11
227.7273721231823
 21
115.1800100060304
 31
0.0
  0
LINE
  5
454
330
6F
100
AcDbEntity
  8
ANCHOR
  6
HIDDEN
100
AcDbLine
 10
238.0273721245317
 20
117.580010005989
 30
0.0
 11
227.7273721231914
 21
117.5800100060301
 31
0.0
  0
LINE
  5
455
330
6F
100
AcDbEntity
  8
ANCHOR
  6
Continuous
100
AcDbLine
 10
225.7050615420442
 20
116.8782082536194
 30
0.0
 11
225.7050615420447
 21
115.8818117581372
 31
0.0
  0
LINE
  5
456
330
6F
100
AcDbEntity
  8
ANCHOR
  6
Continuous
100
AcDbLine
 10
225.7050615420441
 20
116.8782082536197
 30
0.0
 11
225.2273721233696
 21
116.8782082536197
 31
0.0
  0
LINE
  5
457
330
6F
100
AcDbEntity
  8
ANCHOR
  6
Continuous
100
AcDbLine
 10
225.7050615420444
 20
115.8818117581374
 30
0.0
 11
225.2273721233703
 21
115.8818117581374
 31
0.0
  0
LINE
  5
458
330
6F
100
AcDbEntity
  8
ANCHOR
  6
Continuous
100
AcDbLine
 10
227.2273721233865
 20
111.6800100058765
 30
0.0
 11
227.7273721233865
 21
111.6800100058768
 31
0.0
  0
ARC
  5
459
330
6F
100
AcDbEntity
  8
ANCHOR
  6
Continuous
100
AcDbCircle
 10
231.3188375176928
 20
116.2043785725613
 30
0.0
 40
6.099999999999999
100
AcDbArc
 50
183.0312034848472
 51
227.876411461438
  0
LINE
  5
45A
330
6F
100
AcDbEntity
  8
ANCHOR
  6
Continuous
100
AcDbLine
 10
227.2273721233527
 20
121.0800100058785
 30
0.0
 11
227.2273721233875
 21
111.680010005877
 31
0.0
  0
ARC
  5
45B
330
6F
100
AcDbEntity
  8
ANCHOR
  6
Continuous
100
AcDbCircle
 10
231.3188375176928
 20
116.5556414391989
 30
0.0
 40
6.099999999999999
100
AcDbArc
 50
132.1235885386251
 51
176.9687965152159
  0
LINE
  5
45C
330
6F
100
AcDbEntity
  8
ANCHOR
  6
Continuous
100
AcDbLine
 10
227.7273721233532
 20
121.0800100058798
 30
0.0
 11
227.7273721233879
 21
111.6800100058783
 31
0.0
  0
LINE
  5
45D
330
6F
100
AcDbEntity
  8
ANCHOR
  6
Continuous
100
AcDbLine
 10
227.2273721233823
 20
121.0800100058782
 30
0.0
 11
227.7273721233823
 21
121.0800100058785
 31
0.0
  0
LINE
  5
45E
330
6F
100
AcDbEntity
  8
WASHER
  6
Continuous
100
AcDbLine
 10
233.7273721234328
 20
107.8800100058965
 30
0.0
 11
251.7273721234328
 21
107.8800100058965
 31
0.0
  0
LINE
  5
45F
330
6F
100
AcDbEntity
  8
COMMENT
  6
Continuous
100
AcDbLine
 10
225.2273721233695
 20
116.8782082536197
 30
0.0
 11
192.0806277974378
 21
132.9435743849083
 31
0.0
  0
LINE
  5
460
330
6F
100
AcDbEntity
  8
COMMENT
  6
Continuous
100
AcDbLine
 10
223.1659328237933
 20
117.2105755847048
 30
0.0
 11
225.2273721233694
 21
116.8782082536196
 31
0.0
  0
LINE
  5
461
330
6F
100
AcDbEntity
  8
COMMENT
  6
Continuous
100
AcDbLine
 10
225.2273721233696
 20
116.8782082536197
 30
0.0
 11
223.689308517596
 21
118.2904264992193
 31
0.0
  0
LINE
  5
462
330
6F
100
AcDbEntity
  8
COMMENT
  6
Continuous
100
AcDbLine
 10
192.0806277974379
 20
132.9435743849082
 30
0.0
 11
134.2906292756331
 21
132.9435743849082
 31
0.0
  0
TEXT
  5
463
330
6F
100
AcDbEntity
  8
COMMENT
  6
Continuous
100
AcDbText
 10
134.2906292756331
 20
133.4435743849082
 30
0.0
 40
4.0
  1
脱落防止ねじ(両端2ヶ所)
  7
KNJYOKO
100
AcDbText
  0
TEXT
  5
464
330
6F
100
AcDbEntity
  8
COMMENT
  6
Continuous
100
AcDbText
 10
134.2906292756331
 20
128.4435743849082
 30
0.0
 40
4.0
  1
トラス頭ドリルねじ4×13
  7
KNJYOKO
100
AcDbText
  0
TEXT
  5
465
330
6F
100
AcDbEntity
  8
COMMENT
  6
Continuous
100
AcDbText
 10
134.2906292756331
 20
123.4435743849082
 30
0.0
 40
4.0
  1
TBT-413-100
100
AcDbText
  0
LINE
  5
466
330
6F
100
AcDbEntity
  8
COMMENT
  6
Continuous
100
AcDbLine
 10
257.8879720846626
 20
145.5073307895971
 30
0.0
 11
270.3958044268371
 21
152.563236509788
 31
0.0
  0
LINE
  5
467
330
6F
100
AcDbEntity
  8
COMMENT
  6
Continuous
100
AcDbLine
 10
259.3351175425519
 20
147.0125782949334
 30
0.0
 11
257.8879720846627
 21
145.5073307895971
 31
0.0
  0
LINE
  5
468
330
6F
100
AcDbEntity
  8
COMMENT
  6
Continuous
100
AcDbLine
 10
257.8879720846625
 20
145.5073307895972
 30
0.0
 11
259.9247160120479
 21
145.9674114378199
 31
0.0
  0
LINE
  5
469
330
6F
100
AcDbEntity
  8
COMMENT
  6
Continuous
100
AcDbLine
 10
270.395804426837
 20
152.5632365097881
 30
0.0
 11
304.7858035685302
 21
152.5632365097881
 31
0.0
  0
TEXT
  5
46A
330
6F
100
AcDbEntity
  8
COMMENT
  6
Continuous
100
AcDbText
 10
272.885804426837
 20
153.0632365097881
 30
0.0
 40
4.0
  1
アルミルーバー
  7
KNJYOKO
100
AcDbText
  0
TEXT
  5
46B
330
6F
100
AcDbEntity
  8
COMMENT
  6
Continuous
100
AcDbText
 10
272.885804426837
 20
148.063236509788
 30
0.0
 40
4.0
  1
CLKSW-3015
100
AcDbText
  0
LINE
  5
46C
330
6F
100
AcDbEntity
  8
COMMENT
  6
Continuous
100
AcDbLine
 10
252.0473447868658
 20
109.8800100058965
 30
0.0
 11
278.3819580462563
 21
125.2893052565813
 31
0.0
  0
LINE
  5
46D
330
6F
100
AcDbEntity
  8
COMMENT
  6
Continuous
100
AcDbLine
 10
253.4705293237201
 20
111.4079320597555
 30
0.0
 11
252.0473447868658
 21
109.8800100058963
 31
0.0
  0
LINE
  5
46E
330
6F
100
AcDbEntity
  8
COMMENT
  6
Continuous
100
AcDbLine
 10
252.0473447868659
 20
109.8800100058966
 30
0.0
 11
254.0765660461206
 21
110.372210279767
 31
0.0
  0
LINE
  5
46F
330
6F
100
AcDbEntity
  8
COMMENT
  6
Continuous
100
AcDbLine
 10
278.3819580462564
 20
125.2893052565813
 30
0.0
 11
316.3719570925819
 21
125.2893052565813
 31
0.0
  0
TEXT
  5
470
330
6F
100
AcDbEntity
  8
COMMENT
  6
Continuous
100
AcDbText
 10
280.8719580462561
 20
125.7893052565813
 30
0.0
 40
4.0
  1
平座金　
  7
KNJYOKO
100
AcDbText
  0
TEXT
  5
471
330
6F
100
AcDbEntity
  8
COMMENT
  6
Continuous
100
AcDbText
 10
280.8719580462561
 20
120.7893052565813
 30
0.0
 40
4.0
  1
D18mm t2mm
100
AcDbText
  0
ARC
  5
472
330
6F
100
AcDbEntity
  8
UKEZAI
  6
Continuous
100
AcDbCircle
 10
242.7273721234342
 20
107.8800100058963
 30
0.0
 40
0.3
100
AcDbArc
 50
180.0
 51
270.0
  0
LINE
  5
473
330
6F
100
AcDbEntity
  8
UKEZAI
  6
Continuous
100
AcDbLine
 10
231.0273721234339
 20
109.3800100058962
 30
0.0
 11
231.0273721234339
 21
116.3800100058962
 31
0.0
  0
LINE
  5
474
330
6F
100
AcDbEntity
  8
UKEZAI
  6
Continuous
100
AcDbLine
 10
229.527372123435
 20
108.380010005896
 30
0.0
 11
229.7148721234349
 21
109.3800100058958
 31
0.0
  0
LINE
  5
475
330
6F
100
AcDbEntity
  8
UKEZAI
  6
Continuous
100
AcDbLine
 10
229.5273721233825
 20
106.3800100058962
 30
0.0
 11
229.5273721233803
 21
108.3800100056061
 31
0.0
  0
LINE
  5
476
330
6F
100
AcDbEntity
  8
UKEZAI
  6
Continuous
100
AcDbLine
 10
232.5273721234339
 20
107.8800100058962
 30
0.0
 11
232.5273721234339
 21
120.6300100058962
 31
0.0
  0
ARC
  5
477
330
6F
100
AcDbEntity
  8
UKEZAI
  6
Continuous
100
AcDbCircle
 10
231.7773721234341
 20
120.6300100058963
 30
0.0
 40
0.75
100
AcDbArc
 50
0.0
 51
160.1120356917755
  0
LINE
  5
478
330
6F
100
AcDbEntity
  8
UKEZAI
  6
Continuous
100
AcDbLine
 10
231.0273721234344
 20
116.3800100058511
 30
0.0
 11
229.72737212313
 21
116.3800100058521
 31
0.0
  0
LINE
  5
479
330
6F
100
AcDbEntity
  8
UKEZAI
  6
Continuous
100
AcDbLine
 10
231.0273721234339
 20
109.3800100058962
 30
0.0
 11
229.7148721234339
 21
109.3800100058962
 31
0.0
  0
LINE
  5
47A
330
6F
100
AcDbEntity
  8
UKEZAI
  6
Continuous
100
AcDbLine
 10
229.5273721233825
 20
106.3800100058962
 30
0.0
 11
242.7273721234328
 21
106.3800100058962
 31
0.0
  0
ARC
  5
47B
330
6F
100
AcDbEntity
  8
UKEZAI
  6
Continuous
100
AcDbCircle
 10
229.7273721231297
 20
116.580010005852
 30
0.0
 40
0.2
100
AcDbArc
 50
160.1120356917742
 51
270.0
  0
LINE
  5
47C
330
6F
100
AcDbEntity
  8
UKEZAI
  6
Continuous
100
AcDbLine
 10
231.0721024180148
 20
120.8851465235043
 30
0.0
 11
229.5393002016848
 21
116.648046410547
 31
0.0
  0
ARC
  5
47D
330
6F
100
AcDbEntity
  8
UKEZAI
  6
Continuous
100
AcDbCircle
 10
240.7273721234328
 20
107.8800100058963
 30
0.0
 40
0.3
100
AcDbArc
 50
0.0
 51
180.0
  0
LINE
  5
47E
330
6F
100
AcDbEntity
  8
UKEZAI
  6
Continuous
100
AcDbLine
 10
232.5273721234339
 20
107.8800100058962
 30
0.0
 11
240.4273721234326
 21
107.8800100058962
 31
0.0
  0
LINE
  5
47F
330
6F
100
AcDbEntity
  8
UKEZAI
  6
Continuous
100
AcDbLine
 10
241.0273721234325
 20
107.8800100058962
 30
0.0
 11
242.4273721234345
 21
107.8800100058962
 31
0.0
  0
ARC
  5
480
330
6F
100
AcDbEntity
  8
UKEZAI
  6
Continuous
100
AcDbCircle
 10
242.727372123431
 20
107.8800100058963
 30
0.0
 40
0.3
100
AcDbArc
 50
270.0
 51
0.0
  0
LINE
  5
481
330
6F
100
AcDbEntity
  8
UKEZAI
  6
Continuous
100
AcDbLine
 10
254.4273721234306
 20
109.3800100058962
 30
0.0
 11
254.4273721234306
 21
116.3800100058962
 31
0.0
  0
LINE
  5
482
330
6F
100
AcDbEntity
  8
UKEZAI
  6
Continuous
100
AcDbLine
 10
255.9273721234309
 20
108.3800100058966
 30
0.0
 11
255.7398721234309
 21
109.3800100058964
 31
0.0
  0
LINE
  5
483
330
6F
100
AcDbEntity
  8
UKEZAI
  6
Continuous
100
AcDbLine
 10
255.9273721234827
 20
106.3800100058958
 30
0.0
 11
255.9273721234849
 21
108.3800100056057
 31
0.0
  0
LINE
  5
484
330
6F
100
AcDbEntity
  8
UKEZAI
  6
Continuous
100
AcDbLine
 10
252.9273721234306
 20
107.8800100058962
 30
0.0
 11
252.9273721234306
 21
120.6300100058962
 31
0.0
  0
ARC
  5
485
330
6F
100
AcDbEntity
  8
UKEZAI
  6
Continuous
100
AcDbCircle
 10
253.6773721234308
 20
120.6300100058963
 30
0.0
 40
0.75
100
AcDbArc
 50
19.88796430822549
 51
180.0
  0
LINE
  5
486
330
6F
100
AcDbEntity
  8
UKEZAI
  6
Continuous
100
AcDbLine
 10
254.427372123431
 20
116.3800100058503
 30
0.0
 11
255.7273721237354
 21
116.3800100058513
 31
0.0
  0
LINE
  5
487
330
6F
100
AcDbEntity
  8
UKEZAI
  6
Continuous
100
AcDbLine
 10
254.4273721234306
 20
109.3800100058962
 30
0.0
 11
255.7398721234306
 21
109.3800100058962
 31
0.0
  0
LINE
  5
488
330
6F
100
AcDbEntity
  8
UKEZAI
  6
Continuous
100
AcDbLine
 10
255.9273721234824
 20
106.3800100058962
 30
0.0
 11
242.7273721234328
 21
106.3800100058962
 31
0.0
  0
ARC
  5
489
330
6F
100
AcDbEntity
  8
UKEZAI
  6
Continuous
100
AcDbCircle
 10
255.7273721237352
 20
116.580010005852
 30
0.0
 40
0.2
100
AcDbArc
 50
270.0
 51
19.88796430822582
  0
LINE
  5
48A
330
6F
100
AcDbEntity
  8
UKEZAI
  6
Continuous
100
AcDbLine
 10
254.3826418288513
 20
120.8851465235049
 30
0.0
 11
255.9154440451813
 21
116.6480464105476
 31
0.0
  0
ARC
  5
48B
330
6F
100
AcDbEntity
  8
UKEZAI
  6
Continuous
100
AcDbCircle
 10
244.7273721234328
 20
107.8800100058963
 30
0.0
 40
0.3
100
AcDbArc
 50
0.0
 51
180.0
  0
LINE
  5
48C
330
6F
100
AcDbEntity
  8
UKEZAI
  6
Continuous
100
AcDbLine
 10
252.9273721234306
 20
107.8800100058962
 30
0.0
 11
245.0273721234323
 21
107.8800100058962
 31
0.0
  0
LINE
  5
48D
330
6F
100
AcDbEntity
  8
UKEZAI
  6
Continuous
100
AcDbLine
 10
244.4273721234324
 20
107.8800100058962
 30
0.0
 11
243.0273721234307
 21
107.8800100058962
 31
0.0
  0
POINT
  5
48E
330
6F
100
AcDbEntity
  8
ANCHOR
  6
Continuous
100
AcDbPoint
 10
227.7273721233707
 20
116.3800100058903
 30
0.0
  0
DIMENSION
  5
48F
330
6F
100
AcDbEntity
  8
DXF0
  6
Continuous
 62
     3
100
AcDbDimension
280
     0
  2
*D7
 10
214.0562019761848
 20
106.3800100058962
 30
0.0
 11
213.5562019761848
 21
111.3800100058988
 31
0.0
 71
     5
 42
-1.0
 73
     0
 74
     0
 75
     0
  3
Standard
100
AcDbAlignedDimension
 13
218.3387701989772
 23
116.3800100059013
 33
0.0
 14
132.957215493353
 24
106.3800100058962
 34
0.0
 50
90.0
100
AcDbRotatedDimension
  0
DIMENSION
  5
490
330
6F
100
AcDbEntity
  8
DXF0
  6
Continuous
 62
     3
100
AcDbDimension
280
     0
  2
*D8
 10
227.7273721233707
 20
63.52667342535671
 30
0.0
 11
235.2273721234018
 21
64.02667342535671
 31
0.0
 71
     5
 42
-1.0
 73
     0
 74
     0
 75
     0
  3
Standard
100
AcDbAlignedDimension
 13
242.7273721234328
 23
119.8503766655434
 33
0.0
 14
227.7273721233707
 24
107.3800100058906
 34
0.0
100
AcDbRotatedDimension
  0
DIMENSION
  5
491
330
6F
100
AcDbEntity
  8
DXF0
  6
Continuous
 62
     3
100
AcDbDimension
280
     0
  2
*D9
 10
242.7273721234328
 20
63.52667342535671
 30
0.0
 11
250.2273721234729
 21
64.02667342535671
 31
0.0
 71
     5
 42
-1.0
 73
     0
 74
     0
 75
     0
  3
Standard
100
AcDbAlignedDimension
 13
257.7273721235131
 23
107.3800100059333
 33
0.0
 14
242.7273721234328
 24
119.8503766655434
 34
0.0
100
AcDbRotatedDimension
  0
LINE
  5
4E4
330
6F
100
AcDbEntity
  8
LOUVER
  6
Continuous
100
AcDbLine
 10
230.2273721235755
 20
387.192081835868
 30
0.0
 11
229.027372123432
 21
387.192081835868
 31
0.0
  0
LINE
  5
4E5
330
6F
100
AcDbEntity
  8
LOUVER
  6
Continuous
100
AcDbLine
 10
229.527372123377
 20
378.3920818358845
 30
0.0
 11
229.5273721233759
 21
383.3920818355725
 31
0.0
  0
LINE
  5
4E6
330
6F
100
AcDbEntity
  8
LOUVER
  6
Continuous
100
AcDbLine
 10
229.5273721233774
 20
378.3920818358847
 30
0.0
 11
227.7273721236314
 21
378.3920818358847
 31
0.0
  0
LINE
  5
4E7
330
6F
100
AcDbEntity
  8
LOUVER
  6
Continuous
100
AcDbLine
 10
229.0273721234317
 20
392.3920818358857
 30
0.0
 11
232.7273721234315
 21
392.392081835887
 31
0.0
  0
LINE
  5
4E8
330
6F
100
AcDbEntity
  8
LOUVER
  6
Continuous
100
AcDbLine
 10
233.0273721234315
 20
392.6920818358872
 30
0.0
 11
233.0273721234315
 21
393.0920818358867
 31
0.0
  0
ARC
  5
4E9
330
6F
100
AcDbEntity
  8
LOUVER
  6
Continuous
100
AcDbCircle
 10
230.2273721235752
 20
386.9920818358685
 30
0.0
 40
0.2
100
AcDbArc
 50
345.8703295024461
 51
90.0
  0
LINE
  5
4EA
330
6F
100
AcDbEntity
  8
LOUVER
  6
Continuous
100
AcDbLine
 10
246.1551994236355
 20
424.7920818358838
 30
0.0
 11
256.0273721234597
 21
424.7920818358838
 31
0.0
  0
LINE
  5
4EB
330
6F
100
AcDbEntity
  8
LOUVER
  6
Continuous
100
AcDbLine
 10
229.4273721234325
 20
424.7920818358841
 30
0.0
 11
239.2995448232344
 21
424.7920818358841
 31
0.0
  0
LINE
  5
4EC
330
6F
100
AcDbEntity
  8
LOUVER
  6
Continuous
100
AcDbLine
 10
255.2273721233006
 20
387.1920818358562
 30
0.0
 11
256.5273721234354
 21
387.1920818358541
 31
0.0
  0
LINE
  5
4ED
330
6F
100
AcDbEntity
  8
LOUVER
  6
Continuous
100
AcDbLine
 10
255.9273721234841
 20
378.3920818358708
 30
0.0
 11
255.9273721234868
 21
383.3920818355584
 31
0.0
  0
LINE
  5
4EE
330
6F
100
AcDbEntity
  8
LOUVER
  6
Continuous
100
AcDbLine
 10
255.9273721234841
 20
378.3920818358711
 30
0.0
 11
257.7273721234311
 21
378.3920818358674
 31
0.0
  0
LINE
  5
4EF
330
6F
100
AcDbEntity
  8
LOUVER
  6
Continuous
100
AcDbLine
 10
256.5273721234386
 20
392.3920818358703
 30
0.0
 11
252.7273721234529
 21
392.3920818358785
 31
0.0
  0
LINE
  5
4F0
330
6F
100
AcDbEntity
  8
LOUVER
  6
Continuous
100
AcDbLine
 10
252.4273721234538
 20
392.692081835879
 30
0.0
 11
252.4273721234545
 21
393.0920818358786
 31
0.0
  0
ARC
  5
4F1
330
6F
100
AcDbEntity
  8
LOUVER
  6
Continuous
100
AcDbCircle
 10
255.2273721233
 20
386.9920818358557
 30
0.0
 40
0.2
100
AcDbArc
 50
89.9999999999035
 51
194.1296704973584
  0
LINE
  5
4F2
330
6F
100
AcDbEntity
  8
LOUVER
  6
Continuous
100
AcDbLine
 10
256.5273721234386
 20
392.3920818358704
 30
0.0
 11
256.5273721234353
 21
387.1920818358536
 31
0.0
  0
LINE
  5
4F3
330
6F
100
AcDbEntity
  8
LOUVER
  6
Continuous
100
AcDbLine
 10
255.0334229773535
 20
386.943258390804
 30
0.0
 11
255.9273721234865
 21
383.392081835558
 31
0.0
  0
LINE
  5
4F4
330
6F
100
AcDbEntity
  8
LOUVER
  6
Continuous
100
AcDbLine
 10
230.4213212695218
 20
386.9432583908174
 30
0.0
 11
229.5273721233763
 21
383.3920818355732
 31
0.0
  0
ARC
  5
4F5
330
6F
100
AcDbEntity
  8
LOUVER
  6
Continuous
100
AcDbCircle
 10
235.7273721234328
 20
423.3920818358845
 30
0.0
 40
0.3
100
AcDbArc
 50
0.0
 51
180.0
  0
LINE
  5
4F6
330
6F
100
AcDbEntity
  8
LOUVER
  6
Continuous
100
AcDbLine
 10
230.1273721234323
 20
423.392081835884
 30
0.0
 11
235.4273721234325
 21
423.392081835884
 31
0.0
  0
POINT
  5
4F7
330
6F
100
AcDbEntity
  8
LOUVER
  6
Continuous
100
AcDbPoint
 10
235.7273721234328
 20
423.3920818358845
 30
0.0
  0
ARC
  5
4F8
330
6F
100
AcDbEntity
  8
LOUVER
  6
Continuous
100
AcDbCircle
 10
249.7273721234224
 20
423.3920818358858
 30
0.0
 40
0.3
100
AcDbArc
 50
0.0000000000088547
 51
180.0000000000089
  0
POINT
  5
4F9
330
6F
100
AcDbEntity
  8
LOUVER
  6
Continuous
100
AcDbPoint
 10
249.7273721234224
 20
423.3920818358858
 30
0.0
  0
LINE
  5
4FA
330
6F
100
AcDbEntity
  8
LOUVER
  6
Continuous
100
AcDbLine
 10
236.0273721234323
 20
423.3920818358845
 30
0.0
 11
249.4273721234224
 21
423.3920818358845
 31
0.0
  0
LINE
  5
4FB
330
6F
100
AcDbEntity
  8
LOUVER
  6
Continuous
100
AcDbLine
 10
250.0273721234224
 20
423.392081835884
 30
0.0
 11
255.3273721234549
 21
423.392081835884
 31
0.0
  0
LINE
  5
4FC
330
6F
100
AcDbEntity
  8
LOUVER
  6
Continuous
100
AcDbLine
 10
256.0273721235244
 20
525.9920818358843
 30
0.0
 11
256.0273721234593
 21
424.792081835884
 31
0.0
  0
LINE
  5
4FD
330
6F
100
AcDbEntity
  8
LOUVER
  6
Continuous
100
AcDbLine
 10
229.4273721234348
 20
525.9920818358844
 30
0.0
 11
229.4273721234323
 21
424.7920818358847
 31
0.0
  0
LINE
  5
4FE
330
6F
100
AcDbEntity
  8
LOUVER
  6
Continuous
100
AcDbLine
 10
229.0273721234318
 20
392.3920818358852
 30
0.0
 11
229.0273721234317
 21
387.192081835868
 31
0.0
  0
ARC
  5
4FF
330
6F
100
AcDbEntity
  8
LOUVER
  6
Continuous
100
AcDbCircle
 10
252.7273721234537
 20
392.6920818358788
 30
0.0
 40
0.3
100
AcDbArc
 50
180.0
 51
270.0
  0
ARC
  5
500
330
6F
100
AcDbEntity
  8
LOUVER
  6
Continuous
100
AcDbCircle
 10
232.7273721234315
 20
392.6920818358874
 30
0.0
 40
0.3
100
AcDbArc
 50
270.0
 51
0.0
  0
LINE
  5
501
330
6F
100
AcDbEntity
  8
LOUVER
  6
Continuous
100
AcDbLine
 10
239.3931045898968
 20
525.7146423330913
 30
0.0
 11
229.4273721234346
 21
525.9920818358846
 31
0.0
  0
LINE
  5
502
330
6F
100
AcDbEntity
  8
LOUVER
  6
Continuous
100
AcDbLine
 10
246.0616396569725
 20
525.7146423330908
 30
0.0
 11
256.0273721235248
 21
525.9920818358843
 31
0.0
  0
LINE
  5
503
330
6F
100
AcDbEntity
  8
LOUVER
  6
Continuous
100
AcDbLine
 10
256.3273721234396
 20
393.3920818358708
 30
0.0
 11
252.7273721234551
 21
393.3920818358786
 31
0.0
  0
LINE
  5
504
330
6F
100
AcDbEntity
  8
LOUVER
  6
Continuous
100
AcDbLine
 10
229.1273721234318
 20
393.3920818358857
 30
0.0
 11
232.727372123431
 21
393.3920818358871
 31
0.0
  0
ARC
  5
505
330
6F
100
AcDbEntity
  8
LOUVER
  6
Continuous
100
AcDbCircle
 10
232.7273721234315
 20
393.092081835887
 30
0.0
 40
0.3
100
AcDbArc
 50
0.0
 51
90.0
  0
ARC
  5
506
330
6F
100
AcDbEntity
  8
LOUVER
  6
Continuous
100
AcDbCircle
 10
252.7273721234546
 20
393.0920818358784
 30
0.0
 40
0.3
100
AcDbArc
 50
90.0
 51
180.0
  0
LINE
  5
507
330
6F
100
AcDbEntity
  8
LOUVER
  6
Continuous
100
AcDbLine
 10
256.3273721234549
 20
422.3920818358834
 30
0.0
 11
256.3273721234395
 21
393.3920818358702
 31
0.0
  0
LINE
  5
508
330
6F
100
AcDbEntity
  8
LOUVER
  6
Continuous
100
AcDbLine
 10
229.1273721234323
 20
422.3920818358837
 30
0.0
 11
229.1273721234317
 21
393.3920818358852
 31
0.0
  0
ARC
  5
509
330
6F
100
AcDbEntity
  8
LOUVER
  6
Continuous
100
AcDbCircle
 10
255.327372123455
 20
422.3920818358845
 30
0.0
 40
1.0
100
AcDbArc
 50
0.0
 51
90.0
  0
ARC
  5
50A
330
6F
100
AcDbEntity
  8
LOUVER
  6
Continuous
100
AcDbCircle
 10
230.1273721234325
 20
422.3920818358845
 30
0.0
 40
1.0
100
AcDbArc
 50
90.0
 51
180.0
  0
LINE
  5
50B
330
6F
100
AcDbEntity
  8
LOUVER
  6
DASHED
100
AcDbLine
 10
227.7273721236315
 20
527.3920818358723
 30
0.0
 11
227.7273721236314
 21
378.3920818358847
 31
0.0
  0
LINE
  5
50C
330
6F
100
AcDbEntity
  8
LOUVER
  6
DASHED
100
AcDbLine
 10
257.7273721234313
 20
378.3920818358868
 30
0.0
 11
257.7273721234313
 21
527.3920818358718
 31
0.0
  0
LINE
  5
50D
330
6F
100
AcDbEntity
  8
LOUVER
  6
DASHED
100
AcDbLine
 10
257.7273721235255
 20
527.392081835872
 30
0.0
 11
227.7273721236313
 21
527.392081835872
 31
0.0
  0
POINT
  5
50E
330
6F
100
AcDbEntity
  8
LOUVER
  6
Continuous
100
AcDbPoint
 10
242.7273721234346
 20
523.8920818358844
 30
0.0
  0
ARC
  5
50F
330
6F
100
AcDbEntity
  8
LOUVER
  6
Continuous
100
AcDbCircle
 10
240.9273721232576
 20
522.230004822217
 30
0.0
 40
0.6500000000000014
100
AcDbArc
 50
222.7186445082704
 51
42.71864450827043
  0
ARC
  5
510
330
6F
100
AcDbEntity
  8
LOUVER
  6
Continuous
100
AcDbCircle
 10
244.5273721230715
 20
522.2300048216317
 30
0.0
 40
0.6500000000000048
100
AcDbArc
 50
137.2813554730932
 51
317.2813554730932
  0
ARC
  5
511
330
6F
100
AcDbEntity
  8
LOUVER
  6
Continuous
100
AcDbCircle
 10
242.7273721234346
 20
523.8920818358844
 30
0.0
 40
3.1
100
AcDbArc
 50
317.2813554730942
 51
21.55731088639596
  0
ARC
  5
512
330
6F
100
AcDbEntity
  8
LOUVER
  6
Continuous
100
AcDbCircle
 10
242.7273721234346
 20
523.8920818358844
 30
0.0
 40
3.1
100
AcDbArc
 50
158.4426891135995
 51
222.71864450827
  0
POINT
  5
513
330
6F
100
AcDbEntity
  8
LOUVER
  6
Continuous
100
AcDbPoint
 10
242.7273721234346
 20
426.3920818358845
 30
0.0
  0
ARC
  5
514
330
6F
100
AcDbEntity
  8
LOUVER
  6
Continuous
100
AcDbCircle
 10
240.9273721232576
 20
428.0541588495522
 30
0.0
 40
0.6500000000000014
100
AcDbArc
 50
317.2813554917294
 51
137.2813554917296
  0
ARC
  5
515
330
6F
100
AcDbEntity
  8
LOUVER
  6
Continuous
100
AcDbCircle
 10
244.5273721230715
 20
428.0541588501376
 30
0.0
 40
0.6500000000000048
100
AcDbArc
 50
42.71864452690668
 51
222.7186445269066
  0
ARC
  5
516
330
6F
100
AcDbEntity
  8
LOUVER
  6
Continuous
100
AcDbCircle
 10
242.7273721234346
 20
426.3920818358845
 30
0.0
 40
3.1
100
AcDbArc
 50
342.2084094269918
 51
42.71864452690568
  0
ARC
  5
517
330
6F
100
AcDbEntity
  8
LOUVER
  6
Continuous
100
AcDbCircle
 10
242.7273721234346
 20
426.3920818358845
 30
0.0
 40
3.1
100
AcDbArc
 50
137.28135549173
 51
197.7915905730038
  0
POINT
  5
518
330
6F
100
AcDbEntity
  8
LOUVER
  6
Continuous
100
AcDbPoint
 10
240.20348623061
 20
525.6920818358846
 30
0.0
  0
POINT
  5
519
330
6F
100
AcDbEntity
  8
LOUVER
  6
Continuous
100
AcDbPoint
 10
245.2512580162597
 20
525.6920818358846
 30
0.0
  0
ARC
  5
51A
330
6F
100
AcDbEntity
  8
LOUVER
  6
Continuous
100
AcDbCircle
 10
246.0755539404586
 20
525.2148359778741
 30
0.0
 40
0.5
100
AcDbArc
 50
91.59466530844415
 51
201.5573108863914
  0
ARC
  5
51B
330
6F
100
AcDbEntity
  8
LOUVER
  6
Continuous
100
AcDbCircle
 10
239.3791903064111
 20
525.2148359778746
 30
0.0
 40
0.5
100
AcDbArc
 50
338.4426891136087
 51
88.40533469154289
  0
ARC
  5
51C
330
6F
100
AcDbEntity
  8
LOUVER
  6
Continuous
100
AcDbCircle
 10
246.1551994236351
 20
425.2920818358841
 30
0.0
 40
0.5
100
AcDbArc
 50
162.2084094269929
 51
270.0
  0
ARC
  5
51D
330
6F
100
AcDbEntity
  8
LOUVER
  6
Continuous
100
AcDbCircle
 10
239.2995448232341
 20
425.2920818358846
 30
0.0
 40
0.5
100
AcDbArc
 50
270.0
 51
17.79159057300003
  0
ARC
  5
51E
330
6F
100
AcDbEntity
  8
LOUVER
  6
Continuous
100
AcDbCircle
 10
242.7273721234346
 20
523.8920818358844
 30
0.0
 40
1.799999999999901
100
AcDbArc
 50
317.281355473106
 51
222.7186445082681
  0
ARC
  5
51F
330
6F
100
AcDbEntity
  8
LOUVER
  6
Continuous
100
AcDbCircle
 10
242.7273721234346
 20
426.3920818358845
 30
0.0
 40
1.80000000000021
100
AcDbArc
 50
137.2813554917241
 51
42.71864452690232
  0
POINT
  5
520
330
6F
100
AcDbEntity
  8
DXF0
  6
Continuous
 62
     3
100
AcDbPoint
 10
242.7273721234328
 20
377.3920818358516
 30
0.0
  0
LINE
  5
55E
330
6F
100
AcDbEntity
  8
LOUVER
  6
Continuous
100
AcDbLine
 10
230.2273721235755
 20
116.1800100059126
 30
0.0
 11
229.0273721234319
 21
116.1800100059126
 31
0.0
  0
LINE
  5
55F
330
6F
100
AcDbEntity
  8
LOUVER
  6
Continuous
100
AcDbLine
 10
229.527372123377
 20
107.3800100059291
 30
0.0
 11
229.5273721233759
 21
112.3800100056171
 31
0.0
  0
LINE
  5
560
330
6F
100
AcDbEntity
  8
LOUVER
  6
Continuous
100
AcDbLine
 10
229.5273721233774
 20
107.3800100059293
 30
0.0
 11
227.7273721236314
 21
107.3800100059293
 31
0.0
  0
LINE
  5
561
330
6F
100
AcDbEntity
  8
LOUVER
  6
Continuous
100
AcDbLine
 10
229.0273721234317
 20
121.3800100059303
 30
0.0
 11
232.7273721234315
 21
121.3800100059316
 31
0.0
  0
LINE
  5
562
330
6F
100
AcDbEntity
  8
LOUVER
  6
Continuous
100
AcDbLine
 10
233.0273721234315
 20
121.6800100059317
 30
0.0
 11
233.0273721234315
 21
122.0800100059314
 31
0.0
  0
ARC
  5
563
330
6F
100
AcDbEntity
  8
LOUVER
  6
Continuous
100
AcDbCircle
 10
230.2273721235751
 20
115.980010005913
 30
0.0
 40
0.2
100
AcDbArc
 50
345.8703295024461
 51
90.0
  0
LINE
  5
564
330
6F
100
AcDbEntity
  8
LOUVER
  6
Continuous
100
AcDbLine
 10
246.1551994236355
 20
153.7800100059284
 30
0.0
 11
256.0273721234597
 21
153.7800100059284
 31
0.0
  0
LINE
  5
565
330
6F
100
AcDbEntity
  8
LOUVER
  6
Continuous
100
AcDbLine
 10
229.4273721234325
 20
153.7800100059289
 30
0.0
 11
239.2995448232344
 21
153.7800100059289
 31
0.0
  0
LINE
  5
566
330
6F
100
AcDbEntity
  8
LOUVER
  6
Continuous
100
AcDbLine
 10
255.2273721233005
 20
116.1800100059009
 30
0.0
 11
256.5273721234353
 21
116.1800100058987
 31
0.0
  0
LINE
  5
567
330
6F
100
AcDbEntity
  8
LOUVER
  6
Continuous
100
AcDbLine
 10
255.927372123484
 20
107.3800100059155
 30
0.0
 11
255.9273721234868
 21
112.380010005603
 31
0.0
  0
LINE
  5
568
330
6F
100
AcDbEntity
  8
LOUVER
  6
Continuous
100
AcDbLine
 10
255.9273721234841
 20
107.3800100059157
 30
0.0
 11
257.7273721234311
 21
107.3800100059121
 31
0.0
  0
LINE
  5
569
330
6F
100
AcDbEntity
  8
LOUVER
  6
Continuous
100
AcDbLine
 10
256.5273721234386
 20
121.3800100059149
 30
0.0
 11
252.7273721234529
 21
121.3800100059231
 31
0.0
  0
LINE
  5
56A
330
6F
100
AcDbEntity
  8
LOUVER
  6
Continuous
100
AcDbLine
 10
252.4273721234538
 20
121.6800100059236
 30
0.0
 11
252.4273721234544
 21
122.0800100059232
 31
0.0
  0
ARC
  5
56B
330
6F
100
AcDbEntity
  8
LOUVER
  6
Continuous
100
AcDbCircle
 10
255.2273721233
 20
115.9800100059003
 30
0.0
 40
0.2
100
AcDbArc
 50
89.9999999999035
 51
194.1296704973584
  0
LINE
  5
56C
330
6F
100
AcDbEntity
  8
LOUVER
  6
Continuous
100
AcDbLine
 10
256.5273721234386
 20
121.3800100059149
 30
0.0
 11
256.5273721234353
 21
116.1800100058983
 31
0.0
  0
LINE
  5
56D
330
6F
100
AcDbEntity
  8
LOUVER
  6
Continuous
100
AcDbLine
 10
255.0334229773536
 20
115.9311865608487
 30
0.0
 11
255.9273721234866
 21
112.3800100056028
 31
0.0
  0
LINE
  5
56E
330
6F
100
AcDbEntity
  8
LOUVER
  6
Continuous
100
AcDbLine
 10
230.4213212695218
 20
115.931186560862
 30
0.0
 11
229.5273721233762
 21
112.3800100056178
 31
0.0
  0
ARC
  5
56F
330
6F
100
AcDbEntity
  8
LOUVER
  6
Continuous
100
AcDbCircle
 10
235.7273721234328
 20
152.3800100059291
 30
0.0
 40
0.3
100
AcDbArc
 50
0.0
 51
180.0
  0
LINE
  5
570
330
6F
100
AcDbEntity
  8
LOUVER
  6
Continuous
100
AcDbLine
 10
230.1273721234323
 20
152.3800100059288
 30
0.0
 11
235.4273721234325
 21
152.3800100059288
 31
0.0
  0
POINT
  5
571
330
6F
100
AcDbEntity
  8
LOUVER
  6
Continuous
100
AcDbPoint
 10
235.7273721234328
 20
152.3800100059291
 30
0.0
  0
ARC
  5
572
330
6F
100
AcDbEntity
  8
LOUVER
  6
Continuous
100
AcDbCircle
 10
249.7273721234223
 20
152.3800100059304
 30
0.0
 40
0.3
100
AcDbArc
 50
0.0000000000088547
 51
180.0000000000089
  0
POINT
  5
573
330
6F
100
AcDbEntity
  8
LOUVER
  6
Continuous
100
AcDbPoint
 10
249.7273721234223
 20
152.3800100059304
 30
0.0
  0
LINE
  5
574
330
6F
100
AcDbEntity
  8
LOUVER
  6
Continuous
100
AcDbLine
 10
236.0273721234323
 20
152.3800100059292
 30
0.0
 11
249.4273721234224
 21
152.3800100059292
 31
0.0
  0
LINE
  5
575
330
6F
100
AcDbEntity
  8
LOUVER
  6
Continuous
100
AcDbLine
 10
250.0273721234224
 20
152.3800100059288
 30
0.0
 11
255.3273721234549
 21
152.3800100059288
 31
0.0
  0
LINE
  5
576
330
6F
100
AcDbEntity
  8
LOUVER
  6
Continuous
100
AcDbLine
 10
256.0273721235243
 20
254.980010005929
 30
0.0
 11
256.0273721234592
 21
153.7800100059287
 31
0.0
  0
LINE
  5
577
330
6F
100
AcDbEntity
  8
LOUVER
  6
Continuous
100
AcDbLine
 10
229.4273721234347
 20
254.9800100059291
 30
0.0
 11
229.4273721234323
 21
153.7800100059293
 31
0.0
  0
LINE
  5
578
330
6F
100
AcDbEntity
  8
LOUVER
  6
Continuous
100
AcDbLine
 10
229.0273721234318
 20
121.3800100059297
 30
0.0
 11
229.0273721234317
 21
116.1800100059126
 31
0.0
  0
ARC
  5
579
330
6F
100
AcDbEntity
  8
LOUVER
  6
Continuous
100
AcDbCircle
 10
252.7273721234537
 20
121.6800100059233
 30
0.0
 40
0.3
100
AcDbArc
 50
180.0
 51
270.0
  0
ARC
  5
57A
330
6F
100
AcDbEntity
  8
LOUVER
  6
Continuous
100
AcDbCircle
 10
232.7273721234314
 20
121.680010005932
 30
0.0
 40
0.3
100
AcDbArc
 50
270.0
 51
0.0
  0
LINE
  5
57B
330
6F
100
AcDbEntity
  8
LOUVER
  6
Continuous
100
AcDbLine
 10
239.3931045898968
 20
254.7025705031361
 30
0.0
 11
229.4273721234345
 21
254.9800100059293
 31
0.0
  0
LINE
  5
57C
330
6F
100
AcDbEntity
  8
LOUVER
  6
Continuous
100
AcDbLine
 10
246.0616396569725
 20
254.7025705031355
 30
0.0
 11
256.0273721235248
 21
254.980010005929
 31
0.0
  0
LINE
  5
57D
330
6F
100
AcDbEntity
  8
LOUVER
  6
Continuous
100
AcDbLine
 10
256.3273721234395
 20
122.3800100059154
 30
0.0
 11
252.7273721234551
 21
122.3800100059231
 31
0.0
  0
LINE
  5
57E
330
6F
100
AcDbEntity
  8
LOUVER
  6
Continuous
100
AcDbLine
 10
229.1273721234318
 20
122.3800100059303
 30
0.0
 11
232.727372123431
 21
122.3800100059317
 31
0.0
  0
ARC
  5
57F
330
6F
100
AcDbEntity
  8
LOUVER
  6
Continuous
100
AcDbCircle
 10
232.7273721234314
 20
122.0800100059316
 30
0.0
 40
0.3
100
AcDbArc
 50
0.0
 51
90.0
  0
ARC
  5
580
330
6F
100
AcDbEntity
  8
LOUVER
  6
Continuous
100
AcDbCircle
 10
252.7273721234546
 20
122.080010005923
 30
0.0
 40
0.3
100
AcDbArc
 50
90.0
 51
180.0
  0
LINE
  5
581
330
6F
100
AcDbEntity
  8
LOUVER
  6
Continuous
100
AcDbLine
 10
256.3273721234548
 20
151.3800100059281
 30
0.0
 11
256.3273721234393
 21
122.3800100059148
 31
0.0
  0
LINE
  5
582
330
6F
100
AcDbEntity
  8
LOUVER
  6
Continuous
100
AcDbLine
 10
229.1273721234323
 20
151.3800100059284
 30
0.0
 11
229.1273721234317
 21
122.3800100059297
 31
0.0
  0
ARC
  5
583
330
6F
100
AcDbEntity
  8
LOUVER
  6
Continuous
100
AcDbCircle
 10
255.327372123455
 20
151.3800100059291
 30
0.0
 40
1.0
100
AcDbArc
 50
0.0
 51
90.0
  0
ARC
  5
584
330
6F
100
AcDbEntity
  8
LOUVER
  6
Continuous
100
AcDbCircle
 10
230.1273721234324
 20
151.3800100059291
 30
0.0
 40
1.0
100
AcDbArc
 50
90.0
 51
180.0
  0
LINE
  5
585
330
6F
100
AcDbEntity
  8
LOUVER
  6
DASHED
100
AcDbLine
 10
227.7273721236315
 20
256.3800100059169
 30
0.0
 11
227.7273721236314
 21
107.3800100059293
 31
0.0
  0
LINE
  5
586
330
6F
100
AcDbEntity
  8
LOUVER
  6
DASHED
100
AcDbLine
 10
257.7273721234313
 20
107.3800100059315
 30
0.0
 11
257.7273721234313
 21
256.3800100059165
 31
0.0
  0
LINE
  5
587
330
6F
100
AcDbEntity
  8
LOUVER
  6
DASHED
100
AcDbLine
 10
257.7273721235255
 20
256.3800100059167
 30
0.0
 11
227.7273721236312
 21
256.3800100059167
 31
0.0
  0
POINT
  5
588
330
6F
100
AcDbEntity
  8
LOUVER
  6
Continuous
100
AcDbPoint
 10
242.7273721234346
 20
252.8800100059291
 30
0.0
  0
ARC
  5
589
330
6F
100
AcDbEntity
  8
LOUVER
  6
Continuous
100
AcDbCircle
 10
240.9273721232575
 20
251.2179329922617
 30
0.0
 40
0.6500000000000014
100
AcDbArc
 50
222.7186445082704
 51
42.71864450827043
  0
ARC
  5
58A
330
6F
100
AcDbEntity
  8
LOUVER
  6
Continuous
100
AcDbCircle
 10
244.5273721230714
 20
251.2179329916764
 30
0.0
 40
0.6500000000000048
100
AcDbArc
 50
137.2813554730932
 51
317.2813554730932
  0
ARC
  5
58B
330
6F
100
AcDbEntity
  8
LOUVER
  6
Continuous
100
AcDbCircle
 10
242.7273721234346
 20
252.8800100059291
 30
0.0
 40
3.1
100
AcDbArc
 50
317.2813554730942
 51
21.55731088639596
  0
ARC
  5
58C
330
6F
100
AcDbEntity
  8
LOUVER
  6
Continuous
100
AcDbCircle
 10
242.7273721234346
 20
252.8800100059291
 30
0.0
 40
3.1
100
AcDbArc
 50
158.4426891135995
 51
222.71864450827
  0
POINT
  5
58D
330
6F
100
AcDbEntity
  8
LOUVER
  6
Continuous
100
AcDbPoint
 10
242.7273721234346
 20
155.3800100059291
 30
0.0
  0
ARC
  5
58E
330
6F
100
AcDbEntity
  8
LOUVER
  6
Continuous
100
AcDbCircle
 10
240.9273721232575
 20
157.0420870195969
 30
0.0
 40
0.6500000000000014
100
AcDbArc
 50
317.2813554917294
 51
137.2813554917296
  0
ARC
  5
58F
330
6F
100
AcDbEntity
  8
LOUVER
  6
Continuous
100
AcDbCircle
 10
244.5273721230714
 20
157.0420870201822
 30
0.0
 40
0.6500000000000048
100
AcDbArc
 50
42.71864452690668
 51
222.7186445269066
  0
ARC
  5
590
330
6F
100
AcDbEntity
  8
LOUVER
  6
Continuous
100
AcDbCircle
 10
242.7273721234346
 20
155.3800100059291
 30
0.0
 40
3.1
100
AcDbArc
 50
342.2084094269918
 51
42.71864452690568
  0
ARC
  5
591
330
6F
100
AcDbEntity
  8
LOUVER
  6
Continuous
100
AcDbCircle
 10
242.7273721234346
 20
155.3800100059291
 30
0.0
 40
3.1
100
AcDbArc
 50
137.28135549173
 51
197.7915905730038
  0
POINT
  5
592
330
6F
100
AcDbEntity
  8
LOUVER
  6
Continuous
100
AcDbPoint
 10
240.20348623061
 20
254.6800100059293
 30
0.0
  0
POINT
  5
593
330
6F
100
AcDbEntity
  8
LOUVER
  6
Continuous
100
AcDbPoint
 10
245.2512580162597
 20
254.6800100059293
 30
0.0
  0
ARC
  5
594
330
6F
100
AcDbEntity
  8
LOUVER
  6
Continuous
100
AcDbCircle
 10
246.0755539404585
 20
254.2027641479187
 30
0.0
 40
0.5
100
AcDbArc
 50
91.59466530844415
 51
201.5573108863914
  0
ARC
  5
595
330
6F
100
AcDbEntity
  8
LOUVER
  6
Continuous
100
AcDbCircle
 10
239.3791903064111
 20
254.2027641479192
 30
0.0
 40
0.5
100
AcDbArc
 50
338.4426891136087
 51
88.40533469154289
  0
ARC
  5
596
330
6F
100
AcDbEntity
  8
LOUVER
  6
Continuous
100
AcDbCircle
 10
246.1551994236351
 20
154.2800100059286
 30
0.0
 40
0.5
100
AcDbArc
 50
162.2084094269929
 51
270.0
  0
ARC
  5
597
330
6F
100
AcDbEntity
  8
LOUVER
  6
Continuous
100
AcDbCircle
 10
239.2995448232341
 20
154.2800100059291
 30
0.0
 40
0.5
100
AcDbArc
 50
270.0
 51
17.79159057300003
  0
ARC
  5
598
330
6F
100
AcDbEntity
  8
LOUVER
  6
Continuous
100
AcDbCircle
 10
242.7273721234346
 20
252.8800100059291
 30
0.0
 40
1.799999999999901
100
AcDbArc
 50
317.281355473106
 51
222.7186445082681
  0
ARC
  5
599
330
6F
100
AcDbEntity
  8
LOUVER
  6
Continuous
100
AcDbCircle
 10
242.7273721234346
 20
155.3800100059291
 30
0.0
 40
1.80000000000021
100
AcDbArc
 50
137.2813554917241
 51
42.71864452690232
  0
POINT
  5
59A
330
6F
100
AcDbEntity
  8
DXF0
  6
Continuous
 62
     3
100
AcDbPoint
 10
242.7273721234328
 20
106.3800100058962
 30
0.0
  0
DIMENSION
  5
5D8
330
6F
100
AcDbEntity
  8
DXF0
  6
Continuous
 62
     3
100
AcDbDimension
280
     0
  2
*D13
 10
221.7264840812696
 20
106.3800100058962
 30
0.0
 11
221.2264840812696
 21
109.5158603480335
 31
0.0
 71
     5
 42
-1.0
 73
     0
 74
     0
 75
     0
  3
Standard
100
AcDbAlignedDimension
 13
227.7273721236314
 23
107.3800100059293
 33
0.0
 14
132.4720475945935
 24
106.3800100058962
 34
0.0
 50
90.0
100
AcDbRotatedDimension
  0
DIMENSION
  5
5D9
330
6F
100
AcDbEntity
  8
DXF0
  6
Continuous
 62
     3
100
AcDbDimension
280
     0
  2
*D14
 10
199.2731519240804
 20
256.3800100059167
 30
0.0
 11
198.7731519240804
 21
181.3800100059065
 31
0.0
 71
     5
 42
-1.0
 73
     0
 74
     0
 75
     0
  3
Standard
100
AcDbAlignedDimension
 13
132.4720475945935
 23
106.3800100058962
 33
0.0
 14
227.7273721236312
 24
256.3800100059167
 34
0.0
 50
90.0
100
AcDbRotatedDimension
  0
DIMENSION
  5
5DA
330
6F
100
AcDbEntity
  8
DXF0
  6
Continuous
 62
     3
100
AcDbDimension
280
     0
  2
*D15
 10
227.7273721236315
 20
271.1055124797484
 30
0.0
 11
242.7273721235314
 21
271.6055124797484
 31
0.0
 71
     5
 42
-1.0
 73
     0
 74
     0
 75
     0
  3
Standard
100
AcDbAlignedDimension
 13
257.7273721234313
 23
256.3800100059165
 33
0.0
 14
227.7273721236315
 24
256.3800100059169
 34
0.0
100
AcDbRotatedDimension
  0
DIMENSION
  5
5E2
330
6F
100
AcDbEntity
  8
DXF0
  6
Continuous
 62
     3
100
AcDbDimension
280
     0
  2
*D23
 10
204.6453689488535
 20
377.3920818358516
 30
0.0
 11
204.1453689488535
 21
452.3920818358619
 31
0.0
 71
     5
 42
-1.0
 73
     0
 74
     0
 75
     0
  3
Standard
100
AcDbAlignedDimension
 13
227.7273721236313
 23
527.392081835872
 33
0.0
 14
132.957215493353
 24
377.3920818358516
 34
0.0
 50
90.0
100
AcDbRotatedDimension
  0
DIMENSION
  5
5E3
330
6F
100
AcDbEntity
  8
DXF0
  6
Continuous
 62
     3
100
AcDbDimension
280
     0
  2
*D24
 10
227.7273721236315
 20
540.8502386818732
 30
0.0
 11
242.7273721235314
 21
541.3502386818731
 31
0.0
 71
     5
 42
-1.0
 73
     0
 74
     0
 75
     0
  3
Standard
100
AcDbAlignedDimension
 13
257.7273721234313
 23
527.3920818358718
 33
0.0
 14
227.7273721236315
 24
527.3920818358723
 34
0.0
100
AcDbRotatedDimension
  0
LINE
  5
5E4
330
6F
100
AcDbEntity
  8
COMMENT
  6
Continuous
100
AcDbLine
 10
242.7273721234328
 20
384.7920818358525
 30
0.0
 11
278.5878708238574
 21
411.0226259761923
 31
0.0
  0
LINE
  5
5E5
330
6F
100
AcDbEntity
  8
COMMENT
  6
Continuous
100
AcDbLine
 10
243.9873942923439
 20
386.4571176199913
 30
0.0
 11
242.7273721234328
 21
384.7920818358525
 31
0.0
  0
LINE
  5
5E6
330
6F
100
AcDbEntity
  8
COMMENT
  6
Continuous
100
AcDbLine
 10
242.7273721234328
 20
384.7920818358525
 30
0.0
 11
244.6958507113208
 21
385.4885673544649
 31
0.0
  0
LINE
  5
5E7
330
6F
100
AcDbEntity
  8
COMMENT
  6
Continuous
100
AcDbLine
 10
278.5878708238574
 20
411.0226259761923
 30
0.0
 11
331.8778694648715
 21
411.0226259761923
 31
0.0
  0
TEXT
  5
5E8
330
6F
100
AcDbEntity
  8
COMMENT
  6
Continuous
100
AcDbText
 10
281.0778708238574
 20
411.5226259761923
 30
0.0
 40
4.0
  1
アンカープラグ%%c8×40
  7
KNJYOKO
100
AcDbText
  0
TEXT
  5
5E9
330
6F
100
AcDbEntity
  8
COMMENT
  6
Continuous
100
AcDbText
 10
281.0778708238574
 20
406.5226259761923
 30
0.0
 40
4.0
  1
AP-840-D18-50
100
AcDbText
  0
LINE
  5
5F8
330
6F
100
AcDbEntity
  8
COMMENT
  6
Continuous
100
AcDbLine
 10
242.7273721234328
 20
112.2800100057366
 30
0.0
 11
278.506064082376
 21
139.9483204499879
 31
0.0
  0
LINE
  5
5F9
330
6F
100
AcDbEntity
  8
COMMENT
  6
Continuous
100
AcDbLine
 10
243.9424456692432
 20
113.9781255220904
 30
0.0
 11
242.7273721234327
 21
112.2800100057365
 31
0.0
  0
LINE
  5
5FA
330
6F
100
AcDbEntity
  8
COMMENT
  6
Continuous
100
AcDbLine
 10
242.7273721234328
 20
112.2800100057365
 30
0.0
 11
244.6765338246747
 21
113.0288549102541
 31
0.0
  0
LINE
  5
5FB
330
6F
100
AcDbEntity
  8
COMMENT
  6
Continuous
100
AcDbLine
 10
278.5060640823759
 20
139.9483204499878
 30
0.0
 11
345.2960623657622
 21
139.9483204499878
 31
0.0
  0
TEXT
  5
5FC
330
6F
100
AcDbEntity
  8
COMMENT
  6
Continuous
100
AcDbText
 10
280.9960640823759
 20
140.4483204499878
 30
0.0
 40
4.0
  1
シンワッシャー頭ドリルねじ4×40
  7
KNJYOKO
100
AcDbText
  0
TEXT
  5
5FD
330
6F
100
AcDbEntity
  8
COMMENT
  6
Continuous
100
AcDbText
 10
280.9960640823759
 20
135.4483204499878
 30
0.0
 40
4.0
  1
TBS-440-D18-50
100
AcDbText
  0
LINE
  5
5FE
330
6F
100
AcDbEntity
  8
COMMENT
  6
Continuous
100
AcDbLine
 10
223.1611924527675
 20
106.3800100058959
 30
0.0
 11
209.7929092491387
 21
84.19887096545261
 31
0.0
  0
LINE
  5
5FF
330
6F
100
AcDbEntity
  8
COMMENT
  6
Continuous
100
AcDbLine
 10
222.642704261856
 20
104.3573459150258
 30
0.0
 11
223.1611924527676
 21
106.3800100058959
 31
0.0
  0
LINE
  5
600
330
6F
100
AcDbEntity
  8
COMMENT
  6
Continuous
100
AcDbLine
 10
223.1611924527676
 20
106.3800100058959
 30
0.0
 11
221.6149330567057
 21
104.9767702157316
 31
0.0
  0
LINE
  5
601
330
6F
100
AcDbEntity
  8
COMMENT
  6
Continuous
100
AcDbLine
 10
209.7929092491387
 20
84.19887096545265
 30
0.0
 11
194.3029096067665
 21
84.19887096545265
 31
0.0
  0
TEXT
  5
602
330
6F
100
AcDbEntity
  8
COMMENT
  6
Continuous
100
AcDbText
 10
194.3029096067665
 20
84.69887096545264
 30
0.0
 40
4.0
  1
受け材
  7
KNJYOKO
100
AcDbText
  0
LINE
  5
603
330
6F
100
AcDbEntity
  8
COMMENT
  6
Continuous
100
AcDbLine
 10
227.7273721234328
 20
59.96190073173469
 30
0.0
 11
202.2584974083888
 21
45.04591161562949
 31
0.0
  0
LINE
  5
604
330
6F
100
AcDbEntity
  8
COMMENT
  6
Continuous
100
AcDbLine
 10
226.3047804902857
 20
58.43342663188545
 30
0.0
 11
227.7273721234328
 21
59.96190073173472
 31
0.0
  0
LINE
  5
605
330
6F
100
AcDbEntity
  8
COMMENT
  6
Continuous
100
AcDbLine
 10
227.7273721234328
 20
59.96190073173472
 30
0.0
 11
225.6983419786372
 21
59.46891320641477
 31
0.0
  0
LINE
  5
606
330
6F
100
AcDbEntity
  8
COMMENT
  6
Continuous
100
AcDbLine
 10
202.2584974083888
 20
45.04591161562947
 30
0.0
 11
167.0574965343463
 21
45.04591161562947
 31
0.0
  0
TEXT
  5
607
330
6F
100
AcDbEntity
  8
COMMENT
  6
Continuous
100
AcDbText
 10
167.0574965343463
 20
45.54591161562947
 30
0.0
 40
3.099999904632568
  1
St t=1.6mm以上
  7
KNJYOKO
100
AcDbText
  0
LINE
  5
608
330
6F
100
AcDbEntity
  8
COMMENT
  6
Continuous
100
AcDbLine
 10
225.2273721233696
 20
387.8902800835751
 30
0.0
 11
192.080627797438
 21
403.9556462148636
 31
0.0
  0
LINE
  5
609
330
6F
100
AcDbEntity
  8
COMMENT
  6
Continuous
100
AcDbLine
 10
223.1659328237933
 20
388.2226474146602
 30
0.0
 11
225.2273721233695
 21
387.890280083575
 31
0.0
  0
LINE
  5
60A
330
6F
100
AcDbEntity
  8
COMMENT
  6
Continuous
100
AcDbLine
 10
225.2273721233696
 20
387.8902800835751
 30
0.0
 11
223.689308517596
 21
389.3024983291748
 31
0.0
  0
LINE
  5
60B
330
6F
100
AcDbEntity
  8
COMMENT
  6
Continuous
100
AcDbLine
 10
192.080627797438
 20
403.9556462148636
 30
0.0
 11
134.2906292756331
 21
403.9556462148636
 31
0.0
  0
TEXT
  5
60C
330
6F
100
AcDbEntity
  8
COMMENT
  6
Continuous
100
AcDbText
 10
134.2906292756331
 20
404.4556462148636
 30
0.0
 40
4.0
  1
脱落防止ねじ(両端2ヶ所)
  7
KNJYOKO
100
AcDbText
  0
TEXT
  5
60D
330
6F
100
AcDbEntity
  8
COMMENT
  6
Continuous
100
AcDbText
 10
134.2906292756331
 20
399.4556462148637
 30
0.0
 40
4.0
  1
トラス頭ドリルねじ4×13
  7
KNJYOKO
100
AcDbText
  0
TEXT
  5
60E
330
6F
100
AcDbEntity
  8
COMMENT
  6
Continuous
100
AcDbText
 10
134.2906292756331
 20
394.4556462148637
 30
0.0
 40
4.0
  1
TBT-413-100
100
AcDbText
  0
LINE
  5
60F
330
6F
100
AcDbEntity
  8
COMMENT
  6
Continuous
100
AcDbLine
 10
257.8879720846625
 20
416.5194026195525
 30
0.0
 11
270.3958044268369
 21
423.5753083397433
 31
0.0
  0
LINE
  5
610
330
6F
100
AcDbEntity
  8
COMMENT
  6
Continuous
100
AcDbLine
 10
259.3351175425518
 20
418.0246501248889
 30
0.0
 11
257.8879720846626
 21
416.5194026195527
 31
0.0
  0
LINE
  5
611
330
6F
100
AcDbEntity
  8
COMMENT
  6
Continuous
100
AcDbLine
 10
257.8879720846626
 20
416.5194026195525
 30
0.0
 11
259.9247160120478
 21
416.9794832677752
 31
0.0
  0
LINE
  5
612
330
6F
100
AcDbEntity
  8
COMMENT
  6
Continuous
100
AcDbLine
 10
270.3958044268371
 20
423.5753083397435
 30
0.0
 11
304.7858035685302
 21
423.5753083397435
 31
0.0
  0
TEXT
  5
613
330
6F
100
AcDbEntity
  8
COMMENT
  6
Continuous
100
AcDbText
 10
272.885804426837
 20
424.0753083397435
 30
0.0
 40
4.0
  1
アルミルーバー
  7
KNJYOKO
100
AcDbText
  0
TEXT
  5
614
330
6F
100
AcDbEntity
  8
COMMENT
  6
Continuous
100
AcDbText
 10
272.885804426837
 20
419.0753083397435
 30
0.0
 40
4.0
  1
CLKSW-3015
100
AcDbText
  0
LINE
  5
615
330
6F
100
AcDbEntity
  8
COMMENT
  6
Continuous
100
AcDbLine
 10
233.1611924527679
 20
377.3920818358516
 30
0.0
 11
216.9595183337613
 21
361.4960413859999
 31
0.0
  0
LINE
  5
616
330
6F
100
AcDbEntity
  8
COMMENT
  6
Continuous
100
AcDbLine
 10
232.1537827047387
 20
375.5631133757119
 30
0.0
 11
233.1611924527679
 21
377.3920818358516
 31
0.0
  0
LINE
  5
617
330
6F
100
AcDbEntity
  8
COMMENT
  6
Continuous
100
AcDbLine
 10
233.1611924527679
 20
377.3920818358516
 30
0.0
 11
231.3133722968282
 21
376.4196823809395
 31
0.0
  0
LINE
  5
618
330
6F
100
AcDbEntity
  8
COMMENT
  6
Continuous
100
AcDbLine
 10
216.9595183337613
 20
361.4960413859999
 30
0.0
 11
201.4695186913892
 21
361.4960413859999
 31
0.0
  0
TEXT
  5
619
330
6F
100
AcDbEntity
  8
COMMENT
  6
Continuous
100
AcDbText
 10
201.4695186913892
 20
361.9960413859999
 30
0.0
 40
4.0
  1
受け材
  7
KNJYOKO
100
AcDbText
  0
LINE
  5
61A
330
6F
100
AcDbEntity
  8
COMMENT
  6
Continuous
100
AcDbLine
 10
252.0473447868658
 20
380.8920818358519
 30
0.0
 11
278.3819580462562
 21
396.3013770865367
 31
0.0
  0
LINE
  5
61B
330
6F
100
AcDbEntity
  8
COMMENT
  6
Continuous
100
AcDbLine
 10
253.4705293237201
 20
382.4200038897112
 30
0.0
 11
252.0473447868659
 21
380.8920818358519
 31
0.0
  0
LINE
  5
61C
330
6F
100
AcDbEntity
  8
COMMENT
  6
Continuous
100
AcDbLine
 10
252.0473447868658
 20
380.8920818358519
 30
0.0
 11
254.0765660461207
 21
381.3842821097224
 31
0.0
  0
LINE
  5
61D
330
6F
100
AcDbEntity
  8
COMMENT
  6
Continuous
100
AcDbLine
 10
278.3819580462563
 20
396.3013770865367
 30
0.0
 11
316.371957092582
 21
396.3013770865367
 31
0.0
  0
TEXT
  5
61E
330
6F
100
AcDbEntity
  8
COMMENT
  6
Continuous
100
AcDbText
 10
280.8719580462563
 20
396.8013770865367
 30
0.0
 40
4.0
  1
平座金　
  7
KNJYOKO
100
AcDbText
  0
TEXT
  5
61F
330
6F
100
AcDbEntity
  8
COMMENT
  6
Continuous
100
AcDbText
 10
280.8719580462563
 20
391.8013770865367
 30
0.0
 40
4.0
  1
D18mm t2mm
100
AcDbText
  0
TEXT
  5
620
330
6F
100
AcDbEntity
  8
COMMENT
  6
Continuous
100
AcDbText
 10
297.2344136364303
 20
340.8271680171492
 30
0.0
 40
5.300000190734863
  1
※　　　　　部に凸凹デザイン有り。
  7
KNJYOKO
100
AcDbText
  0
LINE
  5
621
330
6F
100
AcDbEntity
  8
LOUVER
  6
DASHED
100
AcDbLine
 10
304.6310203057218
 20
343.25287411492
 30
0.0
 11
328.9149026439469
 21
343.25287411492
 31
0.0
  0
TEXT
  5
63D
330
6F
100
AcDbEntity
  8
COMMENT
  6
Continuous
100
AcDbText
 10
585.8309519072357
 20
411.8792190723842
 30
0.0
 40
6.0
  1
ALC取付不可
  7
KNJYOKO
100
AcDbText
  0
LINE
  5
63E
330
6F
100
AcDbEntity
  8
COMMENT
  6
Continuous
100
AcDbLine
 10
582.0640496050145
 20
406.2755756866692
 30
0.0
 11
631.7718922509144
 21
406.2755756866692
 31
0.0
  0
LINE
  5
63F
330
6F
100
AcDbEntity
  8
COMMENT
  6
Continuous
100
AcDbLine
 10
631.7718922509144
 20
406.2755756866692
 30
0.0
 11
631.7718922509144
 21
422.6351580300389
 31
0.0
  0
LINE
  5
640
330
6F
100
AcDbEntity
  8
COMMENT
  6
Continuous
100
AcDbLine
 10
631.7718922509144
 20
422.6351580300389
 30
0.0
 11
582.0640496050145
 21
422.6351580300389
 31
0.0
  0
LINE
  5
641
330
6F
100
AcDbEntity
  8
COMMENT
  6
Continuous
100
AcDbLine
 10
582.0640496050145
 20
422.6351580300389
 30
0.0
 11
582.0640496050145
 21
406.2755756866692
 31
0.0
  0
TEXT
  5
642
330
6F
100
AcDbEntity
  8
COMMENT
  6
Continuous
100
AcDbText
 10
585.8309519072357
 20
143.3018579288516
 30
0.0
 40
6.0
  1
ECP取付不可
  7
KNJYOKO
100
AcDbText
  0
LINE
  5
643
330
6F
100
AcDbEntity
  8
COMMENT
  6
Continuous
100
AcDbLine
 10
582.0640496050145
 20
137.6982145431366
 30
0.0
 11
631.7718922509144
 21
137.6982145431366
 31
0.0
  0
LINE
  5
644
330
6F
100
AcDbEntity
  8
COMMENT
  6
Continuous
100
AcDbLine
 10
631.7718922509144
 20
137.6982145431366
 30
0.0
 11
631.7718922509144
 21
154.0577968865062
 31
0.0
  0
LINE
  5
645
330
6F
100
AcDbEntity
  8
COMMENT
  6
Continuous
100
AcDbLine
 10
631.7718922509144
 20
154.0577968865062
 30
0.0
 11
582.0640496050145
 21
154.0577968865062
 31
0.0
  0
LINE
  5
646
330
6F
100
AcDbEntity
  8
COMMENT
  6
Continuous
100
AcDbLine
 10
582.0640496050145
 20
154.0577968865062
 30
0.0
 11
582.0640496050145
 21
137.6982145431366
 31
0.0
  0
ENDSEC
  0
SECTION
  2
OBJECTS
  0
DICTIONARY
  5
C
330
0
100
AcDbDictionary
281
     1
  3
ACAD_CIP_PREVIOUS_PRODUCT_INFO
350
625
  3
ACAD_COLOR
350
62
  3
ACAD_DETAILVIEWSTYLE
350
69
  3
ACAD_GROUP
350
D
  3
ACAD_LAYOUT
350
61
  3
ACAD_MATERIAL
350
10
  3
ACAD_MLEADERSTYLE
350
65
  3
ACAD_MLINESTYLE
350
5E
  3
ACAD_PLOTSETTINGS
350
60
  3
ACAD_PLOTSTYLENAME
350
E
  3
ACAD_SCALELIST
350
42
  3
ACAD_SECTIONVIEWSTYLE
350
67
  3
ACAD_TABLESTYLE
350
63
  3
ACAD_VISUALSTYLE
350
29
  3
ACDB_RECOMPOSE_DATA
350
673
  3
AcDbVariableDictionary
350
667
  0
DICTIONARY
  5
651
330
54
100
AcDbDictionary
280
     1
281
     1
  3
ADSK_XREC_LAYER_RECONCILED
360
652
  0
DICTIONARY
  5
653
330
76
100
AcDbDictionary
280
     1
281
     1
  3
ADSK_XREC_LAYER_RECONCILED
360
654
  0
DICTIONARY
  5
655
330
77
100
AcDbDictionary
280
     1
281
     1
  3
ADSK_XREC_LAYER_RECONCILED
360
656
  0
DICTIONARY
  5
657
330
78
100
AcDbDictionary
280
     1
281
     1
  3
ADSK_XREC_LAYER_RECONCILED
360
658
  0
DICTIONARY
  5
659
330
79
100
AcDbDictionary
280
     1
281
     1
  3
ADSK_XREC_LAYER_RECONCILED
360
65A
  0
DICTIONARY
  5
65B
330
7A
100
AcDbDictionary
280
     1
281
     1
  3
ADSK_XREC_LAYER_RECONCILED
360
65C
  0
DICTIONARY
  5
65D
330
7B
100
AcDbDictionary
280
     1
281
     1
  3
ADSK_XREC_LAYER_RECONCILED
360
65E
  0
DICTIONARY
  5
65F
330
7C
100
AcDbDictionary
280
     1
281
     1
  3
ADSK_XREC_LAYER_RECONCILED
360
660
  0
DICTIONARY
  5
661
330
7D
100
AcDbDictionary
280
     1
281
     1
  3
ADSK_XREC_LAYER_RECONCILED
360
662
  0
DICTIONARY
  5
663
330
7E
100
AcDbDictionary
280
     1
281
     1
  3
ADSK_XREC_LAYER_RECONCILED
360
664
  0
DICTIONARY
  5
665
330
7F
100
AcDbDictionary
280
     1
281
     1
  3
ADSK_XREC_LAYER_RECONCILED
360
666
  0
XRECORD
  5
625
102
{ACAD_REACTORS
330
C
102
}
330
C
100
AcDbXrecord
280
     1
300
ACD
300
2022
300

  0
DICTIONARY
  5
62
102
{ACAD_REACTORS
330
C
102
}
330
C
100
AcDbDictionary
281
     1
  0
DICTIONARY
  5
69
102
{ACAD_REACTORS
330
C
102
}
330
C
100
AcDbDictionary
281
     1
  3
Imperial24
350
6A
  3
Metric50
350
623
  0
DICTIONARY
  5
D
102
{ACAD_REACTORS
330
C
102
}
330
C
100
AcDbDictionary
281
     1
  0
DICTIONARY
  5
61
102
{ACAD_REACTORS
330
C
102
}
330
C
100
AcDbDictionary
281
     1
  3
Model
350
72
  3
レイアウト1
350
6E
  0
DICTIONARY
  5
10
102
{ACAD_REACTORS
330
C
102
}
330
C
100
AcDbDictionary
281
     1
  3
ByBlock
350
19
  3
ByLayer
350
11
  3
Global
350
21
  0
DICTIONARY
  5
65
102
{ACAD_REACTORS
330
C
102
}
330
C
100
AcDbDictionary
281
     1
  3
Standard
350
66
  0
DICTIONARY
  5
5E
102
{ACAD_REACTORS
330
C
102
}
330
C
100
AcDbDictionary
281
     1
  3
Standard
350
5F
  0
DICTIONARY
  5
60
102
{ACAD_REACTORS
330
C
102
}
330
C
100
AcDbDictionary
281
     1
  0
ACDBDICTIONARYWDFLT
  5
E
102
{ACAD_REACTORS
330
C
102
}
330
C
100
AcDbDictionary
281
     1
  3
Normal
350
F
100
AcDbDictionaryWithDefault
340
F
  0
DICTIONARY
  5
42
102
{ACAD_REACTORS
330
C
102
}
330
C
100
AcDbDictionary
281
     1
  3
A0
350
43
  3
A1
350
44
  3
A2
350
45
  3
A3
350
46
  3
A4
350
47
  3
A5
350
48
  3
A6
350
49
  3
A7
350
4A
  3
A8
350
4B
  3
A9
350
4C
  3
B0
350
4D
  3
B1
350
4E
  3
B2
350
4F
  3
B3
350
50
  3
B4
350
51
  3
B5
350
52
  3
B6
350
53
  0
DICTIONARY
  5
67
102
{ACAD_REACTORS
330
C
102
}
330
C
100
AcDbDictionary
281
     1
  3
Imperial24
350
68
  3
Metric50
350
622
  0
DICTIONARY
  5
63
102
{ACAD_REACTORS
330
C
102
}
330
C
100
AcDbDictionary
281
     1
  3
Standard
350
64
  0
DICTIONARY
  5
29
102
{ACAD_REACTORS
330
C
102
}
330
C
100
AcDbDictionary
281
     1
  3
2dWireframe
350
2F
  3
Basic
350
2E
  3
Brighten
350
35
  3
ColorChange
350
39
  3
Conceptual
350
32
  3
Dim
350
34
  3
EdgeColorOff
350
41
  3
Facepattern
350
38
  3
Flat
350
2A
  3
FlatWithEdges
350
2B
  3
Gouraud
350
2C
  3
GouraudWithEdges
350
2D
  3
Hidden
350
31
  3
JitterOff
350
3F
  3
Linepattern
350
37
  3
OverhangOff
350
40
  3
Realistic
350
33
  3
Shaded
350
3E
  3
Shaded with edges
350
3D
  3
Shades of Gray
350
3A
  3
Sketchy
350
3B
  3
Thicken
350
36
  3
Wireframe
350
30
  3
X-Ray
350
3C
  0
XRECORD
  5
673
102
{ACAD_REACTORS
330
C
102
}
330
C
100
AcDbXrecord
280
     1
 90
        1
330
64
  0
DICTIONARY
  5
667
102
{ACAD_REACTORS
330
C
102
}
330
C
100
AcDbDictionary
281
     1
  3
CANNOSCALE
350
66D
  3
CMLEADERSTYLE
350
669
  3
CTABLESTYLE
350
668
  3
CVIEWDETAILSTYLE
350
66A
  3
CVIEWSECTIONSTYLE
350
66B
  3
LAYEREVAL
350
66F
  3
LAYERNOTIFY
350
670
  3
LIGHTINGUNITS
350
66E
  3
MSLTSCALE
350
66C
  0
XRECORD
  5
652
102
{ACAD_REACTORS
330
651
102
}
330
651
100
AcDbXrecord
280
     1
290
     1
  0
XRECORD
  5
654
102
{ACAD_REACTORS
330
653
102
}
330
653
100
AcDbXrecord
280
     1
290
     1
  0
XRECORD
  5
656
102
{ACAD_REACTORS
330
655
102
}
330
655
100
AcDbXrecord
280
     1
290
     1
  0
XRECORD
  5
658
102
{ACAD_REACTORS
330
657
102
}
330
657
100
AcDbXrecord
280
     1
290
     1
  0
XRECORD
  5
65A
102
{ACAD_REACTORS
330
659
102
}
330
659
100
AcDbXrecord
280
     1
290
     1
  0
XRECORD
  5
65C
102
{ACAD_REACTORS
330
65B
102
}
330
65B
100
AcDbXrecord
280
     1
290
     1
  0
XRECORD
  5
65E
102
{ACAD_REACTORS
330
65D
102
}
330
65D
100
AcDbXrecord
280
     1
290
     1
  0
XRECORD
  5
660
102
{ACAD_REACTORS
330
65F
102
}
330
65F
100
AcDbXrecord
280
     1
290
     1
  0
XRECORD
  5
662
102
{ACAD_REACTORS
330
661
102
}
330
661
100
AcDbXrecord
280
     1
290
     1
  0
XRECORD
  5
664
102
{ACAD_REACTORS
330
663
102
}
330
663
100
AcDbXrecord
280
     1
290
     1
  0
XRECORD
  5
666
102
{ACAD_REACTORS
330
665
102
}
330
665
100
AcDbXrecord
280
     1
290
     1
  0
ACDBDETAILVIEWSTYLE
  5
6A
102
{ACAD_REACTORS
330
69
102
}
330
69
100
AcDbModelDocViewStyle
 70
     0
  3
Imperial24
290
     0
300
Imperial24
 90
        0
100
AcDbDetailViewStyle
 70
     0
 71
     0
 90
        3
 71
     1
340
55
 62
   256
 40
0.24
340
0
 62
   256
 40
0.24
300

 40
0.36
280
     3
 71
     2
340
5C
 90
       25
 62
   256
 71
     3
340
55
 62
   256
 40
0.24
 90
        1
 40
0.75
 90
        1
300
%<\AcVar ViewType \f "%tc1">% %<\AcVar ViewDetailId>%\PSCALE %<\AcVar ViewScale \f "%sn">%
 71
     4
340
5C
 90
       25
 62
   256
340
5C
 90
       25
 62
   256
280
     0
  0
ACDBDETAILVIEWSTYLE
  5
623
102
{ACAD_REACTORS
330
69
102
}
330
69
100
AcDbModelDocViewStyle
 70
     0
  3
Metric50
290
     0
300
Metric50
 90
        0
100
AcDbDetailViewStyle
 70
     0
 71
     0
 90
        3
 71
     1
340
55
 62
   256
 40
5.0
340
0
 62
   256
 40
5.0
300

 40
0.0
280
     1
 71
     2
340
5C
 90
       25
 62
   256
 71
     3
340
55
 62
   256
 40
5.0
 90
        0
 40
15.0
 90
        1
300
%<\AcVar ViewDetailId>% (%<\AcVar ViewScale \f "%sn">%)
 71
     4
340
5C
 90
       25
 62
   256
340
5C
 90
       25
 62
   256
280
     0
  0
LAYOUT
  5
72
102
{ACAD_REACTORS
330
61
102
}
330
61
100
AcDbPlotSettings
  1

  2
RICOH MP C2503 JPN RPCS V2
  4

  6

 40
0.0
 41
0.0
 42
0.0
 43
0.0
 44
0.0
 45
0.0
 46
0.0
 47
0.0
 48
0.0
 49
0.0
140
0.0
141
0.0
142
1.0
143
1.0
 70
  1712
 72
     0
 73
     0
 74
     0
  7

 75
     0
147
1.0
 76
     0
 77
     2
 78
   300
148
0.0
149
0.0
100
AcDbLayout
  1
Model
 70
     1
 71
     0
 10
0.0
 20
0.0
 11
12.0
 21
9.0
 12
0.0
 22
0.0
 32
0.0
 14
0.0
 24
0.0
 34
0.0
 15
0.0
 25
0.0
 35
0.0
146
0.0
 13
0.0
 23
0.0
 33
0.0
 16
1.0
 26
0.0
 36
0.0
 17
0.0
 27
1.0
 37
0.0
 76
     0
330
6F
331
85
  0
LAYOUT
  5
6E
102
{ACAD_REACTORS
330
61
102
}
330
61
100
AcDbPlotSettings
  1

  2
RICOH MP C2503 JPN RPCS V2
  4

  6

 40
0.0
 41
0.0
 42
0.0
 43
0.0
 44
0.0
 45
0.0
 46
0.0
 47
0.0
 48
0.0
 49
0.0
140
0.0
141
0.0
142
1.0
143
1.0
 70
   688
 72
     0
 73
     0
 74
     5
  7

 75
    16
147
1.0
 76
     0
 77
     2
 78
   300
148
0.0
149
0.0
100
AcDbLayout
  1
レイアウト1
 70
     1
 71
     1
 10
0.0
 20
0.0
 11
12.0
 21
9.0
 12
0.0
 22
0.0
 32
0.0
 14
1.000000000000000E+20
 24
1.000000000000000E+20
 34
1.000000000000000E+20
 15
-1.000000000000000E+20
 25
-1.000000000000000E+20
 35
-1.000000000000000E+20
146
0.0
 13
0.0
 23
0.0
 33
0.0
 16
1.0
 26
0.0
 36
0.0
 17
0.0
 27
1.0
 37
0.0
 76
     0
330
6B
  0
MATERIAL
  5
19
102
{ACAD_XDICTIONARY
360
1A
102
}
102
{ACAD_REACTORS
330
10
102
}
330
10
100
AcDbMaterial
  1
ByBlock
 72
     0
 43
0.0208333333333333
 43
0.0
 43
0.0
 43
0.0
 43
0.0
 43
0.0208333333333333
 43
0.0
 43
0.0
 43
0.0
 43
0.0
 43
1.0
 43
0.0
 43
0.0
 43
0.0
 43
0.0
 43
1.0
 77
     0
 47
0.0208333333333333
 47
0.0
 47
0.0
 47
0.0
 47
0.0
 47
0.0208333333333333
 47
0.0
 47
0.0
 47
0.0
 47
0.0
 47
1.0
 47
0.0
 47
0.0
 47
0.0
 47
0.0
 47
1.0
171
     0
 49
0.0208333333333333
 49
0.0
 49
0.0
 49
0.0
 49
0.0
 49
0.0208333333333333
 49
0.0
 49
0.0
 49
0.0
 49
0.0
 49
1.0
 49
0.0
 49
0.0
 49
0.0
 49
0.0
 49
1.0
175
     0
142
0.0208333333333333
142
0.0
142
0.0
142
0.0
142
0.0
142
0.0208333333333333
142
0.0
142
0.0
142
0.0
142
0.0
142
1.0
142
0.0
142
0.0
142
0.0
142
0.0
142
1.0
179
     0
144
0.0208333333333333
144
0.0
144
0.0
144
0.0
144
0.0
144
0.0208333333333333
144
0.0
144
0.0
144
0.0
144
0.0
144
1.0
144
0.0
144
0.0
144
0.0
144
0.0
144
1.0
147
0.0208333333333333
147
0.0
147
0.0
147
0.0
147
0.0
147
0.0208333333333333
147
0.0
147
0.0
147
0.0
147
0.0
147
1.0
147
0.0
147
0.0
147
0.0
147
0.0
147
1.0
  0
MATERIAL
  5
11
102
{ACAD_XDICTIONARY
360
12
102
}
102
{ACAD_REACTORS
330
10
102
}
330
10
100
AcDbMaterial
  1
ByLayer
 72
     0
 43
0.0208333333333333
 43
0.0
 43
0.0
 43
0.0
 43
0.0
 43
0.0208333333333333
 43
0.0
 43
0.0
 43
0.0
 43
0.0
 43
1.0
 43
0.0
 43
0.0
 43
0.0
 43
0.0
 43
1.0
 77
     0
 47
0.0208333333333333
 47
0.0
 47
0.0
 47
0.0
 47
0.0
 47
0.0208333333333333
 47
0.0
 47
0.0
 47
0.0
 47
0.0
 47
1.0
 47
0.0
 47
0.0
 47
0.0
 47
0.0
 47
1.0
171
     0
 49
0.0208333333333333
 49
0.0
 49
0.0
 49
0.0
 49
0.0
 49
0.0208333333333333
 49
0.0
 49
0.0
 49
0.0
 49
0.0
 49
1.0
 49
0.0
 49
0.0
 49
0.0
 49
0.0
 49
1.0
175
     0
142
0.0208333333333333
142
0.0
142
0.0
142
0.0
142
0.0
142
0.0208333333333333
142
0.0
142
0.0
142
0.0
142
0.0
142
1.0
142
0.0
142
0.0
142
0.0
142
0.0
142
1.0
179
     0
144
0.0208333333333333
144
0.0
144
0.0
144
0.0
144
0.0
144
0.0208333333333333
144
0.0
144
0.0
144
0.0
144
0.0
144
1.0
144
0.0
144
0.0
144
0.0
144
0.0
144
1.0
147
0.0208333333333333
147
0.0
147
0.0
147
0.0
147
0.0
147
0.0208333333333333
147
0.0
147
0.0
147
0.0
147
0.0
147
1.0
147
0.0
147
0.0
147
0.0
147
0.0
147
1.0
  0
MATERIAL
  5
21
102
{ACAD_XDICTIONARY
360
22
102
}
102
{ACAD_REACTORS
330
10
102
}
330
10
100
AcDbMaterial
  1
Global
 72
     0
 43
0.0208333333333333
 43
0.0
 43
0.0
 43
0.0
 43
0.0
 43
0.0208333333333333
 43
0.0
 43
0.0
 43
0.0
 43
0.0
 43
1.0
 43
0.0
 43
0.0
 43
0.0
 43
0.0
 43
1.0
 77
     0
 47
0.0208333333333333
 47
0.0
 47
0.0
 47
0.0
 47
0.0
 47
0.0208333333333333
 47
0.0
 47
0.0
 47
0.0
 47
0.0
 47
1.0
 47
0.0
 47
0.0
 47
0.0
 47
0.0
 47
1.0
171
     0
 49
0.0208333333333333
 49
0.0
 49
0.0
 49
0.0
 49
0.0
 49
0.0208333333333333
 49
0.0
 49
0.0
 49
0.0
 49
0.0
 49
1.0
 49
0.0
 49
0.0
 49
0.0
 49
0.0
 49
1.0
175
     0
142
0.0208333333333333
142
0.0
142
0.0
142
0.0
142
0.0
142
0.0208333333333333
142
0.0
142
0.0
142
0.0
142
0.0
142
1.0
142
0.0
142
0.0
142
0.0
142
0.0
142
1.0
179
     0
144
0.0208333333333333
144
0.0
144
0.0
144
0.0
144
0.0
144
0.0208333333333333
144
0.0
144
0.0
144
0.0
144
0.0
144
1.0
144
0.0
144
0.0
144
0.0
144
0.0
144
1.0
147
0.0208333333333333
147
0.0
147
0.0
147
0.0
147
0.0
147
0.0208333333333333
147
0.0
147
0.0
147
0.0
147
0.0
147
1.0
147
0.0
147
0.0
147
0.0
147
0.0
147
1.0
  0
MLEADERSTYLE
  5
66
102
{ACAD_REACTORS
330
65
102
}
330
65
100
AcDbMLeaderStyle
179
     2
170
     2
171
     1
172
     0
 90
        2
 40
0.0
 41
0.0
173
     1
 91
-1056964608
340
5A
 92
       -2
290
     1
 42
0.09
291
     1
 43
0.36
  3
Standard
 44
0.18
300

342
55
174
     1
178
     6
175
     1
176
     0
 93
-1056964608
 45
0.18
292
     0
297
     0
 46
0.18
 94
-1056964608
 47
1.0
 49
1.0
140
1.0
293
     1
141
0.0
294
     1
177
     0
142
1.0
295
     0
296
     0
143
0.125
271
     0
272
     9
273
     9
298
     0
  0
MLINESTYLE
  5
5F
102
{ACAD_REACTORS
330
5E
102
}
330
5E
100
AcDbMlineStyle
  2
STANDARD
 70
     0
  3

 62
   256
 51
90.0
 52
90.0
 71
     2
 49
0.5
 62
   256
  6
BYLAYER
 49
-0.5
 62
   256
  6
BYLAYER
  0
ACDBPLACEHOLDER
  5
F
102
{ACAD_REACTORS
330
E
102
}
330
E
  0
SCALE
  5
43
102
{ACAD_REACTORS
330
42
102
}
330
42
100
AcDbScale
 70
     0
300
1:1
140
1.0
141
1.0
290
     1
  0
SCALE
  5
44
102
{ACAD_REACTORS
330
42
102
}
330
42
100
AcDbScale
 70
     0
300
1/128" = 1'-0"
140
0.0078125
141
12.0
290
     0
  0
SCALE
  5
45
102
{ACAD_REACTORS
330
42
102
}
330
42
100
AcDbScale
 70
     0
300
1/64" = 1'-0"
140
0.015625
141
12.0
290
     0
  0
SCALE
  5
46
102
{ACAD_REACTORS
330
42
102
}
330
42
100
AcDbScale
 70
     0
300
1/32" = 1'-0"
140
0.03125
141
12.0
290
     0
  0
SCALE
  5
47
102
{ACAD_REACTORS
330
42
102
}
330
42
100
AcDbScale
 70
     0
300
1/16" = 1'-0"
140
0.0625
141
12.0
290
     0
  0
SCALE
  5
48
102
{ACAD_REACTORS
330
42
102
}
330
42
100
AcDbScale
 70
     0
300
3/32" = 1'-0"
140
0.09375
141
12.0
290
     0
  0
SCALE
  5
49
102
{ACAD_REACTORS
330
42
102
}
330
42
100
AcDbScale
 70
     0
300
1/8" = 1'-0"
140
0.125
141
12.0
290
     0
  0
SCALE
  5
4A
102
{ACAD_REACTORS
330
42
102
}
330
42
100
AcDbScale
 70
     0
300
3/16" = 1'-0"
140
0.1875
141
12.0
290
     0
  0
SCALE
  5
4B
102
{ACAD_REACTORS
330
42
102
}
330
42
100
AcDbScale
 70
     0
300
1/4" = 1'-0"
140
0.25
141
12.0
290
     0
  0
SCALE
  5
4C
102
{ACAD_REACTORS
330
42
102
}
330
42
100
AcDbScale
 70
     0
300
3/8" = 1'-0"
140
0.375
141
12.0
290
     0
  0
SCALE
  5
4D
102
{ACAD_REACTORS
330
42
102
}
330
42
100
AcDbScale
 70
     0
300
1/2" = 1'-0"
140
0.5
141
12.0
290
     0
  0
SCALE
  5
4E
102
{ACAD_REACTORS
330
42
102
}
330
42
100
AcDbScale
 70
     0
300
3/4" = 1'-0"
140
0.75
141
12.0
290
     0
  0
SCALE
  5
4F
102
{ACAD_REACTORS
330
42
102
}
330
42
100
AcDbScale
 70
     0
300
1" = 1'-0"
140
1.0
141
12.0
290
     0
  0
SCALE
  5
50
102
{ACAD_REACTORS
330
42
102
}
330
42
100
AcDbScale
 70
     0
300
1-1/2" = 1'-0"
140
1.5
141
12.0
290
     0
  0
SCALE
  5
51
102
{ACAD_REACTORS
330
42
102
}
330
42
100
AcDbScale
 70
     0
300
3" = 1'-0"
140
3.0
141
12.0
290
     0
  0
SCALE
  5
52
102
{ACAD_REACTORS
330
42
102
}
330
42
100
AcDbScale
 70
     0
300
6" = 1'-0"
140
6.0
141
12.0
290
     0
  0
SCALE
  5
53
102
{ACAD_REACTORS
330
42
102
}
330
42
100
AcDbScale
 70
     0
300
1'-0" = 1'-0"
140
12.0
141
12.0
290
     0
  0
ACDBSECTIONVIEWSTYLE
  5
68
102
{ACAD_REACTORS
330
67
102
}
330
67
100
AcDbModelDocViewStyle
 70
     0
  3
Imperial24
290
     0
300
Imperial24
 90
        0
100
AcDbSectionViewStyle
 70
     0
 71
     0
 90
       78
 71
     1
340
55
 62
   256
 40
0.24
340
0
340
0
 62
   256
 40
0.24
300
I, O, Q, S, X, Z
 40
0.48
 90
        3
 40
0.18
 90
        1
 71
     2
340
5C
 90
       25
 62
   256
340
5C
 90
       50
 62
   256
 40
0.24
 40
0.0
 40
0.24
 71
     3
340
55
 62
   256
 40
0.24
 90
        1
 40
0.75
 90
        1
300
%<\AcVar ViewType \f "%tc1">% %<\AcVar ViewSectionStartId>%-%<\AcVar ViewSectionEndId>%\PSCALE %<\AcVar ViewScale \f "%sn">%
 71
     4
 62
   256
 62
   257
300
ANSI31
 40
1.0
 90
        0
290
     0
290
     0
 90
        6
 40
0.0
 40
1.570796326794896
 40
0.2617993877991494
 40
1.308996938995747
 40
-0.2617993877991494
 40
1.832595714594046
  0
ACDBSECTIONVIEWSTYLE
  5
622
102
{ACAD_REACTORS
330
67
102
}
330
67
100
AcDbModelDocViewStyle
 70
     0
  3
Metric50
290
     0
300
Metric50
 90
        0
100
AcDbSectionViewStyle
 70
     0
 71
     0
 90
      102
 71
     1
340
55
 62
   256
 40
5.0
340
0
340
0
 62
   256
 40
5.0
300
I, O, Q, S, X, Z
 40
10.0
 90
        0
 40
2.5
 90
        0
 71
     2
340
5C
 90
       25
 62
   256
340
5C
 90
       50
 62
   256
 40
5.0
 40
2.5
 40
5.0
 71
     3
340
55
 62
   256
 40
5.0
 90
        0
 40
15.0
 90
        1
300
%<\AcVar ViewSectionStartId>%-%<\AcVar ViewSectionEndId>% (%<\AcVar ViewScale \f "%sn">%)
 71
     4
 62
   256
 62
   257
300
ANSI31
 40
1.0
 90
        0
290
     0
290
     0
 90
        6
 40
0.0
 40
1.570796326794896
 40
0.2617993877991494
 40
1.308996938995747
 40
-0.2617993877991494
 40
1.832595714594046
  0
TABLESTYLE
  5
64
102
{ACAD_XDICTIONARY
360
671
102
}
102
{ACAD_REACTORS
330
63
102
}
330
63
100
AcDbTableStyle
280
     0
  3
Standard
 70
     0
 71
     0
 40
0.06
 41
0.06
280
     0
281
     0
  7
STANDARD
140
0.18
170
     2
 62
     0
 63
     7
283
     0
 90
      512
 91
        0
  1

274
    -2
284
     1
 64
     0
275
    -2
285
     1
 65
     0
276
    -2
286
     1
 66
     0
277
    -2
287
     1
 67
     0
278
    -2
288
     1
 68
     0
279
    -2
289
     1
 69
     0
  7
STANDARD
140
0.25
170
     5
 62
     0
 63
     7
283
     0
 90
      512
 91
        0
  1

274
    -2
284
     1
 64
     0
275
    -2
285
     1
 65
     0
276
    -2
286
     1
 66
     0
277
    -2
287
     1
 67
     0
278
    -2
288
     1
 68
     0
279
    -2
289
     1
 69
     0
  7
STANDARD
140
0.18
170
     5
 62
     0
 63
     7
283
     0
 90
      512
 91
        0
  1

274
    -2
284
     1
 64
     0
275
    -2
285
     1
 65
     0
276
    -2
286
     1
 66
     0
277
    -2
287
     1
 67
     0
278
    -2
288
     1
 68
     0
279
    -2
289
     1
 69
     0
  0
VISUALSTYLE
  5
2F
102
{ACAD_REACTORS
330
29
102
}
330
29
100
AcDbVisualStyle
  2
2dWireframe
 70
     4
177
     3
291
     0
 70
    58
 90
        0
176
     1
 90
        2
176
     1
 90
        0
176
     1
 90
        0
176
     1
 40
0.6
176
     1
 40
30.0
176
     1
 62
     7
420
 16777215
176
     1
 90
        1
176
     1
 90
        4
176
     1
 62
     7
176
     1
 62
   257
176
     1
 90
        1
176
     1
 90
        1
176
     1
 40
1.0
176
     1
 90
        0
176
     1
 62
   257
176
     1
 40
1.0
176
     1
 90
        1
176
     1
 90
        6
176
     1
 90
        2
176
     1
 62
     7
176
     1
 90
        5
176
     1
 90
        0
176
     1
 90
        0
176
     1
290
     0
176
     1
 90
        1
176
     1
 40
0.0
176
     1
 90
        0
176
     1
290
     1
176
     1
290
     1
176
     1
290
     0
176
     1
290
     0
176
     1
290
     0
176
     1
290
     0
176
     1
290
     0
176
     1
290
     0
176
     1
290
     0
176
     1
 90
       50
176
     1
 40
0.0
176
     1
 40
1.0
176
     1
 90
        0
176
     1
 62
    18
420
        0
176
     1
 90
       50
176
     1
 90
        3
176
     1
 62
     5
420
      255
176
     1
290
     0
176
     1
 90
       50
176
     1
 90
       50
176
     1
 90
       50
176
     1
290
     0
176
     1
 90
       50
176
     1
 62
   256
176
     0
 40
1.0
176
     0
 90
        2
176
     1
  1
strokes_ogs.tif
176
     1
290
     0
176
     1
 40
1.0
176
     1
 40
1.0
176
     1
  0
VISUALSTYLE
  5
2E
102
{ACAD_REACTORS
330
29
102
}
330
29
100
AcDbVisualStyle
  2
Basic
 70
     7
177
     3
291
     1
 70
    58
 90
        1
176
     1
 90
        0
176
     1
 90
        1
176
     1
 90
        0
176
     1
 40
0.6
176
     1
 40
30.0
176
     1
 62
     7
420
 16777215
176
     1
 90
        0
176
     1
 90
        4
176
     1
 62
     7
176
     1
 62
   257
176
     1
 90
        1
176
     1
 90
        1
176
     1
 40
1.0
176
     1
 90
        8
176
     1
 62
     7
176
     1
 40
1.0
176
     1
 90
        1
176
     1
 90
        6
176
     1
 90
        2
176
     1
 62
     7
176
     1
 90
        5
176
     1
 90
        0
176
     1
 90
        0
176
     1
290
     0
176
     1
 90
        1
176
     1
 40
0.0
176
     1
 90
        0
176
     1
290
     0
176
     1
290
     1
176
     1
290
     1
176
     1
290
     0
176
     1
290
     0
176
     1
290
     0
176
     1
290
     0
176
     1
290
     0
176
     1
290
     0
176
     1
 90
       50
176
     1
 40
0.0
176
     1
 40
1.0
176
     1
 90
        0
176
     1
 62
    18
420
        0
176
     1
 90
       50
176
     1
 90
        3
176
     1
 62
     5
420
      255
176
     1
290
     0
176
     1
 90
       50
176
     1
 90
       50
176
     1
 90
       50
176
     1
290
     0
176
     1
 90
       50
176
     1
 62
   256
176
     0
 40
1.0
176
     0
 90
        2
176
     1
  1
strokes_ogs.tif
176
     1
290
     0
176
     1
 40
1.0
176
     1
 40
1.0
176
     1
  0
VISUALSTYLE
  5
35
102
{ACAD_REACTORS
330
29
102
}
330
29
100
AcDbVisualStyle
  2
Brighten
 70
    12
177
     3
291
     1
 70
    58
 90
        2
176
     1
 90
        2
176
     1
 90
        0
176
     1
 90
        0
176
     1
 40
0.6
176
     1
 40
30.0
176
     1
 62
     7
420
 16777215
176
     1
 90
        1
176
     1
 90
        4
176
     1
 62
     7
176
     1
 62
   257
176
     1
 90
        1
176
     1
 90
        1
176
     1
 40
1.0
176
     1
 90
        8
176
     1
 62
     7
176
     1
 40
1.0
176
     1
 90
        1
176
     1
 90
        6
176
     1
 90
        2
176
     1
 62
     7
176
     1
 90
        5
176
     1
 90
        0
176
     1
 90
        0
176
     1
290
     0
176
     1
 90
        1
176
     1
 40
50.0
176
     1
 90
        0
176
     1
290
     0
176
     1
290
     1
176
     1
290
     1
176
     1
290
     0
176
     1
290
     0
176
     1
290
     0
176
     1
290
     0
176
     1
290
     0
176
     1
290
     0
176
     1
 90
       50
176
     1
 40
0.0
176
     1
 40
1.0
176
     1
 90
        0
176
     1
 62
    18
420
        0
176
     1
 90
       50
176
     1
 90
        3
176
     1
 62
     5
420
      255
176
     1
290
     0
176
     1
 90
       50
176
     1
 90
       50
176
     1
 90
       50
176
     1
290
     0
176
     1
 90
       50
176
     1
 62
   256
176
     0
 40
1.0
176
     0
 90
        2
176
     1
  1
strokes_ogs.tif
176
     1
290
     0
176
     1
 40
1.0
176
     1
 40
1.0
176
     1
  0
VISUALSTYLE
  5
39
102
{ACAD_REACTORS
330
29
102
}
330
29
100
AcDbVisualStyle
  2
ColorChange
 70
    16
177
     3
291
     1
 70
    58
 90
        2
176
     1
 90
        2
176
     1
 90
        3
176
     1
 90
        0
176
     1
 40
0.6
176
     1
 40
30.0
176
     1
 62
     8
420
  8421504
176
     1
 90
        1
176
     1
 90
        4
176
     1
 62
     7
176
     1
 62
   257
176
     1
 90
        1
176
     1
 90
        1
176
     1
 40
1.0
176
     1
 90
        8
176
     1
 62
     8
420
  8421504
176
     1
 40
1.0
176
     1
 90
        1
176
     1
 90
        6
176
     1
 90
        2
176
     1
 62
     7
176
     1
 90
        5
176
     1
 90
        0
176
     1
 90
        0
176
     1
290
     0
176
     1
 90
        1
176
     1
 40
0.0
176
     1
 90
        0
176
     1
290
     0
176
     1
290
     1
176
     1
290
     1
176
     1
290
     0
176
     1
290
     0
176
     1
290
     0
176
     1
290
     0
176
     1
290
     0
176
     1
290
     0
176
     1
 90
       50
176
     1
 40
0.0
176
     1
 40
1.0
176
     1
 90
        0
176
     1
 62
    18
420
        0
176
     1
 90
       50
176
     1
 90
        3
176
     1
 62
     5
420
      255
176
     1
290
     0
176
     1
 90
       50
176
     1
 90
       50
176
     1
 90
       50
176
     1
290
     0
176
     1
 90
       50
176
     1
 62
   256
176
     0
 40
1.0
176
     0
 90
        2
176
     1
  1
strokes_ogs.tif
176
     1
290
     0
176
     1
 40
1.0
176
     1
 40
1.0
176
     1
  0
VISUALSTYLE
  5
32
102
{ACAD_REACTORS
330
29
102
}
330
29
100
AcDbVisualStyle
  2
Conceptual
 70
     9
177
     3
291
     0
 70
    58
 90
        3
176
     1
 90
        2
176
     1
 90
        0
176
     1
 90
        0
176
     1
 40
0.6
176
     1
 40
30.0
176
     1
 62
     7
420
 16777215
176
     1
 90
        2
176
     1
 90
        2
176
     1
 62
     7
176
     1
 62
   257
176
     1
 90
        1
176
     1
 90
        1
176
     1
 40
179.0
176
     1
 90
        8
176
     1
 62
     7
176
     1
 40
1.0
176
     1
 90
        1
176
     1
 90
        6
176
     1
 90
        2
176
     1
 62
     7
176
     1
 90
        3
176
     1
 90
        0
176
     1
 90
        0
176
     1
290
     0
176
     1
 90
        1
176
     1
 40
0.0
176
     1
 90
        0
176
     1
290
     0
176
     1
290
     1
176
     1
290
     1
176
     1
290
     0
176
     1
290
     0
176
     1
290
     0
176
     1
290
     0
176
     1
290
     0
176
     1
290
     0
176
     1
 90
       50
176
     1
 40
0.0
176
     1
 40
1.0
176
     1
 90
        0
176
     1
 62
    18
420
        0
176
     1
 90
       50
176
     1
 90
        3
176
     1
 62
     5
420
      255
176
     1
290
     0
176
     1
 90
       50
176
     1
 90
       50
176
     1
 90
       50
176
     1
290
     0
176
     1
 90
       50
176
     1
 62
   256
176
     0
 40
1.0
176
     0
 90
        2
176
     1
  1
strokes_ogs.tif
176
     1
290
     0
176
     1
 40
1.0
176
     1
 40
1.0
176
     1
  0
VISUALSTYLE
  5
34
102
{ACAD_REACTORS
330
29
102
}
330
29
100
AcDbVisualStyle
  2
Dim
 70
    11
177
     3
291
     1
 70
    58
 90
        2
176
     1
 90
        2
176
     1
 90
        0
176
     1
 90
        0
176
     1
 40
0.6
176
     1
 40
30.0
176
     1
 62
     7
420
 16777215
176
     1
 90
        1
176
     1
 90
        4
176
     1
 62
     7
176
     1
 62
   257
176
     1
 90
        1
176
     1
 90
        1
176
     1
 40
1.0
176
     1
 90
        8
176
     1
 62
     7
176
     1
 40
1.0
176
     1
 90
        1
176
     1
 90
        6
176
     1
 90
        2
176
     1
 62
     7
176
     1
 90
        5
176
     1
 90
        0
176
     1
 90
        0
176
     1
290
     0
176
     1
 90
        1
176
     1
 40
-50.0
176
     1
 90
        0
176
     1
290
     0
176
     1
290
     1
176
     1
290
     1
176
     1
290
     0
176
     1
290
     0
176
     1
290
     0
176
     1
290
     0
176
     1
290
     0
176
     1
290
     0
176
     1
 90
       50
176
     1
 40
0.0
176
     1
 40
1.0
176
     1
 90
        0
176
     1
 62
    18
420
        0
176
     1
 90
       50
176
     1
 90
        3
176
     1
 62
     5
420
      255
176
     1
290
     0
176
     1
 90
       50
176
     1
 90
       50
176
     1
 90
       50
176
     1
290
     0
176
     1
 90
       50
176
     1
 62
   256
176
     0
 40
1.0
176
     0
 90
        2
176
     1
  1
strokes_ogs.tif
176
     1
290
     0
176
     1
 40
1.0
176
     1
 40
1.0
176
     1
  0
VISUALSTYLE
  5
41
102
{ACAD_REACTORS
330
29
102
}
330
29
100
AcDbVisualStyle
  2
EdgeColorOff
 70
    22
177
     3
291
     1
 70
    58
 90
        2
176
     0
 90
        2
176
     0
 90
        0
176
     0
 90
        0
176
     0
 40
0.6
176
     0
 40
30.0
176
     0
 62
     7
420
 16777215
176
     0
 90
        1
176
     0
 90
        4
176
     0
 62
     7
176
     0
 62
   257
176
     0
 90
        1
176
     0
 90
        1
176
     0
 40
1.0
176
     0
 90
        8
176
     2
 62
     7
176
     0
 40
1.0
176
     0
 90
        1
176
     0
 90
        6
176
     0
 90
        2
176
     0
 62
     7
176
     0
 90
        5
176
     0
 90
        0
176
     0
 90
        0
176
     0
290
     0
176
     0
 90
        1
176
     0
 40
0.0
176
     0
 90
        0
176
     0
290
     0
176
     1
290
     1
176
     1
290
     1
176
     1
290
     0
176
     1
290
     0
176
     1
290
     0
176
     1
290
     0
176
     1
290
     0
176
     1
290
     0
176
     1
 90
       50
176
     0
 40
0.0
176
     0
 40
1.0
176
     0
 90
        0
176
     0
 62
    18
420
        0
176
     0
 90
       50
176
     0
 90
        3
176
     0
 62
     5
420
      255
176
     0
290
     0
176
     1
 90
       50
176
     0
 90
       50
176
     0
 90
       50
176
     0
290
     0
176
     1
 90
       50
176
     0
 62
   256
176
     0
 40
1.0
176
     0
 90
        2
176
     0
  1
strokes_ogs.tif
176
     0
290
     0
176
     1
 40
1.0
176
     0
 40
1.0
176
     0
  0
VISUALSTYLE
  5
38
102
{ACAD_REACTORS
330
29
102
}
330
29
100
AcDbVisualStyle
  2
Facepattern
 70
    15
177
     3
291
     1
 70
    58
 90
        2
176
     1
 90
        2
176
     1
 90
        0
176
     1
 90
        0
176
     1
 40
0.6
176
     1
 40
30.0
176
     1
 62
     7
420
 16777215
176
     1
 90
        1
176
     1
 90
        4
176
     1
 62
     7
176
     1
 62
   257
176
     1
 90
        1
176
     1
 90
        1
176
     1
 40
1.0
176
     1
 90
        8
176
     1
 62
     7
176
     1
 40
1.0
176
     1
 90
        1
176
     1
 90
        6
176
     1
 90
        2
176
     1
 62
     7
176
     1
 90
        5
176
     1
 90
        0
176
     1
 90
        0
176
     1
290
     0
176
     1
 90
        1
176
     1
 40
0.0
176
     1
 90
        0
176
     1
290
     0
176
     1
290
     1
176
     1
290
     1
176
     1
290
     0
176
     1
290
     0
176
     1
290
     0
176
     1
290
     0
176
     1
290
     0
176
     1
290
     0
176
     1
 90
       50
176
     1
 40
0.0
176
     1
 40
1.0
176
     1
 90
        0
176
     1
 62
    18
420
        0
176
     1
 90
       50
176
     1
 90
        3
176
     1
 62
     5
420
      255
176
     1
290
     0
176
     1
 90
       50
176
     1
 90
       50
176
     1
 90
       50
176
     1
290
     0
176
     1
 90
       50
176
     1
 62
   256
176
     0
 40
1.0
176
     0
 90
        2
176
     1
  1
strokes_ogs.tif
176
     1
290
     0
176
     1
 40
1.0
176
     1
 40
1.0
176
     1
  0
VISUALSTYLE
  5
2A
102
{ACAD_REACTORS
330
29
102
}
330
29
100
AcDbVisualStyle
  2
Flat
 70
     0
177
     3
291
     1
 70
    58
 90
        2
176
     1
 90
        1
176
     1
 90
        1
176
     1
 90
        2
176
     1
 40
0.6
176
     1
 40
30.0
176
     1
 62
     7
420
 16777215
176
     1
 90
        0
176
     1
 90
        0
176
     1
 62
     7
176
     1
 62
   257
176
     1
 90
        1
176
     1
 90
        1
176
     1
 40
1.0
176
     1
 90
        8
176
     1
 62
     7
176
     1
 40
1.0
176
     1
 90
        1
176
     1
 90
        6
176
     1
 90
        2
176
     1
 62
     7
176
     1
 90
        5
176
     1
 90
        0
176
     1
 90
        0
176
     1
290
     0
176
     1
 90
       13
176
     1
 40
0.0
176
     1
 90
        0
176
     1
290
     0
176
     1
290
     1
176
     1
290
     1
176
     1
290
     0
176
     1
290
     0
176
     1
290
     0
176
     1
290
     0
176
     1
290
     0
176
     1
290
     0
176
     1
 90
       50
176
     1
 40
0.0
176
     1
 40
1.0
176
     1
 90
        0
176
     1
 62
    18
420
        0
176
     1
 90
       50
176
     1
 90
        3
176
     1
 62
     5
420
      255
176
     1
290
     0
176
     1
 90
       50
176
     1
 90
       50
176
     1
 90
       50
176
     1
290
     0
176
     1
 90
       50
176
     1
 62
   256
176
     0
 40
1.0
176
     0
 90
        2
176
     1
  1
strokes_ogs.tif
176
     1
290
     0
176
     1
 40
1.0
176
     1
 40
1.0
176
     1
  0
VISUALSTYLE
  5
2B
102
{ACAD_REACTORS
330
29
102
}
330
29
100
AcDbVisualStyle
  2
FlatWithEdges
 70
     1
177
     3
291
     1
 70
    58
 90
        2
176
     1
 90
        1
176
     1
 90
        1
176
     1
 90
        2
176
     1
 40
0.6
176
     1
 40
30.0
176
     1
 62
     7
420
 16777215
176
     1
 90
        1
176
     1
 90
        0
176
     1
 62
     7
176
     1
 62
   257
176
     1
 90
        1
176
     1
 90
        1
176
     1
 40
1.0
176
     1
 90
        0
176
     1
 62
   257
176
     1
 40
1.0
176
     1
 90
        1
176
     1
 90
        6
176
     1
 90
        2
176
     1
 62
     7
176
     1
 90
        5
176
     1
 90
        0
176
     1
 90
        0
176
     1
290
     0
176
     1
 90
       13
176
     1
 40
0.0
176
     1
 90
        0
176
     1
290
     0
176
     1
290
     1
176
     1
290
     1
176
     1
290
     0
176
     1
290
     0
176
     1
290
     0
176
     1
290
     0
176
     1
290
     0
176
     1
290
     0
176
     1
 90
       50
176
     1
 40
0.0
176
     1
 40
1.0
176
     1
 90
        0
176
     1
 62
    18
420
        0
176
     1
 90
       50
176
     1
 90
        3
176
     1
 62
     5
420
      255
176
     1
290
     0
176
     1
 90
       50
176
     1
 90
       50
176
     1
 90
       50
176
     1
290
     0
176
     1
 90
       50
176
     1
 62
   256
176
     0
 40
1.0
176
     0
 90
        2
176
     1
  1
strokes_ogs.tif
176
     1
290
     0
176
     1
 40
1.0
176
     1
 40
1.0
176
     1
  0
VISUALSTYLE
  5
2C
102
{ACAD_REACTORS
330
29
102
}
330
29
100
AcDbVisualStyle
  2
Gouraud
 70
     2
177
     3
291
     1
 70
    58
 90
        2
176
     1
 90
        2
176
     1
 90
        1
176
     1
 90
        2
176
     1
 40
0.6
176
     1
 40
30.0
176
     1
 62
     7
420
 16777215
176
     1
 90
        0
176
     1
 90
        0
176
     1
 62
     7
176
     1
 62
   257
176
     1
 90
        1
176
     1
 90
        1
176
     1
 40
1.0
176
     1
 90
        0
176
     1
 62
     7
176
     1
 40
1.0
176
     1
 90
        1
176
     1
 90
        6
176
     1
 90
        2
176
     1
 62
     7
176
     1
 90
        5
176
     1
 90
        0
176
     1
 90
        0
176
     1
290
     0
176
     1
 90
       13
176
     1
 40
0.0
176
     1
 90
        0
176
     1
290
     0
176
     1
290
     1
176
     1
290
     1
176
     1
290
     0
176
     1
290
     0
176
     1
290
     0
176
     1
290
     0
176
     1
290
     0
176
     1
290
     0
176
     1
 90
       50
176
     1
 40
0.0
176
     1
 40
1.0
176
     1
 90
        0
176
     1
 62
    18
420
        0
176
     1
 90
       50
176
     1
 90
        3
176
     1
 62
     5
420
      255
176
     1
290
     0
176
     1
 90
       50
176
     1
 90
       50
176
     1
 90
       50
176
     1
290
     0
176
     1
 90
       50
176
     1
 62
   256
176
     0
 40
1.0
176
     0
 90
        2
176
     1
  1
strokes_ogs.tif
176
     1
290
     0
176
     1
 40
1.0
176
     1
 40
1.0
176
     1
  0
VISUALSTYLE
  5
2D
102
{ACAD_REACTORS
330
29
102
}
330
29
100
AcDbVisualStyle
  2
GouraudWithEdges
 70
     3
177
     3
291
     1
 70
    58
 90
        2
176
     1
 90
        2
176
     1
 90
        1
176
     1
 90
        2
176
     1
 40
0.6
176
     1
 40
30.0
176
     1
 62
     7
420
 16777215
176
     1
 90
        1
176
     1
 90
        0
176
     1
 62
     7
176
     1
 62
   257
176
     1
 90
        1
176
     1
 90
        1
176
     1
 40
1.0
176
     1
 90
        0
176
     1
 62
   257
176
     1
 40
1.0
176
     1
 90
        1
176
     1
 90
        6
176
     1
 90
        2
176
     1
 62
     7
176
     1
 90
        5
176
     1
 90
        0
176
     1
 90
        0
176
     1
290
     0
176
     1
 90
       13
176
     1
 40
0.0
176
     1
 90
        0
176
     1
290
     0
176
     1
290
     1
176
     1
290
     1
176
     1
290
     0
176
     1
290
     0
176
     1
290
     0
176
     1
290
     0
176
     1
290
     0
176
     1
290
     0
176
     1
 90
       50
176
     1
 40
0.0
176
     1
 40
1.0
176
     1
 90
        0
176
     1
 62
    18
420
        0
176
     1
 90
       50
176
     1
 90
        3
176
     1
 62
     5
420
      255
176
     1
290
     0
176
     1
 90
       50
176
     1
 90
       50
176
     1
 90
       50
176
     1
290
     0
176
     1
 90
       50
176
     1
 62
   256
176
     0
 40
1.0
176
     0
 90
        2
176
     1
  1
strokes_ogs.tif
176
     1
290
     0
176
     1
 40
1.0
176
     1
 40
1.0
176
     1
  0
VISUALSTYLE
  5
31
102
{ACAD_REACTORS
330
29
102
}
330
29
100
AcDbVisualStyle
  2
Hidden
 70
     6
177
     3
291
     0
 70
    58
 90
        1
176
     1
 90
        2
176
     1
 90
        2
176
     1
 90
        0
176
     1
 40
0.6
176
     1
 40
30.0
176
     1
 62
     7
420
 16777215
176
     1
 90
        2
176
     1
 90
        2
176
     1
 62
     7
176
     1
 62
   257
176
     1
 90
        2
176
     1
 90
        1
176
     1
 40
40.0
176
     1
 90
        0
176
     1
 62
   257
176
     1
 40
1.0
176
     1
 90
        1
176
     1
 90
        6
176
     1
 90
        2
176
     1
 62
     7
176
     1
 90
        3
176
     1
 90
        0
176
     1
 90
        0
176
     1
290
     0
176
     1
 90
        1
176
     1
 40
0.0
176
     1
 90
        0
176
     1
290
     0
176
     1
290
     1
176
     1
290
     1
176
     1
290
     0
176
     1
290
     0
176
     1
290
     0
176
     1
290
     0
176
     1
290
     0
176
     1
290
     0
176
     1
 90
       50
176
     1
 40
0.0
176
     1
 40
1.0
176
     1
 90
        0
176
     1
 62
    18
420
        0
176
     1
 90
       50
176
     1
 90
        3
176
     1
 62
     5
420
      255
176
     1
290
     0
176
     1
 90
       50
176
     1
 90
       50
176
     1
 90
       50
176
     1
290
     0
176
     1
 90
       50
176
     1
 62
   256
176
     0
 40
1.0
176
     0
 90
        2
176
     1
  1
strokes_ogs.tif
176
     1
290
     0
176
     1
 40
1.0
176
     1
 40
1.0
176
     1
  0
VISUALSTYLE
  5
3F
102
{ACAD_REACTORS
330
29
102
}
330
29
100
AcDbVisualStyle
  2
JitterOff
 70
    20
177
     3
291
     1
 70
    58
 90
        2
176
     0
 90
        2
176
     0
 90
        0
176
     0
 90
        0
176
     0
 40
0.6
176
     0
 40
30.0
176
     0
 62
     7
420
 16777215
176
     0
 90
        1
176
     0
 90
        4
176
     0
 62
     7
176
     0
 62
   257
176
     0
 90
        1
176
     0
 90
        1
176
     0
 40
1.0
176
     0
 90
       10
176
     2
 62
     7
176
     0
 40
1.0
176
     0
 90
        1
176
     0
 90
        6
176
     0
 90
        2
176
     0
 62
     7
176
     0
 90
        5
176
     0
 90
        0
176
     0
 90
        0
176
     0
290
     0
176
     0
 90
        1
176
     0
 40
0.0
176
     0
 90
        0
176
     0
290
     0
176
     1
290
     1
176
     1
290
     1
176
     1
290
     0
176
     1
290
     0
176
     1
290
     0
176
     1
290
     0
176
     1
290
     0
176
     1
290
     0
176
     1
 90
       50
176
     0
 40
0.0
176
     0
 40
1.0
176
     0
 90
        0
176
     0
 62
    18
420
        0
176
     0
 90
       50
176
     0
 90
        3
176
     0
 62
     5
420
      255
176
     0
290
     0
176
     1
 90
       50
176
     0
 90
       50
176
     0
 90
       50
176
     0
290
     0
176
     1
 90
       50
176
     0
 62
   256
176
     0
 40
1.0
176
     0
 90
        2
176
     0
  1
strokes_ogs.tif
176
     0
290
     0
176
     1
 40
1.0
176
     0
 40
1.0
176
     0
  0
VISUALSTYLE
  5
37
102
{ACAD_REACTORS
330
29
102
}
330
29
100
AcDbVisualStyle
  2
Linepattern
 70
    14
177
     3
291
     1
 70
    58
 90
        2
176
     1
 90
        2
176
     1
 90
        0
176
     1
 90
        0
176
     1
 40
0.6
176
     1
 40
30.0
176
     1
 62
     7
420
 16777215
176
     1
 90
        1
176
     1
 90
        4
176
     1
 62
     7
176
     1
 62
   257
176
     1
 90
        7
176
     1
 90
        7
176
     1
 40
1.0
176
     1
 90
        8
176
     1
 62
     7
176
     1
 40
1.0
176
     1
 90
        1
176
     1
 90
        6
176
     1
 90
        2
176
     1
 62
     7
176
     1
 90
        5
176
     1
 90
        0
176
     1
 90
        0
176
     1
290
     0
176
     1
 90
        1
176
     1
 40
0.0
176
     1
 90
        0
176
     1
290
     0
176
     1
290
     1
176
     1
290
     1
176
     1
290
     0
176
     1
290
     0
176
     1
290
     0
176
     1
290
     0
176
     1
290
     0
176
     1
290
     0
176
     1
 90
       50
176
     1
 40
0.0
176
     1
 40
1.0
176
     1
 90
        0
176
     1
 62
    18
420
        0
176
     1
 90
       50
176
     1
 90
        3
176
     1
 62
     5
420
      255
176
     1
290
     0
176
     1
 90
       50
176
     1
 90
       50
176
     1
 90
       50
176
     1
290
     0
176
     1
 90
       50
176
     1
 62
   256
176
     0
 40
1.0
176
     0
 90
        2
176
     1
  1
strokes_ogs.tif
176
     1
290
     0
176
     1
 40
1.0
176
     1
 40
1.0
176
     1
  0
VISUALSTYLE
  5
40
102
{ACAD_REACTORS
330
29
102
}
330
29
100
AcDbVisualStyle
  2
OverhangOff
 70
    21
177
     3
291
     1
 70
    58
 90
        2
176
     0
 90
        2
176
     0
 90
        0
176
     0
 90
        0
176
     0
 40
0.6
176
     0
 40
30.0
176
     0
 62
     7
420
 16777215
176
     0
 90
        1
176
     0
 90
        4
176
     0
 62
     7
176
     0
 62
   257
176
     0
 90
        1
176
     0
 90
        1
176
     0
 40
1.0
176
     0
 90
        9
176
     2
 62
     7
176
     0
 40
1.0
176
     0
 90
        1
176
     0
 90
        6
176
     0
 90
        2
176
     0
 62
     7
176
     0
 90
        5
176
     0
 90
        0
176
     0
 90
        0
176
     0
290
     0
176
     0
 90
        1
176
     0
 40
0.0
176
     0
 90
        0
176
     0
290
     0
176
     1
290
     1
176
     1
290
     1
176
     1
290
     0
176
     1
290
     0
176
     1
290
     0
176
     1
290
     0
176
     1
290
     0
176
     1
290
     0
176
     1
 90
       50
176
     0
 40
0.0
176
     0
 40
1.0
176
     0
 90
        0
176
     0
 62
    18
420
        0
176
     0
 90
       50
176
     0
 90
        3
176
     0
 62
     5
420
      255
176
     0
290
     0
176
     1
 90
       50
176
     0
 90
       50
176
     0
 90
       50
176
     0
290
     0
176
     1
 90
       50
176
     0
 62
   256
176
     0
 40
1.0
176
     0
 90
        2
176
     0
  1
strokes_ogs.tif
176
     0
290
     0
176
     1
 40
1.0
176
     0
 40
1.0
176
     0
  0
VISUALSTYLE
  5
33
102
{ACAD_REACTORS
330
29
102
}
330
29
100
AcDbVisualStyle
  2
Realistic
 70
     8
177
     3
291
     0
 70
    58
 90
        2
176
     1
 90
        3
176
     1
 90
        0
176
     1
 90
        2
176
     1
 40
0.6
176
     1
 40
30.0
176
     1
 62
     7
420
 16777215
176
     1
 90
        0
176
     1
 90
        0
176
     1
 62
     7
176
     1
 62
   257
176
     1
 90
        1
176
     1
 90
        1
176
     1
 40
1.0
176
     1
 90
        8
176
     1
 62
   257
176
     1
 40
1.0
176
     1
 90
        1
176
     1
 90
        6
176
     1
 90
        2
176
     1
 62
     7
176
     1
 90
        3
176
     1
 90
        0
176
     1
 90
        0
176
     1
290
     0
176
     1
 90
       13
176
     1
 40
0.0
176
     1
 90
        0
176
     1
290
     0
176
     1
290
     1
176
     1
290
     1
176
     1
290
     0
176
     1
290
     0
176
     1
290
     0
176
     1
290
     0
176
     1
290
     0
176
     1
290
     0
176
     1
 90
       50
176
     1
 40
0.0
176
     1
 40
1.0
176
     1
 90
        0
176
     1
 62
    18
420
        0
176
     1
 90
       50
176
     1
 90
        3
176
     1
 62
     5
420
      255
176
     1
290
     0
176
     1
 90
       50
176
     1
 90
       50
176
     1
 90
       50
176
     1
290
     0
176
     1
 90
       50
176
     1
 62
   256
176
     0
 40
1.0
176
     0
 90
        2
176
     1
  1
strokes_ogs.tif
176
     1
290
     0
176
     1
 40
1.0
176
     1
 40
1.0
176
     1
  0
VISUALSTYLE
  5
3E
102
{ACAD_REACTORS
330
29
102
}
330
29
100
AcDbVisualStyle
  2
Shaded
 70
    27
177
     3
291
     0
 70
    58
 90
        2
176
     1
 90
        2
176
     1
 90
        1
176
     1
 90
        2
176
     1
 40
0.6
176
     1
 40
30.0
176
     1
 62
     7
420
 16777215
176
     1
 90
        0
176
     1
 90
        4
176
     1
 62
     7
176
     1
 62
   257
176
     1
 90
        1
176
     1
 90
        1
176
     1
 40
1.0
176
     1
 90
        8
176
     1
 62
   257
176
     1
 40
1.0
176
     1
 90
        1
176
     1
 90
        6
176
     1
 90
        2
176
     1
 62
     8
420
  7895160
176
     1
 90
        3
176
     1
 90
        0
176
     1
 90
        0
176
     1
290
     0
176
     1
 90
        5
176
     1
 40
0.0
176
     1
 90
        0
176
     1
290
     0
176
     1
290
     1
176
     1
290
     1
176
     1
290
     0
176
     1
290
     0
176
     1
290
     0
176
     1
290
     0
176
     1
290
     0
176
     1
290
     0
176
     1
 90
       50
176
     1
 40
0.0
176
     1
 40
1.0
176
     1
 90
        0
176
     1
 62
    18
420
        0
176
     1
 90
       50
176
     1
 90
        3
176
     1
 62
     5
420
      255
176
     1
290
     0
176
     1
 90
       50
176
     1
 90
       50
176
     1
 90
       50
176
     1
290
     0
176
     1
 90
       50
176
     1
 62
   256
176
     0
 40
1.0
176
     0
 90
        2
176
     1
  1
strokes_ogs.tif
176
     1
290
     0
176
     1
 40
1.0
176
     1
 40
1.0
176
     1
  0
VISUALSTYLE
  5
3D
102
{ACAD_REACTORS
330
29
102
}
330
29
100
AcDbVisualStyle
  2
Shaded with edges
 70
    26
177
     3
291
     0
 70
    58
 90
        2
176
     1
 90
        2
176
     1
 90
        1
176
     1
 90
        2
176
     1
 40
0.6
176
     1
 40
30.0
176
     1
 62
     7
420
 16777215
176
     1
 90
        1
176
     1
 90
        2
176
     1
 62
     7
176
     1
 62
   257
176
     1
 90
        2
176
     1
 90
        1
176
     1
 40
1.0
176
     1
 90
        8
176
     1
 62
   257
176
     1
 40
1.0
176
     1
 90
        1
176
     1
 90
        6
176
     1
 90
        2
176
     1
 62
     7
176
     1
 90
        3
176
     1
 90
        0
176
     1
 90
        0
176
     1
290
     0
176
     1
 90
        5
176
     1
 40
0.0
176
     1
 90
        0
176
     1
290
     0
176
     1
290
     1
176
     1
290
     1
176
     1
290
     0
176
     1
290
     0
176
     1
290
     0
176
     1
290
     0
176
     1
290
     0
176
     1
290
     0
176
     1
 90
       50
176
     1
 40
0.0
176
     1
 40
1.0
176
     1
 90
        0
176
     1
 62
    18
420
        0
176
     1
 90
       50
176
     1
 90
        3
176
     1
 62
     5
420
      255
176
     1
290
     0
176
     1
 90
       50
176
     1
 90
       50
176
     1
 90
       50
176
     1
290
     0
176
     1
 90
       50
176
     1
 62
   256
176
     0
 40
1.0
176
     0
 90
        2
176
     1
  1
strokes_ogs.tif
176
     1
290
     0
176
     1
 40
1.0
176
     1
 40
1.0
176
     1
  0
VISUALSTYLE
  5
3A
102
{ACAD_REACTORS
330
29
102
}
330
29
100
AcDbVisualStyle
  2
Shades of Gray
 70
    23
177
     3
291
     0
 70
    58
 90
        2
176
     1
 90
        2
176
     1
 90
        3
176
     1
 90
        0
176
     1
 40
0.6
176
     1
 40
30.0
176
     1
 62
     7
420
 16777215
176
     1
 90
        2
176
     1
 90
        2
176
     1
 62
     7
176
     1
 62
     7
176
     1
 90
        1
176
     1
 90
        1
176
     1
 40
40.0
176
     1
 90
        8
176
     1
 62
     7
176
     1
 40
1.0
176
     1
 90
        1
176
     1
 90
        6
176
     1
 90
        2
176
     1
 62
     7
176
     1
 90
        3
176
     1
 90
        0
176
     1
 90
        0
176
     1
290
     0
176
     1
 90
        1
176
     1
 40
0.0
176
     1
 90
        0
176
     1
290
     0
176
     1
290
     1
176
     1
290
     1
176
     1
290
     0
176
     1
290
     0
176
     1
290
     0
176
     1
290
     0
176
     1
290
     0
176
     1
290
     0
176
     1
 90
       50
176
     1
 40
0.0
176
     1
 40
1.0
176
     1
 90
        0
176
     1
 62
    18
420
        0
176
     1
 90
       50
176
     1
 90
        3
176
     1
 62
     5
420
      255
176
     1
290
     0
176
     1
 90
       50
176
     1
 90
       50
176
     1
 90
       50
176
     1
290
     0
176
     1
 90
       50
176
     1
 62
   256
176
     0
 40
1.0
176
     0
 90
        2
176
     1
  1
strokes_ogs.tif
176
     1
290
     0
176
     1
 40
1.0
176
     1
 40
1.0
176
     1
  0
VISUALSTYLE
  5
3B
102
{ACAD_REACTORS
330
29
102
}
330
29
100
AcDbVisualStyle
  2
Sketchy
 70
    24
177
     3
291
     0
 70
    58
 90
        1
176
     1
 90
        2
176
     1
 90
        2
176
     1
 90
        0
176
     1
 40
0.6
176
     1
 40
30.0
176
     1
 62
     7
420
 16777215
176
     1
 90
        2
176
     1
 90
        2
176
     1
 62
     7
176
     1
 62
     7
176
     1
 90
        1
176
     1
 90
        1
176
     1
 40
40.0
176
     1
 90
       11
176
     1
 62
     7
176
     1
 40
1.0
176
     1
 90
        1
176
     1
 90
        6
176
     1
 90
        2
176
     1
 62
     7
176
     1
 90
        6
176
     1
 90
        0
176
     1
 90
        0
176
     1
290
     0
176
     1
 90
        1
176
     1
 40
0.0
176
     1
 90
        0
176
     1
290
     0
176
     1
290
     1
176
     1
290
     1
176
     1
290
     0
176
     1
290
     0
176
     1
290
     0
176
     1
290
     0
176
     1
290
     0
176
     1
290
     0
176
     1
 90
       50
176
     1
 40
0.0
176
     1
 40
1.0
176
     1
 90
        0
176
     1
 62
    18
420
        0
176
     1
 90
       50
176
     1
 90
        3
176
     1
 62
     5
420
      255
176
     1
290
     0
176
     1
 90
       50
176
     1
 90
       50
176
     1
 90
       50
176
     1
290
     0
176
     1
 90
       50
176
     1
 62
   256
176
     0
 40
1.0
176
     0
 90
        2
176
     1
  1
strokes_ogs.tif
176
     1
290
     0
176
     1
 40
1.0
176
     1
 40
1.0
176
     1
  0
VISUALSTYLE
  5
36
102
{ACAD_REACTORS
330
29
102
}
330
29
100
AcDbVisualStyle
  2
Thicken
 70
    13
177
     3
291
     1
 70
    58
 90
        2
176
     1
 90
        2
176
     1
 90
        0
176
     1
 90
        0
176
     1
 40
0.6
176
     1
 40
30.0
176
     1
 62
     7
420
 16777215
176
     1
 90
        1
176
     1
 90
        4
176
     1
 62
     7
176
     1
 62
   257
176
     1
 90
        1
176
     1
 90
        1
176
     1
 40
1.0
176
     1
 90
       12
176
     1
 62
     7
176
     1
 40
1.0
176
     1
 90
        1
176
     1
 90
        6
176
     1
 90
        2
176
     1
 62
     7
176
     1
 90
        5
176
     1
 90
        0
176
     1
 90
        0
176
     1
290
     0
176
     1
 90
        1
176
     1
 40
0.0
176
     1
 90
        0
176
     1
290
     0
176
     1
290
     1
176
     1
290
     1
176
     1
290
     0
176
     1
290
     0
176
     1
290
     0
176
     1
290
     0
176
     1
290
     0
176
     1
290
     0
176
     1
 90
       50
176
     1
 40
0.0
176
     1
 40
1.0
176
     1
 90
        0
176
     1
 62
    18
420
        0
176
     1
 90
       50
176
     1
 90
        3
176
     1
 62
     5
420
      255
176
     1
290
     0
176
     1
 90
       50
176
     1
 90
       50
176
     1
 90
       50
176
     1
290
     0
176
     1
 90
       50
176
     1
 62
   256
176
     0
 40
1.0
176
     0
 90
        2
176
     1
  1
strokes_ogs.tif
176
     1
290
     0
176
     1
 40
1.0
176
     1
 40
1.0
176
     1
  0
VISUALSTYLE
  5
30
102
{ACAD_REACTORS
330
29
102
}
330
29
100
AcDbVisualStyle
  2
Wireframe
 70
     5
177
     3
291
     0
 70
    58
 90
        0
176
     1
 90
        2
176
     1
 90
        0
176
     1
 90
        0
176
     1
 40
0.6
176
     1
 40
30.0
176
     1
 62
     7
420
 16777215
176
     1
 90
        1
176
     1
 90
        4
176
     1
 62
     7
176
     1
 62
   257
176
     1
 90
        1
176
     1
 90
        1
176
     1
 40
1.0
176
     1
 90
        0
176
     1
 62
   257
176
     1
 40
1.0
176
     1
 90
        1
176
     1
 90
        6
176
     1
 90
        2
176
     1
 62
     7
176
     1
 90
        3
176
     1
 90
        0
176
     1
 90
        0
176
     1
290
     0
176
     1
 90
        1
176
     1
 40
0.0
176
     1
 90
        0
176
     1
290
     0
176
     1
290
     1
176
     1
290
     1
176
     1
290
     0
176
     1
290
     0
176
     1
290
     0
176
     1
290
     0
176
     1
290
     0
176
     1
290
     0
176
     1
 90
       50
176
     1
 40
0.0
176
     1
 40
1.0
176
     1
 90
        0
176
     1
 62
    18
420
        0
176
     1
 90
       50
176
     1
 90
        3
176
     1
 62
     5
420
      255
176
     1
290
     0
176
     1
 90
       50
176
     1
 90
       50
176
     1
 90
       50
176
     1
290
     0
176
     1
 90
       50
176
     1
 62
   256
176
     0
 40
1.0
176
     0
 90
        2
176
     1
  1
strokes_ogs.tif
176
     1
290
     0
176
     1
 40
1.0
176
     1
 40
1.0
176
     1
  0
VISUALSTYLE
  5
3C
102
{ACAD_REACTORS
330
29
102
}
330
29
100
AcDbVisualStyle
  2
X-Ray
 70
    25
177
     3
291
     0
 70
    58
 90
        2
176
     1
 90
        2
176
     1
 90
        1
176
     1
 90
        1
176
     1
 40
0.5
176
     1
 40
30.0
176
     1
 62
     7
420
 16777215
176
     1
 90
        1
176
     1
 90
        0
176
     1
 62
     7
176
     1
 62
   257
176
     1
 90
        1
176
     1
 90
        1
176
     1
 40
1.0
176
     1
 90
        8
176
     1
 62
     7
176
     1
 40
1.0
176
     1
 90
        1
176
     1
 90
        6
176
     1
 90
        2
176
     1
 62
     7
176
     1
 90
        3
176
     1
 90
        0
176
     1
 90
        0
176
     1
290
     0
176
     1
 90
       13
176
     1
 40
0.0
176
     1
 90
        0
176
     1
290
     0
176
     1
290
     1
176
     1
290
     1
176
     1
290
     0
176
     1
290
     0
176
     1
290
     0
176
     1
290
     0
176
     1
290
     0
176
     1
290
     0
176
     1
 90
       50
176
     1
 40
0.0
176
     1
 40
1.0
176
     1
 90
        0
176
     1
 62
    18
420
        0
176
     1
 90
       50
176
     1
 90
        3
176
     1
 62
     5
420
      255
176
     1
290
     0
176
     1
 90
       50
176
     1
 90
       50
176
     1
 90
       50
176
     1
290
     0
176
     1
 90
       50
176
     1
 62
   256
176
     0
 40
1.0
176
     0
 90
        2
176
     1
  1
strokes_ogs.tif
176
     1
290
     0
176
     1
 40
1.0
176
     1
 40
1.0
176
     1
  0
DICTIONARYVAR
  5
66D
102
{ACAD_REACTORS
330
667
102
}
330
667
100
DictionaryVariables
280
     0
  1
1:1
  0
DICTIONARYVAR
  5
669
102
{ACAD_REACTORS
330
667
102
}
330
667
100
DictionaryVariables
280
     0
  1
STANDARD
  0
DICTIONARYVAR
  5
668
102
{ACAD_REACTORS
330
667
102
}
330
667
100
DictionaryVariables
280
     0
  1
STANDARD
  0
DICTIONARYVAR
  5
66A
102
{ACAD_REACTORS
330
667
102
}
330
667
100
DictionaryVariables
280
     0
  1
Imperial24
  0
DICTIONARYVAR
  5
66B
102
{ACAD_REACTORS
330
667
102
}
330
667
100
DictionaryVariables
280
     0
  1
Imperial24
  0
DICTIONARYVAR
  5
66F
102
{ACAD_REACTORS
330
667
102
}
330
667
100
DictionaryVariables
280
     0
  1
1
  0
DICTIONARYVAR
  5
670
102
{ACAD_REACTORS
330
667
102
}
330
667
100
DictionaryVariables
280
     0
  1
15
  0
DICTIONARYVAR
  5
66E
102
{ACAD_REACTORS
330
667
102
}
330
667
100
DictionaryVariables
280
     0
  1
0
  0
DICTIONARYVAR
  5
66C
102
{ACAD_REACTORS
330
667
102
}
330
667
100
DictionaryVariables
280
     0
  1
0
  0
DICTIONARY
  5
1A
330
19
100
AcDbDictionary
280
     1
281
     1
  3
BUMPTILE
360
1C
  3
DIFFUSETILE
360
1B
  3
OPACITYTILE
360
1F
  3
REFLECTIONTILE
360
1E
  3
REFRACTIONTILE
360
20
  3
SPECULARTILE
360
1D
  0
DICTIONARY
  5
12
330
11
100
AcDbDictionary
280
     1
281
     1
  3
BUMPTILE
360
14
  3
DIFFUSETILE
360
13
  3
OPACITYTILE
360
17
  3
REFLECTIONTILE
360
16
  3
REFRACTIONTILE
360
18
  3
SPECULARTILE
360
15
  0
DICTIONARY
  5
22
330
21
100
AcDbDictionary
280
     1
281
     1
  3
BUMPTILE
360
24
  3
DIFFUSETILE
360
23
  3
OPACITYTILE
360
27
  3
REFLECTIONTILE
360
26
  3
REFRACTIONTILE
360
28
  3
SPECULARTILE
360
25
  0
DICTIONARY
  5
671
330
64
100
AcDbDictionary
280
     1
281
     1
  3
ACAD_ROUNDTRIP_2008_TABLESTYLE_CELLSTYLEMAP
360
672
  0
XRECORD
  5
1C
102
{ACAD_REACTORS
330
1A
102
}
330
1A
100
AcDbXrecord
280
     1
270
     1
271
     1
  0
XRECORD
  5
1B
102
{ACAD_REACTORS
330
1A
102
}
330
1A
100
AcDbXrecord
280
     1
270
     1
271
     1
  0
XRECORD
  5
1F
102
{ACAD_REACTORS
330
1A
102
}
330
1A
100
AcDbXrecord
280
     1
270
     1
271
     1
  0
XRECORD
  5
1E
102
{ACAD_REACTORS
330
1A
102
}
330
1A
100
AcDbXrecord
280
     1
270
     1
271
     1
  0
XRECORD
  5
20
102
{ACAD_REACTORS
330
1A
102
}
330
1A
100
AcDbXrecord
280
     1
270
     1
271
     1
  0
XRECORD
  5
1D
102
{ACAD_REACTORS
330
1A
102
}
330
1A
100
AcDbXrecord
280
     1
270
     1
271
     1
  0
XRECORD
  5
14
102
{ACAD_REACTORS
330
12
102
}
330
12
100
AcDbXrecord
280
     1
270
     1
271
     1
  0
XRECORD
  5
13
102
{ACAD_REACTORS
330
12
102
}
330
12
100
AcDbXrecord
280
     1
270
     1
271
     1
  0
XRECORD
  5
17
102
{ACAD_REACTORS
330
12
102
}
330
12
100
AcDbXrecord
280
     1
270
     1
271
     1
  0
XRECORD
  5
16
102
{ACAD_REACTORS
330
12
102
}
330
12
100
AcDbXrecord
280
     1
270
     1
271
     1
  0
XRECORD
  5
18
102
{ACAD_REACTORS
330
12
102
}
330
12
100
AcDbXrecord
280
     1
270
     1
271
     1
  0
XRECORD
  5
15
102
{ACAD_REACTORS
330
12
102
}
330
12
100
AcDbXrecord
280
     1
270
     1
271
     1
  0
XRECORD
  5
24
102
{ACAD_REACTORS
330
22
102
}
330
22
100
AcDbXrecord
280
     1
270
     1
271
     1
  0
XRECORD
  5
23
102
{ACAD_REACTORS
330
22
102
}
330
22
100
AcDbXrecord
280
     1
270
     1
271
     1
  0
XRECORD
  5
27
102
{ACAD_REACTORS
330
22
102
}
330
22
100
AcDbXrecord
280
     1
270
     1
271
     1
  0
XRECORD
  5
26
102
{ACAD_REACTORS
330
22
102
}
330
22
100
AcDbXrecord
280
     1
270
     1
271
     1
  0
XRECORD
  5
28
102
{ACAD_REACTORS
330
22
102
}
330
22
100
AcDbXrecord
280
     1
270
     1
271
     1
  0
XRECORD
  5
25
102
{ACAD_REACTORS
330
22
102
}
330
22
100
AcDbXrecord
280
     1
270
     1
271
     1
  0
CELLSTYLEMAP
  5
672
102
{ACAD_REACTORS
330
671
102
}
330
671
100
AcDbCellStyleMap
 90
        3
300
CELLSTYLE
  1
TABLEFORMAT_BEGIN
 90
        5
170
     1
 91
        0
 92
    32768
 62
   257
 93
        1
300
CONTENTFORMAT
  1
CONTENTFORMAT_BEGIN
 90
        0
 91
        0
 92
      512
 93
        0
300

 40
0.0
140
1.0
 94
        5
 62
     0
340
55
144
0.25
309
CONTENTFORMAT_END
171
     0
 94
        0
309
TABLEFORMAT_END
  1
CELLSTYLE_BEGIN
 90
        1
 91
        1
300
_TITLE
309
CELLSTYLE_END
300
CELLSTYLE
  1
TABLEFORMAT_BEGIN
 90
        5
170
     1
 91
        0
 92
        0
 62
   257
 93
        1
300
CONTENTFORMAT
  1
CONTENTFORMAT_BEGIN
 90
        0
 91
        0
 92
      512
 93
        0
300

 40
0.0
140
1.0
 94
        5
 62
     0
340
55
144
0.18
309
CONTENTFORMAT_END
171
     0
 94
        0
309
TABLEFORMAT_END
  1
CELLSTYLE_BEGIN
 90
        2
 91
        1
300
_HEADER
309
CELLSTYLE_END
300
CELLSTYLE
  1
TABLEFORMAT_BEGIN
 90
        5
170
     1
 91
        0
 92
        0
 62
   257
 93
        1
300
CONTENTFORMAT
  1
CONTENTFORMAT_BEGIN
 90
        0
 91
        0
 92
      512
 93
        0
300

 40
0.0
140
1.0
 94
        2
 62
     0
340
55
144
0.18
309
CONTENTFORMAT_END
171
     0
 94
        0
309
TABLEFORMAT_END
  1
CELLSTYLE_BEGIN
 90
        3
 91
        2
300
_DATA
309
CELLSTYLE_END
  0
ENDSEC
  0
EOF
