  0
SECTION
  2
HEADER
  9
$ACADVER
  1
AC1032
  9
$ACADMAINTVER
 90
      197
  9
$DWGCODEPAGE
  3
ANSI_932
  9
$LASTSAVEDBY
  1
hiro-ichiyama
  9
$REQUIREDVERSIONS
160
                 0
  9
$INSBASE
 10
0.0
 20
0.0
 30
0.0
  9
$EXTMIN
 10
-0.0173936924168174
 20
-0.0120840389421346
 30
-0.0015258207003583
  9
$EXTMAX
 10
570.0173963466861
 20
396.0120858829609
 30
0.0000000349246037
  9
$LIMMIN
 10
0.0
 20
0.0
  9
$LIMMAX
 10
570.0
 20
396.0
  9
$ORTHOMODE
 70
     0
  9
$REGENMODE
 70
     1
  9
$FILLMODE
 70
     1
  9
$QTEXTMODE
 70
     0
  9
$MIRRTEXT
 70
     1
  9
$LTSCALE
 40
1.333333333333333
  9
$ATTMODE
 70
     1
  9
$TEXTSIZE
 40
5.0
  9
$TRACEWID
 40
1.0
  9
$TEXTSTYLE
  7
STANDARD
  9
$CLAYER
  8
SUNPOU
  9
$CELTYPE
  6
ByLayer
  9
$CECOLOR
 62
   256
  9
$CELTSCALE
 40
1.0
  9
$DISPSILH
 70
     0
  9
$DIMSCALE
 40
1.0
  9
$DIMASZ
 40
2.5
  9
$DIMEXO
 40
0.625
  9
$DIMDLI
 40
3.75
  9
$DIMRND
 40
0.0
  9
$DIMDLE
 40
0.0
  9
$DIMEXE
 40
1.25
  9
$DIMTP
 40
0.0
  9
$DIMTM
 40
0.0
  9
$DIMTXT
 40
6.0
  9
$DIMCEN
 40
2.5
  9
$DIMTSZ
 40
0.0
  9
$DIMTOL
 70
     0
  9
$DIMLIM
 70
     0
  9
$DIMTIH
 70
     0
  9
$DIMTOH
 70
     0
  9
$DIMSE1
 70
     0
  9
$DIMSE2
 70
     0
  9
$DIMTAD
 70
     1
  9
$DIMZIN
 70
     8
  9
$DIMBLK
  1

  9
$DIMASO
 70
     1
  9
$DIMSHO
 70
     1
  9
$DIMPOST
  1

  9
$DIMAPOST
  1

  9
$DIMALT
 70
     0
  9
$DIMALTD
 70
     4
  9
$DIMALTF
 40
0.0394
  9
$DIMLFAC
 40
1.0
  9
$DIMTOFL
 70
     1
  9
$DIMTVP
 40
0.0
  9
$DIMTIX
 70
     0
  9
$DIMSOXD
 70
     0
  9
$DIMSAH
 70
     1
  9
$DIMBLK1
  1
NONE
  9
$DIMBLK2
  1
NONE
  9
$DIMSTYLE
  2
STANDARD
  9
$DIMCLRD
 70
     0
  9
$DIMCLRE
 70
     0
  9
$DIMCLRT
 70
     0
  9
$DIMTFAC
 40
1.0
  9
$DIMGAP
 40
0.625
  9
$DIMJUST
 70
     0
  9
$DIMSD1
 70
     0
  9
$DIMSD2
 70
     0
  9
$DIMTOLJ
 70
     1
  9
$DIMTZIN
 70
     0
  9
$DIMALTZ
 70
     0
  9
$DIMALTTZ
 70
     0
  9
$DIMUPT
 70
     0
  9
$DIMDEC
 70
     4
  9
$DIMTDEC
 70
     4
  9
$DIMALTU
 70
     2
  9
$DIMALTTD
 70
     2
  9
$DIMTXSTY
  7
STANDARD
  9
$DIMAUNIT
 70
     0
  9
$DIMADEC
 70
     0
  9
$DIMALTRND
 40
0.0
  9
$DIMAZIN
 70
     0
  9
$DIMDSEP
 70
    46
  9
$DIMATFIT
 70
     3
  9
$DIMFRAC
 70
     0
  9
$DIMLDRBLK
  1
NONE
  9
$DIMLUNIT
 70
     2
  9
$DIMLWD
 70
    -2
  9
$DIMLWE
 70
    -2
  9
$DIMTMOVE
 70
     0
  9
$DIMFXL
 40
1.0
  9
$DIMFXLON
 70
     0
  9
$DIMJOGANG
 40
0.7853981633974483
  9
$DIMTFILL
 70
     0
  9
$DIMTFILLCLR
 70
     0
  9
$DIMARCSYM
 70
     0
  9
$DIMLTYPE
  6

  9
$DIMLTEX1
  6

  9
$DIMLTEX2
  6

  9
$DIMTXTDIRECTION
 70
     0
  9
$LUNITS
 70
     2
  9
$LUPREC
 70
     4
  9
$SKETCHINC
 40
1.0
  9
$FILLETRAD
 40
13.33333333333333
  9
$AUNITS
 70
     0
  9
$AUPREC
 70
     0
  9
$MENU
  1
.
  9
$ELEVATION
 40
0.0
  9
$PELEVATION
 40
0.0
  9
$THICKNESS
 40
0.0
  9
$LIMCHECK
 70
     0
  9
$CHAMFERA
 40
13.33333333333333
  9
$CHAMFERB
 40
13.33333333333333
  9
$CHAMFERC
 40
0.0
  9
$CHAMFERD
 40
0.0
  9
$SKPOLY
 70
     1
  9
$TDCREATE
 40
2451654.610694444
  9
$TDUCREATE
 40
2451654.235694444
  9
$TDUPDATE
 40
2460012.595208334
  9
$TDUUPDATE
 40
2460012.220208334
  9
$TDINDWG
 40
0.4394884606
  9
$TDUSRTIMER
 40
0.4394884606
  9
$USRTIMER
 70
     1
  9
$ANGBASE
 50
0.0
  9
$ANGDIR
 70
     0
  9
$PDMODE
 70
     0
  9
$PDSIZE
 40
0.0
  9
$PLINEWID
 40
0.0
  9
$SPLFRAME
 70
     0
  9
$SPLINETYPE
 70
     6
  9
$SPLINESEGS
 70
     8
  9
$HANDSEED
  5
D0F
  9
$SURFTAB1
 70
     6
  9
$SURFTAB2
 70
     6
  9
$SURFTYPE
 70
     6
  9
$SURFU
 70
     6
  9
$SURFV
 70
     6
  9
$UCSBASE
  2

  9
$UCSNAME
  2

  9
$UCSORG
 10
0.0
 20
0.0
 30
0.0
  9
$UCSXDIR
 10
1.0
 20
0.0
 30
0.0
  9
$UCSYDIR
 10
0.0
 20
1.0
 30
0.0
  9
$UCSORTHOREF
  2

  9
$UCSORTHOVIEW
 70
     0
  9
$UCSORGTOP
 10
0.0
 20
0.0
 30
0.0
  9
$UCSORGBOTTOM
 10
0.0
 20
0.0
 30
0.0
  9
$UCSORGLEFT
 10
0.0
 20
0.0
 30
0.0
  9
$UCSORGRIGHT
 10
0.0
 20
0.0
 30
0.0
  9
$UCSORGFRONT
 10
0.0
 20
0.0
 30
0.0
  9
$UCSORGBACK
 10
0.0
 20
0.0
 30
0.0
  9
$PUCSBASE
  2

  9
$PUCSNAME
  2

  9
$PUCSORG
 10
0.0
 20
0.0
 30
0.0
  9
$PUCSXDIR
 10
1.0
 20
0.0
 30
0.0
  9
$PUCSYDIR
 10
0.0
 20
1.0
 30
0.0
  9
$PUCSORTHOREF
  2

  9
$PUCSORTHOVIEW
 70
     0
  9
$PUCSORGTOP
 10
0.0
 20
0.0
 30
0.0
  9
$PUCSORGBOTTOM
 10
0.0
 20
0.0
 30
0.0
  9
$PUCSORGLEFT
 10
0.0
 20
0.0
 30
0.0
  9
$PUCSORGRIGHT
 10
0.0
 20
0.0
 30
0.0
  9
$PUCSORGFRONT
 10
0.0
 20
0.0
 30
0.0
  9
$PUCSORGBACK
 10
0.0
 20
0.0
 30
0.0
  9
$USERI1
 70
     0
  9
$USERI2
 70
     0
  9
$USERI3
 70
     0
  9
$USERI4
 70
     0
  9
$USERI5
 70
     0
  9
$USERR1
 40
0.0
  9
$USERR2
 40
0.0
  9
$USERR3
 40
0.0
  9
$USERR4
 40
0.0
  9
$USERR5
 40
0.0
  9
$WORLDVIEW
 70
     1
  9
$SHADEDGE
 70
     3
  9
$SHADEDIF
 70
    70
  9
$TILEMODE
 70
     1
  9
$MAXACTVP
 70
    48
  9
$PINSBASE
 10
0.0
 20
0.0
 30
0.0
  9
$PLIMCHECK
 70
     0
  9
$PEXTMIN
 10
1.000000000000000E+20
 20
1.000000000000000E+20
 30
1.000000000000000E+20
  9
$PEXTMAX
 10
-1.000000000000000E+20
 20
-1.000000000000000E+20
 30
-1.000000000000000E+20
  9
$PLIMMIN
 10
0.0
 20
0.0
  9
$PLIMMAX
 10
420.0
 20
297.0
  9
$UNITMODE
 70
     0
  9
$VISRETAIN
 70
     1
  9
$PLINEGEN
 70
     0
  9
$PSLTSCALE
 70
     1
  9
$TREEDEPTH
 70
  3020
  9
$CMLSTYLE
  2
Standard
  9
$CMLJUST
 70
     0
  9
$CMLSCALE
 40
1.0
  9
$PROXYGRAPHICS
 70
     1
  9
$MEASUREMENT
 70
     0
  9
$CELWEIGHT
370
    -1
  9
$ENDCAPS
280
     0
  9
$JOINSTYLE
280
     0
  9
$LWDISPLAY
290
     0
  9
$INSUNITS
 70
     0
  9
$HYPERLINKBASE
  1

  9
$STYLESHEET
  1

  9
$XEDIT
290
     1
  9
$CEPSNTYPE
380
     0
  9
$PSTYLEMODE
290
     1
  9
$FINGERPRINTGUID
  2
{3CA2B512-2A0A-E14C-9162-4BB6FEF65D3B}
  9
$VERSIONGUID
  2
{B1FCAD99-2038-8C46-81D1-410A0E7B2DBF}
  9
$EXTNAMES
290
     1
  9
$PSVPSCALE
 40
0.0
  9
$OLESTARTUP
290
     0
  9
$SORTENTS
280
   127
  9
$INDEXCTL
280
     0
  9
$HIDETEXT
280
     0
  9
$XCLIPFRAME
280
     2
  9
$HALOGAP
280
     0
  9
$OBSCOLOR
 70
   257
  9
$OBSLTYPE
280
     0
  9
$INTERSECTIONDISPLAY
280
     0
  9
$INTERSECTIONCOLOR
 70
   257
  9
$DIMASSOC
280
     1
  9
$PROJECTNAME
  1

  9
$CAMERADISPLAY
290
     0
  9
$LENSLENGTH
 40
50.0
  9
$CAMERAHEIGHT
 40
0.0
  9
$STEPSPERSEC
 40
2.0
  9
$STEPSIZE
 40
6.0
  9
$3DDWFPREC
 40
2.0
  9
$PSOLWIDTH
 40
0.25
  9
$PSOLHEIGHT
 40
4.0
  9
$LOFTANG1
 40
1.570796326794896
  9
$LOFTANG2
 40
1.570796326794896
  9
$LOFTMAG1
 40
0.0
  9
$LOFTMAG2
 40
0.0
  9
$LOFTPARAM
 70
     7
  9
$LOFTNORMALS
280
     1
  9
$LATITUDE
 40
37.795
  9
$LONGITUDE
 40
-122.394
  9
$NORTHDIRECTION
 40
0.0
  9
$TIMEZONE
 70
 -8000
  9
$LIGHTGLYPHDISPLAY
280
     1
  9
$TILEMODELIGHTSYNCH
280
     1
  9
$CMATERIAL
347
9BC
  9
$SOLIDHIST
280
     0
  9
$SHOWHIST
280
     1
  9
$DWFFRAME
280
     2
  9
$DGNFRAME
280
     0
  9
$REALWORLDSCALE
290
     1
  9
$INTERFERECOLOR
 62
     1
  9
$INTERFEREOBJVS
345
9DE
  9
$INTERFEREVPVS
346
9DB
  9
$CSHADOW
280
     0
  9
$SHADOWPLANELOCATION
 40
0.0
  0
ENDSEC
  0
SECTION
  2
CLASSES
  0
CLASS
  1
ACDBDICTIONARYWDFLT
  2
AcDbDictionaryWithDefault
  3
ObjectDBX Classes
 90
        0
 91
        1
280
     0
281
     0
  0
CLASS
  1
MATERIAL
  2
AcDbMaterial
  3
ObjectDBX Classes
 90
     1153
 91
        3
280
     0
281
     0
  0
CLASS
  1
VISUALSTYLE
  2
AcDbVisualStyle
  3
ObjectDBX Classes
 90
     4095
 91
       24
280
     0
281
     0
  0
CLASS
  1
SCALE
  2
AcDbScale
  3
ObjectDBX Classes
 90
     1153
 91
       17
280
     0
281
     0
  0
CLASS
  1
TABLESTYLE
  2
AcDbTableStyle
  3
ObjectDBX Classes
 90
     4095
 91
        1
280
     0
281
     0
  0
CLASS
  1
MLEADERSTYLE
  2
AcDbMLeaderStyle
  3
ACDB_MLEADERSTYLE_CLASS
 90
     4095
 91
        1
280
     0
281
     0
  0
CLASS
  1
ACDBSECTIONVIEWSTYLE
  2
AcDbSectionViewStyle
  3
ObjectDBX Classes
 90
     1025
 91
        1
280
     0
281
     0
  0
CLASS
  1
ACDBDETAILVIEWSTYLE
  2
AcDbDetailViewStyle
  3
ObjectDBX Classes
 90
     1025
 91
        1
280
     0
281
     0
  0
CLASS
  1
DICTIONARYVAR
  2
AcDbDictionaryVar
  3
ObjectDBX Classes
 90
        0
 91
       63
280
     0
281
     0
  0
CLASS
  1
ACAD_EVALUATION_GRAPH
  2
AcDbEvalGraph
  3
ObjectDBX Classes
 90
     1153
 91
        3
280
     0
281
     0
  0
CLASS
  1
ACAECUSTOBJ
  2
AcAeEditorObj
  3
AcAeEditorObj
 90
     1024
 91
        3
280
     0
281
     0
  0
CLASS
  1
SORTENTSTABLE
  2
AcDbSortentsTable
  3
ObjectDBX Classes
 90
        0
 91
        1
280
     0
281
     0
  0
CLASS
  1
CELLSTYLEMAP
  2
AcDbCellStyleMap
  3
ObjectDBX Classes
 90
     1152
 91
        1
280
     0
281
     0
  0
ENDSEC
  0
SECTION
  2
TABLES
  0
TABLE
  2
VPORT
  5
9B3
330
0
100
AcDbSymbolTable
 70
     1
  0
VPORT
  5
A1F
330
9B3
100
AcDbSymbolTableRecord
100
AcDbViewportTableRecord
  2
*ACTIVE
 70
     0
 10
0.0
 20
0.0
 11
1.0
 21
1.0
 12
285.0000013271347
 22
198.0000009220093
 13
0.0
 23
0.0
 14
13.0
 24
13.0
 15
13.0
 25
13.0
 16
0.0
 26
0.0
 36
1.0
 17
0.0
 27
0.0
 37
0.0
 40
398.9008588075343
 41
2.295757575757575
 42
50.0
 43
0.0
 44
0.0
 50
0.0
 51
0.0
 71
     0
 72
   100
 73
     1
 74
     0
 75
     0
 76
     0
 77
     0
 78
     0
281
     0
 65
     1
110
0.0
120
0.0
130
0.0
111
1.0
121
0.0
131
0.0
112
0.0
122
1.0
132
0.0
 79
     0
146
0.0
348
9DA
 60
     3
 61
     5
292
     1
282
     0
141
0.0
142
0.0
 63
   250
421
  3355443
1001
ACAD_NAV_VCDISPLAY
1070
     3
  0
ENDTAB
  0
TABLE
  2
LTYPE
  5
9B0
330
0
100
AcDbSymbolTable
 70
     5
  0
LTYPE
  5
A05
330
9B0
100
AcDbSymbolTableRecord
100
AcDbLinetypeTableRecord
  2
ByBlock
 70
     0
  3

 72
    65
 73
     0
 40
0.0
  0
LTYPE
  5
A06
330
9B0
100
AcDbSymbolTableRecord
100
AcDbLinetypeTableRecord
  2
ByLayer
 70
     0
  3

 72
    65
 73
     0
 40
0.0
  0
LTYPE
  5
A07
330
9B0
100
AcDbSymbolTableRecord
100
AcDbLinetypeTableRecord
  2
CONTINUOUS
 70
     0
  3
Solid line
 72
    65
 73
     0
 40
0.0
  0
LTYPE
  5
A20
330
9B0
100
AcDbSymbolTableRecord
100
AcDbLinetypeTableRecord
  2
HIDDEN2
 70
     0
  3
Hidden (.5x) _ _ _ _ _ _ _ _ _ _ _ _ _ _ _ _ _
 72
    65
 73
     2
 40
4.762499999999999
 49
3.174999999999998
 74
     0
 49
-1.587499999999999
 74
     0
  0
LTYPE
  5
A21
330
9B0
100
AcDbSymbolTableRecord
100
AcDbLinetypeTableRecord
  2
DASHED2
 70
     0
  3
Dashed (.5x) _ _ _ _ _ _ _ _ _ _ _ _ _ _ _ _ _
 72
    65
 73
     2
 40
9.524999999999998
 49
6.349999999999998
 74
     0
 49
-3.174999999999998
 74
     0
  0
ENDTAB
  0
TABLE
  2
LAYER
  5
9AD
330
0
100
AcDbSymbolTable
 70
     6
  0
LAYER
  5
9FF
102
{ACAD_XDICTIONARY
360
CF8
102
}
330
9AD
100
AcDbSymbolTableRecord
100
AcDbLayerTableRecord
  2
0
 70
     0
 62
     7
  6
CONTINUOUS
370
    -3
390
9BA
347
9CC
348
0
  0
LAYER
  5
A1E
102
{ACAD_XDICTIONARY
360
CFA
102
}
330
9AD
100
AcDbSymbolTableRecord
100
AcDbLayerTableRecord
  2
STRINGA
 70
     0
 62
     7
  6
CONTINUOUS
370
    -3
390
9BA
347
9CC
348
0
  0
LAYER
  5
A22
102
{ACAD_XDICTIONARY
360
CFC
102
}
330
9AD
100
AcDbSymbolTableRecord
100
AcDbLayerTableRecord
  2
WAKU
 70
     0
 62
     4
  6
CONTINUOUS
370
    -3
390
9BA
347
9CC
348
0
  0
LAYER
  5
A23
102
{ACAD_XDICTIONARY
360
CFE
102
}
330
9AD
100
AcDbSymbolTableRecord
100
AcDbLayerTableRecord
  2
PANEL
 70
     0
 62
     6
  6
CONTINUOUS
370
    -3
390
9BA
347
9CC
348
0
  0
LAYER
  5
A24
102
{ACAD_XDICTIONARY
360
D00
102
}
330
9AD
100
AcDbSymbolTableRecord
100
AcDbLayerTableRecord
  2
SUNPOU
 70
     0
 62
     3
  6
CONTINUOUS
370
    -3
390
9BA
347
9CC
348
0
  0
LAYER
  5
A25
330
9AD
100
AcDbSymbolTableRecord
100
AcDbLayerTableRecord
  2
DEFPOINTS
 70
     0
 62
     7
  6
CONTINUOUS
290
     0
370
    -3
390
9BA
347
9CC
348
0
  0
ENDTAB
  0
TABLE
  2
STYLE
  5
9AE
330
0
100
AcDbSymbolTable
 70
     2
  0
STYLE
  5
A00
330
9AE
100
AcDbSymbolTableRecord
100
AcDbTextStyleTableRecord
  2
STANDARD
 70
     0
 40
6.0
 41
1.0
 50
0.0
 71
     0
 42
5.0
  3
txt.shx
  4
bigfont.shx
  0
STYLE
  5
A04
330
9AE
100
AcDbSymbolTableRecord
100
AcDbTextStyleTableRecord
  2
Annotative
 70
     0
 40
0.0
 41
1.0
 50
0.0
 71
     0
 42
0.2
  3
txt
  4

1001
AcadAnnotative
1000
AnnotativeData
1002
{
1070
     1
1070
     1
1002
}
  0
ENDTAB
  0
TABLE
  2
VIEW
  5
9B1
330
0
100
AcDbSymbolTable
 70
     0
  0
ENDTAB
  0
TABLE
  2
UCS
  5
9B2
330
0
100
AcDbSymbolTable
 70
     0
  0
ENDTAB
  0
TABLE
  2
APPID
  5
9B4
330
0
100
AcDbSymbolTable
 70
     7
  0
APPID
  5
A01
330
9B4
100
AcDbSymbolTableRecord
100
AcDbRegAppTableRecord
  2
ACAD
 70
     0
  0
APPID
  5
A08
330
9B4
100
AcDbSymbolTableRecord
100
AcDbRegAppTableRecord
  2
AcadAnnotative
 70
     0
  0
APPID
  5
A26
330
9B4
100
AcDbSymbolTableRecord
100
AcDbRegAppTableRecord
  2
ACAD_PSEXT
 70
     0
  0
APPID
  5
A41
330
9B4
100
AcDbSymbolTableRecord
100
AcDbRegAppTableRecord
  2
ACAD_NAV_VCDISPLAY
 70
     0
  0
APPID
  5
A4C
330
9B4
100
AcDbSymbolTableRecord
100
AcDbRegAppTableRecord
  2
Acad_TC
 70
     0
  0
APPID
  5
A4D
330
9B4
100
AcDbSymbolTableRecord
100
AcDbRegAppTableRecord
  2
ACAD_EXEMPT_FROM_CAD_STANDARDS
 70
     0
  0
APPID
  5
CBC
330
9B4
100
AcDbSymbolTableRecord
100
AcDbRegAppTableRecord
  2
ACAD_DSTYLE_DIMRADIAL_EXTENSION
 70
     0
  0
ENDTAB
  0
TABLE
  2
DIMSTYLE
  5
9B5
330
0
100
AcDbSymbolTable
 70
     3
100
AcDbDimStyleTable
 71
     1
340
A02
  0
DIMSTYLE
105
A02
102
{ACAD_REACTORS
330
C92
330
CD1
330
CDD
330
CEC
102
}
330
9B5
100
AcDbSymbolTableRecord
100
AcDbDimStyleTableRecord
  2
STANDARD
 70
     0
 41
2.5
 42
0.625
 43
3.75
 44
1.25
 73
     0
 74
     0
 77
     1
 78
     8
140
2.5
141
2.5
143
0.0394
147
0.625
171
     4
172
     1
274
     4
279
     2
284
     8
285
     8
286
     8
340
A00
  0
DIMSTYLE
105
A03
330
9B5
100
AcDbSymbolTableRecord
100
AcDbDimStyleTableRecord
  2
Annotative
 70
     0
340
A00
1001
AcadAnnotative
1000
AnnotativeData
1002
{
1070
     1
1070
     1
1002
}
  0
ENDTAB
  0
TABLE
  2
BLOCK_RECORD
  5
9AC
330
0
100
AcDbSymbolTable
 70
    20
  0
BLOCK_RECORD
  5
A1A
102
{ACAD_XDICTIONARY
360
CE9
102
}
330
9AC
100
AcDbSymbolTableRecord
100
AcDbBlockTableRecord
  2
*Model_Space
340
A1D
 70
     0
280
     1
281
     0
  0
BLOCK_RECORD
  5
A16
330
9AC
100
AcDbSymbolTableRecord
100
AcDbBlockTableRecord
  2
*Paper_Space
340
A19
 70
     0
280
     1
281
     0
  0
BLOCK_RECORD
  5
A29
330
9AC
100
AcDbSymbolTableRecord
100
AcDbBlockTableRecord
  2
$MODEL_SPACE
340
0
 70
     0
280
     1
281
     0
  0
BLOCK_RECORD
  5
A2B
330
9AC
100
AcDbSymbolTableRecord
100
AcDbBlockTableRecord
  2
$PAPER_SPACE
340
0
 70
     0
280
     1
281
     0
  0
BLOCK_RECORD
  5
A2D
330
9AC
100
AcDbSymbolTableRecord
100
AcDbBlockTableRecord
  2
_NONE
340
0
 70
     0
280
     1
281
     0
  0
BLOCK_RECORD
  5
A2F
330
9AC
100
AcDbSymbolTableRecord
100
AcDbBlockTableRecord
  2
*U3
340
0
102
{BLKREFS
331
6AA
102
}
 70
     0
280
     1
281
     0
  0
BLOCK_RECORD
  5
A31
330
9AC
100
AcDbSymbolTableRecord
100
AcDbBlockTableRecord
  2
*U4
340
0
102
{BLKREFS
331
6B1
102
}
 70
     0
280
     1
281
     0
  0
BLOCK_RECORD
  5
A33
330
9AC
100
AcDbSymbolTableRecord
100
AcDbBlockTableRecord
  2
*U5
340
0
102
{BLKREFS
331
6B8
102
}
 70
     0
280
     1
281
     0
  0
BLOCK_RECORD
  5
A35
330
9AC
100
AcDbSymbolTableRecord
100
AcDbBlockTableRecord
  2
*U6
340
0
102
{BLKREFS
102
}
 70
     0
280
     1
281
     0
  0
BLOCK_RECORD
  5
A37
330
9AC
100
AcDbSymbolTableRecord
100
AcDbBlockTableRecord
  2
*U7
340
0
102
{BLKREFS
102
}
 70
     0
280
     1
281
     0
  0
BLOCK_RECORD
  5
A39
330
9AC
100
AcDbSymbolTableRecord
100
AcDbBlockTableRecord
  2
*U8
340
0
102
{BLKREFS
102
}
 70
     0
280
     1
281
     0
  0
BLOCK_RECORD
  5
A3B
330
9AC
100
AcDbSymbolTableRecord
100
AcDbBlockTableRecord
  2
*U9
340
0
102
{BLKREFS
102
}
 70
     0
280
     1
281
     0
  0
BLOCK_RECORD
  5
C93
330
9AC
100
AcDbSymbolTableRecord
100
AcDbBlockTableRecord
  2
*D14
340
0
 70
     0
280
     1
281
     0
  0
BLOCK_RECORD
  5
CBE
330
9AC
100
AcDbSymbolTableRecord
100
AcDbBlockTableRecord
  2
*D15
340
0
 70
     0
280
     1
281
     0
  0
BLOCK_RECORD
  5
CC8
330
9AC
100
AcDbSymbolTableRecord
100
AcDbBlockTableRecord
  2
*D16
340
0
 70
     0
280
     1
281
     0
  0
BLOCK_RECORD
  5
CD2
330
9AC
100
AcDbSymbolTableRecord
100
AcDbBlockTableRecord
  2
*D17
340
0
 70
     0
280
     1
281
     0
  0
BLOCK_RECORD
  5
CDE
330
9AC
100
AcDbSymbolTableRecord
100
AcDbBlockTableRecord
  2
*D18
340
0
 70
     0
280
     1
281
     0
  0
BLOCK_RECORD
  5
CED
330
9AC
100
AcDbSymbolTableRecord
100
AcDbBlockTableRecord
  2
*D19
340
0
 70
     0
280
     1
281
     0
  0
ENDTAB
  0
ENDSEC
  0
SECTION
  2
BLOCKS
  0
BLOCK
  5
A1B
330
A1A
100
AcDbEntity
  8
0
100
AcDbBlockBegin
  2
*Model_Space
 70
     0
 10
0.0
 20
0.0
 30
0.0
  3
*Model_Space
  1

  0
ENDBLK
  5
A1C
330
A1A
100
AcDbEntity
  8
0
100
AcDbBlockEnd
  0
BLOCK
  5
A17
330
A16
100
AcDbEntity
 67
     1
  8
0
100
AcDbBlockBegin
  2
*Paper_Space
 70
     0
 10
0.0
 20
0.0
 30
0.0
  3
*Paper_Space
  1

  0
ENDBLK
  5
A18
330
A16
100
AcDbEntity
 67
     1
  8
0
100
AcDbBlockEnd
  0
BLOCK
  5
A2A
330
A29
100
AcDbEntity
  8
0
100
AcDbBlockBegin
  2
$MODEL_SPACE
 70
     0
 10
0.0
 20
0.0
 30
0.0
  3
$MODEL_SPACE
  1

  0
ENDBLK
  5
1C
330
A29
100
AcDbEntity
  8
0
100
AcDbBlockEnd
  0
BLOCK
  5
A2C
330
A2B
100
AcDbEntity
  8
0
100
AcDbBlockBegin
  2
$PAPER_SPACE
 70
     0
 10
0.0
 20
0.0
 30
0.0
  3
$PAPER_SPACE
  1

  0
ENDBLK
  5
19
330
A2B
100
AcDbEntity
  8
0
100
AcDbBlockEnd
  0
BLOCK
  5
A2E
330
A2D
100
AcDbEntity
  8
0
100
AcDbBlockBegin
  2
_NONE
 70
     0
 10
0.0
 20
0.0
 30
0.0
  3
_NONE
  1

  0
CIRCLE
  5
296
330
A2D
100
AcDbEntity
  8
0
  6
ByBlock
 62
     0
100
AcDbCircle
 10
0.0
 20
0.0
 30
0.0
 40
0.25
  0
ENDBLK
  5
297
330
A2D
100
AcDbEntity
  8
0
100
AcDbBlockEnd
  0
BLOCK
  5
A30
330
A2F
100
AcDbEntity
  8
0
100
AcDbBlockBegin
  2
*U3
 70
     1
 10
0.0
 20
0.0
 30
0.0
  3
*U3
  1

  0
TEXT
  5
98D
330
A2F
100
AcDbEntity
  8
SUNPOU
100
AcDbText
 10
399.5706624196079
 20
254.6030468405604
 30
0.0
 40
6.0
  1
30.4
100
AcDbText
  0
ENDBLK
  5
98F
330
A2F
100
AcDbEntity
  8
0
100
AcDbBlockEnd
  0
BLOCK
  5
A32
330
A31
100
AcDbEntity
  8
0
100
AcDbBlockBegin
  2
*U4
 70
     1
 10
0.0
 20
0.0
 30
0.0
  3
*U4
  1

  0
TEXT
  5
991
330
A31
100
AcDbEntity
  8
SUNPOU
100
AcDbText
 10
342.4456852704293
 20
207.4780468405613
 30
0.0
 40
6.0
  1
53
 50
90.0
100
AcDbText
  0
ENDBLK
  5
993
330
A31
100
AcDbEntity
  8
0
100
AcDbBlockEnd
  0
BLOCK
  5
A34
330
A33
100
AcDbEntity
  8
0
100
AcDbBlockBegin
  2
*U5
 70
     1
 10
0.0
 20
0.0
 30
0.0
  3
*U5
  1

  0
TEXT
  5
995
330
A33
100
AcDbEntity
  8
SUNPOU
100
AcDbText
 10
399.0706624196079
 20
171.6030468405621
 30
0.0
 40
6.0
  1
36.4
100
AcDbText
  0
ENDBLK
  5
997
330
A33
100
AcDbEntity
  8
0
100
AcDbBlockEnd
  0
BLOCK
  5
A36
330
A35
100
AcDbEntity
  8
0
100
AcDbBlockBegin
  2
*U6
 70
     1
 10
0.0
 20
0.0
 30
0.0
  3
*U6
  1

  0
TEXT
  5
999
330
A35
100
AcDbEntity
  8
SUNPOU
100
AcDbText
 10
162.3480902325864
 20
374.0696974319138
 30
0.0
 40
6.0
  1
53
100
AcDbText
  0
ENDBLK
  5
99B
330
A35
100
AcDbEntity
  8
0
100
AcDbBlockEnd
  0
BLOCK
  5
A38
330
A37
100
AcDbEntity
  8
0
100
AcDbBlockBegin
  2
*U7
 70
     1
 10
0.0
 20
0.0
 30
0.0
  3
*U7
  1

  0
TEXT
  5
99D
330
A37
100
AcDbEntity
  8
SUNPOU
100
AcDbText
 10
110.2231888425106
 20
192.7775046532668
 30
0.0
 40
6.0
  1
158
 50
90.0
100
AcDbText
  0
ENDBLK
  5
99F
330
A37
100
AcDbEntity
  8
0
100
AcDbBlockEnd
  0
BLOCK
  5
A3A
330
A39
100
AcDbEntity
  8
0
100
AcDbBlockBegin
  2
*U8
 70
     1
 10
0.0
 20
0.0
 30
0.0
  3
*U8
  1

  0
TEXT
  5
9A1
330
A39
100
AcDbEntity
  8
SUNPOU
100
AcDbText
 10
125.2231888425106
 20
273.7775056069411
 30
0.0
 40
6.0
  1
84
 50
90.0
100
AcDbText
  0
ENDBLK
  5
9A3
330
A39
100
AcDbEntity
  8
0
100
AcDbBlockEnd
  0
BLOCK
  5
A3C
330
A3B
100
AcDbEntity
  8
0
100
AcDbBlockBegin
  2
*U9
 70
     1
 10
0.0
 20
0.0
 30
0.0
  3
*U9
  1

  0
TEXT
  5
9A5
330
A3B
100
AcDbEntity
  8
SUNPOU
100
AcDbText
 10
125.2231888425106
 20
194.7775056069409
 30
0.0
 40
6.0
  1
74
 50
90.0
100
AcDbText
  0
ENDBLK
  5
9A7
330
A3B
100
AcDbEntity
  8
0
100
AcDbBlockEnd
  0
BLOCK
  5
C94
330
C93
100
AcDbEntity
  8
0
100
AcDbBlockBegin
  2
*D14
 70
     1
 10
0.0
 20
0.0
 30
0.0
  3
*D14
  1

  0
LINE
  5
C96
330
C93
100
AcDbEntity
  8
SUNPOU
 62
     0
440
 16777216
370
    -2
100
AcDbLine
 10
140.848091186265
 20
318.8025046532667
 30
0.0
 11
140.848091186265
 21
376.5878091220926
 31
0.0
  0
LINE
  5
C97
330
C93
100
AcDbEntity
  8
SUNPOU
 62
     0
440
 16777216
370
    -2
100
AcDbLine
 10
193.8480911862606
 20
364.4025046532669
 30
0.0
 11
193.8480911862606
 21
376.5878091220926
 31
0.0
  0
LINE
  5
C98
330
C93
100
AcDbEntity
  8
SUNPOU
 62
     0
440
 16777216
370
    -2
100
AcDbLine
 10
140.848091186265
 20
375.3378091220926
 30
0.0
 11
193.8480911862606
 21
375.3378091220926
 31
0.0
  0
MTEXT
  5
C99
330
C93
100
AcDbEntity
  8
SUNPOU
 62
     0
440
 16777216
100
AcDbMText
 10
167.3480911862628
 20
378.9628091220926
 30
0.0
 40
6.0
 41
0.0
 46
0.0
 71
     5
 72
     1
  1
\A1;53
 73
     1
 44
1.0
  0
POINT
  5
C9A
330
C93
100
AcDbEntity
  8
DEFPOINTS
 62
     0
440
 16777216
100
AcDbPoint
 10
140.848091186265
 20
318.1775046532667
 30
0.0
  0
POINT
  5
C9B
330
C93
100
AcDbEntity
  8
DEFPOINTS
 62
     0
440
 16777216
100
AcDbPoint
 10
193.8480911862606
 20
363.7775046532669
 30
0.0
  0
POINT
  5
C9C
330
C93
100
AcDbEntity
  8
DEFPOINTS
 62
     0
440
 16777216
100
AcDbPoint
 10
193.8480911862606
 20
375.3378091220926
 30
0.0
  0
ENDBLK
  5
C95
330
C93
100
AcDbEntity
  8
0
100
AcDbBlockEnd
  0
BLOCK
  5
CBF
330
CBE
100
AcDbEntity
  8
0
100
AcDbBlockBegin
  2
*D15
 70
     1
 10
0.0
 20
0.0
 30
0.0
  3
*D15
  1

  0
LINE
  5
CC1
330
CBE
100
AcDbEntity
  8
SUNPOU
 62
     0
440
 16777216
370
    -2
100
AcDbLine
 10
125.253132382286
 20
340.3974611895373
 30
0.0
 11
143.1139467200788
 21
323.9946013416054
 31
0.0
  0
MTEXT
  5
CC2
330
CBE
100
AcDbEntity
  8
SUNPOU
 62
     0
440
 16777216
100
AcDbMText
 10
134.7941923802244
 20
336.5569632900798
 30
0.0
 40
6.0
 41
0.0
 46
0.0
 71
     5
 72
     1
  1
\A1;R8.6
 11
0.7365284263007334
 21
-0.6764065916672939
 31
0.0
 73
     1
 44
1.0
  0
LINE
  5
CC3
330
CBE
100
AcDbEntity
  8
SUNPOU
 62
     0
440
 16777216
370
    -2
100
AcDbLine
 10
149.4480911862651
 20
318.1775046532667
 30
0.0
 11
143.1139467200788
 21
323.9946013416054
 31
0.0
  0
POINT
  5
CC4
330
CBE
100
AcDbEntity
  8
DEFPOINTS
 62
     0
440
 16777216
100
AcDbPoint
 10
143.1139467200788
 20
323.9946013416054
 30
0.0
  0
POINT
  5
CC5
330
CBE
100
AcDbEntity
  8
DEFPOINTS
 62
     0
440
 16777216
100
AcDbPoint
 10
149.4480911862651
 20
318.1775046532667
 30
0.0
  0
ENDBLK
  5
CC0
330
CBE
100
AcDbEntity
  8
0
100
AcDbBlockEnd
  0
BLOCK
  5
CC9
330
CC8
100
AcDbEntity
  8
0
100
AcDbBlockBegin
  2
*D16
 70
     1
 10
0.0
 20
0.0
 30
0.0
  3
*D16
  1

  0
LINE
  5
CCB
330
CC8
100
AcDbEntity
  8
SUNPOU
 62
     0
440
 16777216
370
    -2
100
AcDbLine
 10
118.2301277238154
 20
241.1519847517086
 30
0.0
 11
141.2753518932035
 21
248.7005040093277
 31
0.0
  0
MTEXT
  5
CCC
330
CC8
100
AcDbEntity
  8
SUNPOU
 62
     0
440
 16777216
100
AcDbMText
 10
126.2485566030521
 20
247.5929511627855
 30
0.0
 40
6.0
 41
0.0
 46
0.0
 71
     5
 72
     1
  1
\A1;R8.6
 11
0.9503185224489975
 21
0.3112791446440862
 31
0.0
 73
     1
 44
1.0
  0
LINE
  5
CCD
330
CC8
100
AcDbEntity
  8
SUNPOU
 62
     0
440
 16777216
370
    -2
100
AcDbLine
 10
149.4480911862651
 20
251.3775046532669
 30
0.0
 11
141.2753518932035
 21
248.7005040093277
 31
0.0
  0
POINT
  5
CCE
330
CC8
100
AcDbEntity
  8
DEFPOINTS
 62
     0
440
 16777216
100
AcDbPoint
 10
141.2753518932035
 20
248.7005040093277
 30
0.0
  0
POINT
  5
CCF
330
CC8
100
AcDbEntity
  8
DEFPOINTS
 62
     0
440
 16777216
100
AcDbPoint
 10
149.4480911862651
 20
251.3775046532669
 30
0.0
  0
ENDBLK
  5
CCA
330
CC8
100
AcDbEntity
  8
0
100
AcDbBlockEnd
  0
BLOCK
  5
CD3
330
CD2
100
AcDbEntity
  8
0
100
AcDbBlockBegin
  2
*D17
 70
     1
 10
0.0
 20
0.0
 30
0.0
  3
*D17
  1

  0
LINE
  5
CD5
330
CD2
100
AcDbEntity
  8
SUNPOU
 62
     0
440
 16777216
370
    -2
100
AcDbLine
 10
148.8230911862651
 20
242.7775046532669
 30
0.0
 11
124.9184629940374
 21
242.7775046532669
 31
0.0
  0
LINE
  5
CD6
330
CD2
100
AcDbEntity
  8
SUNPOU
 62
     0
440
 16777216
370
    -2
100
AcDbLine
 10
148.8230911862651
 20
326.7775046532668
 30
0.0
 11
124.9184629940374
 21
326.7775046532668
 31
0.0
  0
LINE
  5
CD7
330
CD2
100
AcDbEntity
  8
SUNPOU
 62
     0
440
 16777216
370
    -2
100
AcDbLine
 10
126.1684629940374
 20
242.7775046532669
 30
0.0
 11
126.1684629940374
 21
326.7775046532668
 31
0.0
  0
MTEXT
  5
CD8
330
CD2
100
AcDbEntity
  8
SUNPOU
 62
     0
440
 16777216
100
AcDbMText
 10
122.5434629940374
 20
284.7775046532667
 30
0.0
 40
6.0
 41
0.0
 46
0.0
 71
     5
 72
     1
  1
\A1;84
 11
0.0000000000000001
 21
1.0
 31
0.0
 73
     1
 44
1.0
  0
POINT
  5
CD9
330
CD2
100
AcDbEntity
  8
DEFPOINTS
 62
     0
440
 16777216
100
AcDbPoint
 10
149.4480911862651
 20
242.7775046532669
 30
0.0
  0
POINT
  5
CDA
330
CD2
100
AcDbEntity
  8
DEFPOINTS
 62
     0
440
 16777216
100
AcDbPoint
 10
149.4480911862651
 20
326.7775046532668
 30
0.0
  0
POINT
  5
CDB
330
CD2
100
AcDbEntity
  8
DEFPOINTS
 62
     0
440
 16777216
100
AcDbPoint
 10
126.1684629940374
 20
326.7775046532668
 30
0.0
  0
ENDBLK
  5
CD4
330
CD2
100
AcDbEntity
  8
0
100
AcDbBlockEnd
  0
BLOCK
  5
CDF
330
CDE
100
AcDbEntity
  8
0
100
AcDbBlockBegin
  2
*D18
 70
     1
 10
0.0
 20
0.0
 30
0.0
  3
*D18
  1

  0
LINE
  5
CE1
330
CDE
100
AcDbEntity
  8
SUNPOU
 62
     0
440
 16777216
370
    -2
100
AcDbLine
 10
148.8230911862624
 20
156.7775046532666
 30
0.0
 11
124.9184629940375
 21
156.7775046532666
 31
0.0
  0
LINE
  5
CE2
330
CDE
100
AcDbEntity
  8
SUNPOU
 62
     0
440
 16777216
370
    -2
100
AcDbLine
 10
148.8230911862624
 20
242.7775046532669
 30
0.0
 11
124.9184629940374
 21
242.7775046532669
 31
0.0
  0
LINE
  5
CE3
330
CDE
100
AcDbEntity
  8
SUNPOU
 62
     0
440
 16777216
370
    -2
100
AcDbLine
 10
126.1684629940375
 20
156.7775046532666
 30
0.0
 11
126.1684629940374
 21
242.7775046532669
 31
0.0
  0
MTEXT
  5
CE4
330
CDE
100
AcDbEntity
  8
SUNPOU
 62
     0
440
 16777216
100
AcDbMText
 10
122.5434629940375
 20
199.7775046532667
 30
0.0
 40
6.0
 41
0.0
 46
0.0
 71
     5
 72
     1
  1
\A1;86
 11
0.0000000000000001
 21
1.0
 31
0.0
 73
     1
 44
1.0
  0
POINT
  5
CE5
330
CDE
100
AcDbEntity
  8
DEFPOINTS
 62
     0
440
 16777216
100
AcDbPoint
 10
149.4480911862624
 20
156.7775046532666
 30
0.0
  0
POINT
  5
CE6
330
CDE
100
AcDbEntity
  8
DEFPOINTS
 62
     0
440
 16777216
100
AcDbPoint
 10
149.4480911862624
 20
242.7775046532669
 30
0.0
  0
POINT
  5
CE7
330
CDE
100
AcDbEntity
  8
DEFPOINTS
 62
     0
440
 16777216
100
AcDbPoint
 10
126.1684629940374
 20
242.7775046532669
 30
0.0
  0
ENDBLK
  5
CE0
330
CDE
100
AcDbEntity
  8
0
100
AcDbBlockEnd
  0
BLOCK
  5
CEE
330
CED
100
AcDbEntity
  8
0
100
AcDbBlockBegin
  2
*D19
 70
     1
 10
0.0
 20
0.0
 30
0.0
  3
*D19
  1

  0
LINE
  5
CF0
330
CED
100
AcDbEntity
  8
SUNPOU
 62
     0
440
 16777216
370
    -2
100
AcDbLine
 10
140.223091186265
 20
284.7775046532672
 30
0.0
 11
99.47886322116303
 21
284.7775046532671
 31
0.0
  0
LINE
  5
CF1
330
CED
100
AcDbEntity
  8
SUNPOU
 62
     0
440
 16777216
370
    -2
100
AcDbLine
 10
140.223091186265
 20
114.7775046532662
 30
0.0
 11
99.47886322116307
 21
114.7775046532662
 31
0.0
  0
LINE
  5
CF2
330
CED
100
AcDbEntity
  8
SUNPOU
 62
     0
440
 16777216
370
    -2
100
AcDbLine
 10
100.728863221163
 20
284.7775046532671
 30
0.0
 11
100.7288632211631
 21
114.7775046532662
 31
0.0
  0
MTEXT
  5
CF3
330
CED
100
AcDbEntity
  8
SUNPOU
 62
     0
440
 16777216
100
AcDbMText
 10
97.10386322116308
 20
199.7775046532666
 30
0.0
 40
6.0
 41
0.0
 46
0.0
 71
     5
 72
     1
  1
\A1;170
 11
0.0000000000000001
 21
1.0
 31
0.0
 73
     1
 44
1.0
  0
POINT
  5
CF4
330
CED
100
AcDbEntity
  8
DEFPOINTS
 62
     0
440
 16777216
100
AcDbPoint
 10
140.848091186265
 20
284.7775046532672
 30
0.0
  0
POINT
  5
CF5
330
CED
100
AcDbEntity
  8
DEFPOINTS
 62
     0
440
 16777216
100
AcDbPoint
 10
140.848091186265
 20
114.7775046532662
 30
0.0
  0
POINT
  5
CF6
330
CED
100
AcDbEntity
  8
DEFPOINTS
 62
     0
440
 16777216
100
AcDbPoint
 10
100.7288632211631
 20
114.7775046532662
 30
0.0
  0
ENDBLK
  5
CEF
330
CED
100
AcDbEntity
  8
0
100
AcDbBlockEnd
  0
ENDSEC
  0
SECTION
  2
ENTITIES
  0
LINE
  5
1C3
330
A1A
100
AcDbEntity
  8
WAKU
  6
Continuous
100
AcDbLine
 10
5.000000346873321
 20
25.00000004500612
 30
0.0
 11
565.0
 21
25.00000004500612
 31
0.0
  0
LINE
  5
1C4
330
A1A
100
AcDbEntity
  8
WAKU
  6
Continuous
100
AcDbLine
 10
5.000000346873321
 20
5.000000045006117
 30
0.0
 11
565.0
 21
5.000000045006117
 31
0.0
  0
LINE
  5
1CB
330
A1A
100
AcDbEntity
  8
WAKU
  6
Continuous
100
AcDbLine
 10
195.0000003468733
 20
5.000000045006117
 30
0.0
 11
195.0000003468734
 21
25.00000004500613
 31
0.0
  0
LWPOLYLINE
  5
252
330
A1A
100
AcDbEntity
  8
WAKU
100
AcDbPolyline
 90
        4
 70
     1
 43
0.0
 10
0.0000003468733212
 20
0.0000000450061179
 10
570.0
 20
0.0000000450061179
 10
570.0
 20
396.0
 10
0.0000003468733212
 20
396.0
  0
LINE
  5
255
330
A1A
100
AcDbEntity
  8
WAKU
100
AcDbLine
 10
5.000000346873321
 20
5.000000045006117
 30
0.0
 11
5.000000346873321
 21
391.0000000000001
 31
0.0
  0
LINE
  5
256
330
A1A
100
AcDbEntity
  8
WAKU
100
AcDbLine
 10
5.000000346873321
 20
391.0000000000001
 30
0.0
 11
565.0
 21
391.0
 31
0.0
  0
LINE
  5
257
330
A1A
100
AcDbEntity
  8
WAKU
100
AcDbLine
 10
565.0
 20
391.0
 30
0.0
 11
565.0
 21
5.000000045006117
 31
0.0
  0
TEXT
  5
4CC
330
A1A
100
AcDbEntity
  8
WAKU
100
AcDbText
 10
15.00000034687332
 20
8.000000045006114
 30
0.0
 40
12.0
  1
ビルパネ　PS-170
100
AcDbText
  0
LINE
  5
515
330
A1A
100
AcDbEntity
  8
PANEL
  6
Continuous
100
AcDbLine
 10
358.0706623822458
 20
185.9780468405621
 30
0.0
 11
458.0706623822456
 21
185.9780468405621
 31
0.0
  0
LINE
  5
516
330
A1A
100
AcDbEntity
  8
PANEL
  6
DASHED2
100
AcDbLine
 10
358.0706623822458
 20
186.5780468405621
 30
0.0
 11
458.0706623822456
 21
186.5780468405621
 31
0.0
  0
LINE
  5
517
330
A1A
100
AcDbEntity
  8
PANEL
  6
Continuous
100
AcDbLine
 10
358.0706623822458
 20
201.9780468405621
 30
0.0
 11
458.0706623822456
 21
201.9780468405621
 31
0.0
  0
LINE
  5
518
330
A1A
100
AcDbEntity
  8
STRINGA
  6
Continuous
100
AcDbLine
 10
394.370662419608
 20
217.4780468405609
 30
0.0
 11
391.1706624196079
 21
217.4780468405603
 31
0.0
  0
LINE
  5
519
330
A1A
100
AcDbEntity
  8
STRINGA
  6
Continuous
100
AcDbLine
 10
423.2706624196078
 20
238.9780468405604
 30
0.0
 11
392.8706624196079
 21
238.9780468405604
 31
0.0
  0
LINE
  5
51A
330
A1A
100
AcDbEntity
  8
STRINGA
  6
Continuous
100
AcDbLine
 10
392.8706624196079
 20
238.9780468405604
 30
0.0
 11
392.8706624196081
 21
218.9780468405619
 31
0.0
  0
LINE
  5
51B
330
A1A
100
AcDbEntity
  8
STRINGA
  6
Continuous
100
AcDbLine
 10
391.1706624196079
 20
217.4780468405603
 30
0.0
 11
391.1706624196079
 21
201.9780468405621
 31
0.0
  0
LINE
  5
51C
330
A1A
100
AcDbEntity
  8
STRINGA
  6
Continuous
100
AcDbLine
 10
389.870662419608
 20
218.9780468405611
 30
0.0
 11
389.8706624196083
 21
201.9780468405622
 31
0.0
  0
LINE
  5
51D
330
A1A
100
AcDbEntity
  8
STRINGA
  6
HIDDEN2
100
AcDbLine
 10
391.1706624196081
 20
201.9780468405621
 30
0.0
 11
391.170662419608
 21
186.5780468405621
 31
0.0
  0
LINE
  5
51E
330
A1A
100
AcDbEntity
  8
STRINGA
  6
HIDDEN2
100
AcDbLine
 10
389.870662419608
 20
195.4780468405619
 30
0.0
 11
389.8706624196078
 21
201.9780468405621
 31
0.0
  0
LINE
  5
51F
330
A1A
100
AcDbEntity
  8
STRINGA
  6
HIDDEN2
100
AcDbLine
 10
388.170662419608
 20
195.4780468405604
 30
0.0
 11
388.170662419608
 21
193.9780468405604
 31
0.0
  0
LINE
  5
520
330
A1A
100
AcDbEntity
  8
STRINGA
  6
HIDDEN2
100
AcDbLine
 10
389.870662419608
 20
193.9780468405604
 30
0.0
 11
388.170662419608
 21
193.9780468405604
 31
0.0
  0
LINE
  5
521
330
A1A
100
AcDbEntity
  8
STRINGA
  6
HIDDEN2
100
AcDbLine
 10
389.870662419608
 20
195.4780468405604
 30
0.0
 11
388.170662419608
 21
195.4780468405604
 31
0.0
  0
LINE
  5
522
330
A1A
100
AcDbEntity
  8
STRINGA
  6
HIDDEN2
100
AcDbLine
 10
391.1706624196079
 20
186.5780468405634
 30
0.0
 11
389.8706624196078
 21
186.5780468405603
 31
0.0
  0
LINE
  5
523
330
A1A
100
AcDbEntity
  8
STRINGA
  6
HIDDEN2
100
AcDbLine
 10
389.870662419608
 20
193.9780468405608
 30
0.0
 11
389.870662419608
 21
186.5780468405621
 31
0.0
  0
LINE
  5
524
330
A1A
100
AcDbEntity
  8
STRINGA
  6
Continuous
100
AcDbLine
 10
392.8706624196081
 20
218.9780468405619
 30
0.0
 11
389.870662419608
 21
218.9780468405611
 31
0.0
  0
LINE
  5
525
330
A1A
100
AcDbEntity
  8
STRINGA
  6
Continuous
100
AcDbLine
 10
423.2706624196078
 20
238.9780468405604
 30
0.0
 11
423.2706624196078
 21
218.9780468405598
 31
0.0
  0
LINE
  5
526
330
A1A
100
AcDbEntity
  8
STRINGA
  6
Continuous
100
AcDbLine
 10
419.7706624196078
 20
230.9780468405623
 30
0.0
 11
419.7706624196078
 21
229.9780468405611
 31
0.0
  0
LINE
  5
527
330
A1A
100
AcDbEntity
  8
STRINGA
  6
Continuous
100
AcDbLine
 10
396.370662419608
 20
230.9780468405616
 30
0.0
 11
396.370662419608
 21
229.9780468405627
 31
0.0
  0
LINE
  5
528
330
A1A
100
AcDbEntity
  8
STRINGA
  6
Continuous
100
AcDbLine
 10
426.2706624196078
 20
218.9780468405604
 30
0.0
 11
423.2706624196078
 21
218.9780468405598
 31
0.0
  0
LINE
  5
529
330
A1A
100
AcDbEntity
  8
STRINGA
  6
HIDDEN2
100
AcDbLine
 10
426.2706624196078
 20
186.5780468405621
 30
0.0
 11
424.9706624196077
 21
186.578046840563
 31
0.0
  0
LINE
  5
52A
330
A1A
100
AcDbEntity
  8
STRINGA
  6
Continuous
100
AcDbLine
 10
424.9706624196077
 20
217.4780468405599
 30
0.0
 11
424.9706624196079
 21
201.9780468405621
 31
0.0
  0
LINE
  5
52B
330
A1A
100
AcDbEntity
  8
STRINGA
  6
HIDDEN2
100
AcDbLine
 10
424.9706624196077
 20
201.9780468405621
 30
0.0
 11
424.9706624196077
 21
186.5780468405621
 31
0.0
  0
LINE
  5
52C
330
A1A
100
AcDbEntity
  8
STRINGA
  6
Continuous
100
AcDbLine
 10
394.3706624196079
 20
229.9780468405629
 30
0.0
 11
394.370662419608
 21
217.4780468405609
 31
0.0
  0
LINE
  5
52D
330
A1A
100
AcDbEntity
  8
STRINGA
  6
Continuous
100
AcDbLine
 10
396.3706624196079
 20
229.9780468405603
 30
0.0
 11
394.3706624196079
 21
229.9780468405604
 31
0.0
  0
LINE
  5
52E
330
A1A
100
AcDbEntity
  8
STRINGA
  6
Continuous
100
AcDbLine
 10
421.7706624196078
 20
229.9780468405609
 30
0.0
 11
421.7706624196076
 21
217.4780468405598
 31
0.0
  0
LINE
  5
52F
330
A1A
100
AcDbEntity
  8
STRINGA
  6
Continuous
100
AcDbLine
 10
424.9706624196077
 20
217.4780468405599
 30
0.0
 11
421.7706624196076
 21
217.4780468405598
 31
0.0
  0
LINE
  5
530
330
A1A
100
AcDbEntity
  8
STRINGA
  6
Continuous
100
AcDbLine
 10
421.7706624196078
 20
229.9780468405604
 30
0.0
 11
419.7706624196078
 21
229.9780468405603
 31
0.0
  0
LINE
  5
531
330
A1A
100
AcDbEntity
  8
STRINGA
  6
Continuous
100
AcDbLine
 10
426.2706624196078
 20
218.9780468405604
 30
0.0
 11
426.2706624196078
 21
201.9780468405621
 31
0.0
  0
LINE
  5
532
330
A1A
100
AcDbEntity
  8
STRINGA
  6
HIDDEN2
100
AcDbLine
 10
426.270662419608
 20
195.4780468405596
 30
0.0
 11
426.2706624196085
 21
201.9780468405621
 31
0.0
  0
LINE
  5
533
330
A1A
100
AcDbEntity
  8
STRINGA
  6
HIDDEN2
100
AcDbLine
 10
427.9706624196077
 20
195.4780468405604
 30
0.0
 11
427.9706624196077
 21
193.9780468405604
 31
0.0
  0
LINE
  5
534
330
A1A
100
AcDbEntity
  8
STRINGA
  6
HIDDEN2
100
AcDbLine
 10
427.9706624196077
 20
193.9780468405604
 30
0.0
 11
426.2706624196078
 21
193.9780468405604
 31
0.0
  0
LINE
  5
535
330
A1A
100
AcDbEntity
  8
STRINGA
  6
HIDDEN2
100
AcDbLine
 10
427.9706624196077
 20
195.4780468405604
 30
0.0
 11
426.2706624196078
 21
195.4780468405604
 31
0.0
  0
LINE
  5
536
330
A1A
100
AcDbEntity
  8
STRINGA
  6
HIDDEN2
100
AcDbLine
 10
426.270662419608
 20
193.9780468405604
 30
0.0
 11
426.2706624196078
 21
186.5780468405621
 31
0.0
  0
LINE
  5
537
330
A1A
100
AcDbEntity
  8
STRINGA
  6
Continuous
100
AcDbLine
 10
421.7706624196076
 20
237.4780468405604
 30
0.0
 11
394.3706624196079
 21
237.4780468405602
 31
0.0
  0
LINE
  5
538
330
A1A
100
AcDbEntity
  8
STRINGA
  6
Continuous
100
AcDbLine
 10
396.3706624196079
 20
230.9780468405605
 30
0.0
 11
394.3706624196079
 21
230.9780468405604
 31
0.0
  0
LINE
  5
539
330
A1A
100
AcDbEntity
  8
STRINGA
  6
Continuous
100
AcDbLine
 10
394.3706624196079
 20
237.4780468405602
 30
0.0
 11
394.3706624196079
 21
230.9780468405615
 31
0.0
  0
LINE
  5
53A
330
A1A
100
AcDbEntity
  8
STRINGA
  6
Continuous
100
AcDbLine
 10
421.7706624196076
 20
237.4780468405604
 30
0.0
 11
421.7706624196078
 21
230.9780468405623
 31
0.0
  0
LINE
  5
53B
330
A1A
100
AcDbEntity
  8
STRINGA
  6
Continuous
100
AcDbLine
 10
421.7706624196078
 20
230.9780468405604
 30
0.0
 11
419.7706624196078
 21
230.9780468405605
 31
0.0
  0
LINE
  5
620
330
A1A
100
AcDbEntity
  8
STRINGA
  6
Continuous
100
AcDbLine
 10
193.8480911862606
 20
363.7775046532669
 30
0.0
 11
193.8480911862608
 21
35.77750465326687
 31
0.0
  0
LINE
  5
6A7
330
A1A
100
AcDbEntity
  8
SUNPOU
100
AcDbLine
 10
392.8706624196079
 20
239.6030468405605
 30
0.0
 11
392.8706624196079
 21
255.2280468405605
 31
0.0
  0
LINE
  5
6A8
330
A1A
100
AcDbEntity
  8
SUNPOU
100
AcDbLine
 10
423.2706624196078
 20
239.6030468405605
 30
0.0
 11
423.2706624196078
 21
255.2280468405605
 31
0.0
  0
LINE
  5
6A9
330
A1A
100
AcDbEntity
  8
SUNPOU
100
AcDbLine
 10
392.8706624196079
 20
253.9780468405604
 30
0.0
 11
423.2706624196078
 21
253.9780468405604
 31
0.0
  0
INSERT
  5
6AA
330
A1A
100
AcDbEntity
  8
STRINGA
100
AcDbBlockReference
  2
*U3
 10
0.0
 20
0.0
 30
0.0
  0
LINE
  5
6AE
330
A1A
100
AcDbEntity
  8
SUNPOU
100
AcDbLine
 10
357.4456623822458
 20
185.9780468405621
 30
0.0
 11
341.8206852704293
 21
185.9780468405621
 31
0.0
  0
LINE
  5
6AF
330
A1A
100
AcDbEntity
  8
SUNPOU
100
AcDbLine
 10
392.2456624196079
 20
238.9780468405604
 30
0.0
 11
341.8206852704293
 21
238.9780468405604
 31
0.0
  0
LINE
  5
6B0
330
A1A
100
AcDbEntity
  8
SUNPOU
100
AcDbLine
 10
343.0706852704293
 20
185.9780468405621
 30
0.0
 11
343.0706852704293
 21
238.9780468405604
 31
0.0
  0
INSERT
  5
6B1
330
A1A
100
AcDbEntity
  8
STRINGA
100
AcDbBlockReference
  2
*U4
 10
0.0
 20
0.0
 30
0.0
  0
POINT
  5
6B2
330
A1A
100
AcDbEntity
  8
DEFPOINTS
  6
ByBlock
 62
     0
100
AcDbPoint
 10
358.0706623822458
 20
185.9780468405621
 30
0.0
  0
LINE
  5
6B5
330
A1A
100
AcDbEntity
  8
SUNPOU
100
AcDbLine
 10
389.870662419608
 20
185.9530468405622
 30
0.0
 11
389.870662419608
 21
169.7280468405621
 31
0.0
  0
LINE
  5
6B6
330
A1A
100
AcDbEntity
  8
SUNPOU
100
AcDbLine
 10
426.2706624196078
 20
185.9530468405622
 30
0.0
 11
426.2706624196078
 21
169.7280468405621
 31
0.0
  0
LINE
  5
6B7
330
A1A
100
AcDbEntity
  8
SUNPOU
100
AcDbLine
 10
389.870662419608
 20
170.9780468405621
 30
0.0
 11
426.2706624196078
 21
170.9780468405621
 31
0.0
  0
INSERT
  5
6B8
330
A1A
100
AcDbEntity
  8
STRINGA
100
AcDbBlockReference
  2
*U5
 10
0.0
 20
0.0
 30
0.0
  0
LINE
  5
836
330
A1A
100
AcDbEntity
  8
STRINGA
100
AcDbLine
 10
160.8480911862649
 20
168.7775046532671
 30
0.0
 11
160.8480911862649
 21
144.777504653266
 31
0.0
  0
LINE
  5
837
330
A1A
100
AcDbEntity
  8
STRINGA
100
AcDbLine
 10
141.4480911862649
 20
146.5344811863143
 30
0.0
 11
141.4480911862649
 21
126.2775836215736
 31
0.0
  0
ARC
  5
838
330
A1A
100
AcDbEntity
  8
STRINGA
100
AcDbCircle
 10
150.9480911862649
 20
146.5344811863144
 30
0.0
 40
9.5
100
AcDbArc
 50
90.0
 51
180.0
  0
LINE
  5
839
330
A1A
100
AcDbEntity
  8
STRINGA
100
AcDbLine
 10
150.9480911862649
 20
156.0344811863143
 30
0.0
 11
150.9480911862649
 21
144.7775046532662
 31
0.0
  0
ARC
  5
83A
330
A1A
100
AcDbEntity
  8
STRINGA
100
AcDbCircle
 10
152.9480911862649
 20
144.7775046532662
 30
0.0
 40
2.0
100
AcDbArc
 50
180.0
 51
270.0
  0
LINE
  5
83B
330
A1A
100
AcDbEntity
  8
STRINGA
100
AcDbLine
 10
160.8480911862615
 20
84.7775046532678
 30
0.0
 11
160.8480911862615
 21
60.77750465326667
 31
0.0
  0
ARC
  5
83C
330
A1A
100
AcDbEntity
  8
STRINGA
100
AcDbCircle
 10
150.9480911862649
 20
83.02052812021925
 30
0.0
 40
9.5
100
AcDbArc
 50
180.0
 51
270.0
  0
LINE
  5
83D
330
A1A
100
AcDbEntity
  8
STRINGA
100
AcDbLine
 10
150.9480911862649
 20
84.77750465326757
 30
0.0
 11
150.9480911862649
 21
73.52052812021923
 31
0.0
  0
ARC
  5
83E
330
A1A
100
AcDbEntity
  8
STRINGA
100
AcDbCircle
 10
152.9480911862649
 20
84.77750465326762
 30
0.0
 40
2.0
100
AcDbArc
 50
90.0
 51
180.0
  0
LINE
  5
83F
330
A1A
100
AcDbEntity
  8
STRINGA
100
AcDbLine
 10
141.4480911893828
 20
103.2775046595028
 30
0.0
 11
141.4480911862649
 21
83.02052812021921
 31
0.0
  0
ARC
  5
840
330
A1A
100
AcDbEntity
  8
STRINGA
100
AcDbCircle
 10
142.4480911831469
 20
126.2775046532667
 30
0.0
 40
1.0
100
AcDbArc
 50
179.99547544929
 51
269.9999999999869
  0
LINE
  5
841
330
A1A
100
AcDbEntity
  8
STRINGA
100
AcDbLine
 10
142.4480911831467
 20
125.2775046532667
 30
0.0
 11
144.648091183147
 21
125.2775046532664
 31
0.0
  0
LINE
  5
842
330
A1A
100
AcDbEntity
  8
STRINGA
100
AcDbLine
 10
145.648091183147
 20
129.3775046532666
 30
0.0
 11
145.648091183147
 21
126.2775046532664
 31
0.0
  0
ARC
  5
843
330
A1A
100
AcDbEntity
  8
STRINGA
100
AcDbCircle
 10
144.6480911831465
 20
126.2775046532665
 30
0.0
 40
1.0
100
AcDbArc
 50
270.0
 51
0.0000000000130276
  0
ARC
  5
844
330
A1A
100
AcDbEntity
  8
STRINGA
100
AcDbCircle
 10
147.0480911831466
 20
129.3775046532666
 30
0.0
 40
1.399999999999987
100
AcDbArc
 50
0.0000000000130276
 51
180.0000000000131
  0
LINE
  5
845
330
A1A
100
AcDbEntity
  8
STRINGA
100
AcDbLine
 10
148.4480911831466
 20
129.3775046532666
 30
0.0
 11
148.4480911925241
 21
120.277504662644
 31
0.0
  0
ARC
  5
846
330
A1A
100
AcDbEntity
  8
STRINGA
100
AcDbCircle
 10
147.4480911925243
 20
120.2775046626443
 30
0.0
 40
1.0
100
AcDbArc
 50
269.9999999999869
 51
0.0
  0
LINE
  5
847
330
A1A
100
AcDbEntity
  8
STRINGA
100
AcDbLine
 10
146.4480911831471
 20
119.2775046532669
 30
0.0
 11
147.4480911925241
 21
119.277504662644
 31
0.0
  0
ARC
  5
848
330
A1A
100
AcDbEntity
  8
STRINGA
100
AcDbCircle
 10
146.4480911831469
 20
118.2775046532667
 30
0.0
 40
1.0
100
AcDbArc
 50
90.0
 51
180.0
  0
LINE
  5
849
330
A1A
100
AcDbEntity
  8
STRINGA
100
AcDbLine
 10
145.4480911831471
 20
118.2775046532667
 30
0.0
 11
145.4480911831467
 21
111.2775046532666
 31
0.0
  0
ARC
  5
84A
330
A1A
100
AcDbEntity
  8
STRINGA
100
AcDbCircle
 10
146.4480911831467
 20
111.2775046532667
 30
0.0
 40
1.0
100
AcDbArc
 50
180.0
 51
270.0
  0
LINE
  5
84B
330
A1A
100
AcDbEntity
  8
STRINGA
100
AcDbLine
 10
146.4480911831467
 20
110.2775046532666
 30
0.0
 11
147.4480911831467
 21
110.2775046532669
 31
0.0
  0
LINE
  5
84C
330
A1A
100
AcDbEntity
  8
STRINGA
100
AcDbLine
 10
148.4480911831466
 20
109.2775046532669
 30
0.0
 11
148.4480911831466
 21
100.1775046532667
 31
0.0
  0
ARC
  5
84D
330
A1A
100
AcDbEntity
  8
STRINGA
100
AcDbCircle
 10
147.4480911831468
 20
109.2775046532669
 30
0.0
 40
1.0
100
AcDbArc
 50
0.0
 51
90.0
  0
ARC
  5
84E
330
A1A
100
AcDbEntity
  8
STRINGA
100
AcDbCircle
 10
142.4480911893828
 20
103.2775046595029
 30
0.0
 40
1.0
100
AcDbArc
 50
90.0
 51
180.0
  0
LINE
  5
84F
330
A1A
100
AcDbEntity
  8
STRINGA
100
AcDbLine
 10
145.6480911841211
 20
103.2775046542407
 30
0.0
 11
145.6480911831468
 21
100.1775046532667
 31
0.0
  0
ARC
  5
850
330
A1A
100
AcDbEntity
  8
STRINGA
100
AcDbCircle
 10
144.6480911841211
 20
103.277504654241
 30
0.0
 40
1.0
100
AcDbArc
 50
0.0
 51
89.99999988834085
  0
ARC
  5
851
330
A1A
100
AcDbEntity
  8
STRINGA
100
AcDbCircle
 10
147.0480911831466
 20
100.177504653267
 30
0.0
 40
1.400000000000066
100
AcDbArc
 50
180.0000000000131
 51
0.0
  0
LINE
  5
852
330
A1A
100
AcDbEntity
  8
STRINGA
100
AcDbLine
 10
142.4480911893827
 20
104.2775046595028
 30
0.0
 11
144.6480911860701
 21
104.2775046542409
 31
0.0
  0
LINE
  5
853
330
A1A
100
AcDbEntity
  8
STRINGA
100
AcDbLine
 10
160.8480911862615
 20
60.77750465326667
 30
0.0
 11
161.1480911862615
 21
60.77750465326667
 31
0.0
  0
LINE
  5
854
330
A1A
100
AcDbEntity
  8
STRINGA
100
AcDbLine
 10
152.9480911862649
 20
142.7775046532662
 30
0.0
 11
158.8480911862649
 21
142.777504653266
 31
0.0
  0
ARC
  5
855
330
A1A
100
AcDbEntity
  8
STRINGA
100
AcDbCircle
 10
158.8480911862649
 20
144.777504653266
 30
0.0
 40
2.0
100
AcDbArc
 50
270.0
 51
0.0
  0
LINE
  5
856
330
A1A
100
AcDbEntity
  8
STRINGA
100
AcDbLine
 10
152.9480911862649
 20
86.77750465326758
 30
0.0
 11
158.8480911862649
 21
86.77750465326779
 31
0.0
  0
ARC
  5
857
330
A1A
100
AcDbEntity
  8
STRINGA
100
AcDbCircle
 10
158.8480911862649
 20
84.77750465326783
 30
0.0
 40
2.0
100
AcDbArc
 50
0.0
 51
90.0
  0
ARC
  5
858
330
A1A
100
AcDbEntity
  8
PANEL
100
AcDbCircle
 10
149.4480911862651
 20
148.1775046532666
 30
0.0
 40
8.600000000000003
100
AcDbArc
 50
60.00000000000006
 51
180.0
  0
LINE
  5
859
330
A1A
100
AcDbEntity
  8
PANEL
100
AcDbLine
 10
140.848091186265
 20
148.1775046532666
 30
0.0
 11
140.848091186265
 21
81.3775046532668
 31
0.0
  0
ARC
  5
85A
330
A1A
100
AcDbEntity
  8
PANEL
100
AcDbCircle
 10
149.4480911862651
 20
81.3775046532668
 30
0.0
 40
8.600000000000136
100
AcDbArc
 50
180.0
 51
300.0
  0
LINE
  5
85B
330
A1A
100
AcDbEntity
  8
PANEL
100
AcDbLine
 10
153.7480911862651
 20
73.9296861807206
 30
0.0
 11
156.848091186265
 21
75.71947201520855
 31
0.0
  0
LINE
  5
85C
330
A1A
100
AcDbEntity
  8
PANEL
100
AcDbLine
 10
156.848091186265
 20
75.71947201520855
 30
0.0
 11
156.548091186265
 21
76.23908725747921
 31
0.0
  0
LINE
  5
85D
330
A1A
100
AcDbEntity
  8
PANEL
100
AcDbLine
 10
156.548091186265
 20
76.23908725747921
 30
0.0
 11
153.4480911862649
 21
74.44930142299134
 31
0.0
  0
ARC
  5
85E
330
A1A
100
AcDbEntity
  8
PANEL
100
AcDbCircle
 10
149.4480911862649
 20
81.3775046532668
 30
0.0
 40
7.999999999999966
100
AcDbArc
 50
180.0
 51
300.0
  0
LINE
  5
85F
330
A1A
100
AcDbEntity
  8
PANEL
100
AcDbLine
 10
141.4480911862649
 20
81.3775046532668
 30
0.0
 11
141.4480911862649
 21
148.1775046532667
 31
0.0
  0
ARC
  5
860
330
A1A
100
AcDbEntity
  8
PANEL
100
AcDbCircle
 10
149.4480911862649
 20
148.1775046532667
 30
0.0
 40
8.0
100
AcDbArc
 50
60.00000000000006
 51
180.0
  0
LINE
  5
861
330
A1A
100
AcDbEntity
  8
PANEL
100
AcDbLine
 10
153.4480911862649
 20
155.1057078835423
 30
0.0
 11
156.5480911862653
 21
153.3159220490543
 31
0.0
  0
LINE
  5
862
330
A1A
100
AcDbEntity
  8
PANEL
100
AcDbLine
 10
156.5480911862653
 20
153.3159220490543
 30
0.0
 11
156.848091186265
 21
153.835537291325
 31
0.0
  0
LINE
  5
863
330
A1A
100
AcDbEntity
  8
PANEL
100
AcDbLine
 10
156.848091186265
 20
153.835537291325
 30
0.0
 11
153.7480911862651
 21
155.6253231258128
 31
0.0
  0
LINE
  5
864
330
A1A
100
AcDbEntity
  8
STRINGA
100
AcDbLine
 10
150.9480911862649
 20
156.0344811863143
 30
0.0
 11
150.9480911862649
 21
73.52052812021927
 31
0.0
  0
LINE
  5
865
330
A1A
100
AcDbEntity
  8
STRINGA
100
AcDbLine
 10
149.4480911862624
 20
155.9153127059608
 30
0.0
 11
149.4480911862624
 21
73.63969660057282
 31
0.0
  0
LINE
  5
866
330
A1A
100
AcDbEntity
  8
STRINGA
100
AcDbLine
 10
160.8480911862649
 20
168.7775046532671
 30
0.0
 11
161.1480911862615
 21
168.7775046532671
 31
0.0
  0
LINE
  5
867
330
A1A
100
AcDbEntity
  8
STRINGA
100
AcDbLine
 10
161.1480911862615
 20
230.7775046532667
 30
0.0
 11
161.1480911862615
 21
168.7775046532671
 31
0.0
  0
LINE
  5
868
330
A1A
100
AcDbEntity
  8
STRINGA
100
AcDbLine
 10
160.8480911862615
 20
230.7775046532667
 30
0.0
 11
161.1480911862615
 21
230.7775046532667
 31
0.0
  0
LINE
  5
904
330
A1A
100
AcDbEntity
  8
STRINGA
100
AcDbLine
 10
160.8480911862649
 20
338.7775046532671
 30
0.0
 11
160.8480911862649
 21
314.777504653266
 31
0.0
  0
LINE
  5
905
330
A1A
100
AcDbEntity
  8
STRINGA
100
AcDbLine
 10
141.4480911862649
 20
316.5344811863144
 30
0.0
 11
141.4480911862649
 21
296.2775836215737
 31
0.0
  0
ARC
  5
906
330
A1A
100
AcDbEntity
  8
STRINGA
100
AcDbCircle
 10
150.9480911862649
 20
316.5344811863144
 30
0.0
 40
9.5
100
AcDbArc
 50
90.0
 51
180.0
  0
LINE
  5
907
330
A1A
100
AcDbEntity
  8
STRINGA
100
AcDbLine
 10
150.9480911862649
 20
326.0344811863144
 30
0.0
 11
150.9480911862649
 21
314.7775046532663
 31
0.0
  0
ARC
  5
908
330
A1A
100
AcDbEntity
  8
STRINGA
100
AcDbCircle
 10
152.9480911862649
 20
314.7775046532663
 30
0.0
 40
2.0
100
AcDbArc
 50
180.0
 51
270.0
  0
LINE
  5
909
330
A1A
100
AcDbEntity
  8
STRINGA
100
AcDbLine
 10
160.8480911862615
 20
254.7775046532679
 30
0.0
 11
160.8480911862615
 21
230.7775046532667
 31
0.0
  0
ARC
  5
90A
330
A1A
100
AcDbEntity
  8
STRINGA
100
AcDbCircle
 10
150.9480911862649
 20
253.0205281202193
 30
0.0
 40
9.5
100
AcDbArc
 50
180.0
 51
270.0
  0
LINE
  5
90B
330
A1A
100
AcDbEntity
  8
STRINGA
100
AcDbLine
 10
150.9480911862649
 20
254.7775046532676
 30
0.0
 11
150.9480911862649
 21
243.5205281202192
 31
0.0
  0
ARC
  5
90C
330
A1A
100
AcDbEntity
  8
STRINGA
100
AcDbCircle
 10
152.9480911862649
 20
254.7775046532676
 30
0.0
 40
2.0
100
AcDbArc
 50
90.0
 51
180.0
  0
LINE
  5
90D
330
A1A
100
AcDbEntity
  8
STRINGA
100
AcDbLine
 10
141.4480911893828
 20
273.2775046595029
 30
0.0
 11
141.4480911862649
 21
253.0205281202193
 31
0.0
  0
ARC
  5
90E
330
A1A
100
AcDbEntity
  8
STRINGA
100
AcDbCircle
 10
142.4480911831469
 20
296.2775046532667
 30
0.0
 40
1.0
100
AcDbArc
 50
179.99547544929
 51
269.9999999999869
  0
LINE
  5
90F
330
A1A
100
AcDbEntity
  8
STRINGA
100
AcDbLine
 10
142.4480911831467
 20
295.2775046532667
 30
0.0
 11
144.648091183147
 21
295.2775046532665
 31
0.0
  0
LINE
  5
910
330
A1A
100
AcDbEntity
  8
STRINGA
100
AcDbLine
 10
145.648091183147
 20
299.3775046532666
 30
0.0
 11
145.648091183147
 21
296.2775046532665
 31
0.0
  0
ARC
  5
911
330
A1A
100
AcDbEntity
  8
STRINGA
100
AcDbCircle
 10
144.6480911831465
 20
296.2775046532665
 30
0.0
 40
1.0
100
AcDbArc
 50
270.0
 51
0.0000000000130276
  0
ARC
  5
912
330
A1A
100
AcDbEntity
  8
STRINGA
100
AcDbCircle
 10
147.0480911831466
 20
299.3775046532666
 30
0.0
 40
1.399999999999987
100
AcDbArc
 50
0.0000000000130276
 51
180.0000000000131
  0
LINE
  5
913
330
A1A
100
AcDbEntity
  8
STRINGA
100
AcDbLine
 10
148.4480911831466
 20
299.3775046532666
 30
0.0
 11
148.4480911925241
 21
290.277504662644
 31
0.0
  0
ARC
  5
914
330
A1A
100
AcDbEntity
  8
STRINGA
100
AcDbCircle
 10
147.4480911925243
 20
290.2775046626442
 30
0.0
 40
1.0
100
AcDbArc
 50
269.9999999999869
 51
0.0
  0
LINE
  5
915
330
A1A
100
AcDbEntity
  8
STRINGA
100
AcDbLine
 10
146.4480911831471
 20
289.2775046532669
 30
0.0
 11
147.4480911925241
 21
289.2775046626441
 31
0.0
  0
ARC
  5
916
330
A1A
100
AcDbEntity
  8
STRINGA
100
AcDbCircle
 10
146.4480911831469
 20
288.2775046532667
 30
0.0
 40
1.0
100
AcDbArc
 50
90.0
 51
180.0
  0
LINE
  5
917
330
A1A
100
AcDbEntity
  8
STRINGA
100
AcDbLine
 10
145.4480911831471
 20
288.2775046532667
 30
0.0
 11
145.4480911831467
 21
281.2775046532667
 31
0.0
  0
ARC
  5
918
330
A1A
100
AcDbEntity
  8
STRINGA
100
AcDbCircle
 10
146.4480911831467
 20
281.2775046532667
 30
0.0
 40
1.0
100
AcDbArc
 50
180.0
 51
270.0
  0
LINE
  5
919
330
A1A
100
AcDbEntity
  8
STRINGA
100
AcDbLine
 10
146.4480911831467
 20
280.2775046532667
 30
0.0
 11
147.4480911831467
 21
280.2775046532669
 31
0.0
  0
LINE
  5
91A
330
A1A
100
AcDbEntity
  8
STRINGA
100
AcDbLine
 10
148.4480911831466
 20
279.2775046532669
 30
0.0
 11
148.4480911831466
 21
270.1775046532668
 31
0.0
  0
ARC
  5
91B
330
A1A
100
AcDbEntity
  8
STRINGA
100
AcDbCircle
 10
147.4480911831468
 20
279.2775046532669
 30
0.0
 40
1.0
100
AcDbArc
 50
0.0
 51
90.0
  0
ARC
  5
91C
330
A1A
100
AcDbEntity
  8
STRINGA
100
AcDbCircle
 10
142.4480911893828
 20
273.2775046595029
 30
0.0
 40
1.0
100
AcDbArc
 50
90.0
 51
180.0
  0
LINE
  5
91D
330
A1A
100
AcDbEntity
  8
STRINGA
100
AcDbLine
 10
145.6480911841211
 20
273.2775046542408
 30
0.0
 11
145.6480911831468
 21
270.1775046532668
 31
0.0
  0
ARC
  5
91E
330
A1A
100
AcDbEntity
  8
STRINGA
100
AcDbCircle
 10
144.6480911841211
 20
273.277504654241
 30
0.0
 40
1.0
100
AcDbArc
 50
0.0
 51
89.99999988834085
  0
ARC
  5
91F
330
A1A
100
AcDbEntity
  8
STRINGA
100
AcDbCircle
 10
147.0480911831466
 20
270.177504653267
 30
0.0
 40
1.400000000000066
100
AcDbArc
 50
180.0000000000131
 51
0.0
  0
LINE
  5
920
330
A1A
100
AcDbEntity
  8
STRINGA
100
AcDbLine
 10
142.4480911893827
 20
274.2775046595029
 30
0.0
 11
144.6480911860701
 21
274.277504654241
 31
0.0
  0
LINE
  5
921
330
A1A
100
AcDbEntity
  8
STRINGA
100
AcDbLine
 10
152.9480911862649
 20
312.7775046532663
 30
0.0
 11
158.8480911862649
 21
312.777504653266
 31
0.0
  0
ARC
  5
922
330
A1A
100
AcDbEntity
  8
STRINGA
100
AcDbCircle
 10
158.8480911862649
 20
314.777504653266
 30
0.0
 40
2.0
100
AcDbArc
 50
270.0
 51
0.0
  0
LINE
  5
923
330
A1A
100
AcDbEntity
  8
STRINGA
100
AcDbLine
 10
152.9480911862649
 20
256.7775046532676
 30
0.0
 11
158.8480911862649
 21
256.7775046532678
 31
0.0
  0
ARC
  5
924
330
A1A
100
AcDbEntity
  8
STRINGA
100
AcDbCircle
 10
158.8480911862649
 20
254.7775046532679
 30
0.0
 40
2.0
100
AcDbArc
 50
0.0
 51
90.0
  0
ARC
  5
925
330
A1A
100
AcDbEntity
  8
PANEL
100
AcDbCircle
 10
149.4480911862651
 20
318.1775046532667
 30
0.0
 40
8.600000000000003
100
AcDbArc
 50
60.00000000000006
 51
180.0
  0
LINE
  5
926
330
A1A
100
AcDbEntity
  8
PANEL
100
AcDbLine
 10
140.848091186265
 20
318.1775046532667
 30
0.0
 11
140.848091186265
 21
251.3775046532669
 31
0.0
  0
ARC
  5
927
330
A1A
100
AcDbEntity
  8
PANEL
100
AcDbCircle
 10
149.4480911862651
 20
251.3775046532669
 30
0.0
 40
8.600000000000136
100
AcDbArc
 50
180.0
 51
300.0
  0
LINE
  5
928
330
A1A
100
AcDbEntity
  8
PANEL
100
AcDbLine
 10
153.7480911862651
 20
243.9296861807206
 30
0.0
 11
156.848091186265
 21
245.7194720152085
 31
0.0
  0
LINE
  5
929
330
A1A
100
AcDbEntity
  8
PANEL
100
AcDbLine
 10
156.848091186265
 20
245.7194720152085
 30
0.0
 11
156.548091186265
 21
246.2390872574792
 31
0.0
  0
LINE
  5
92A
330
A1A
100
AcDbEntity
  8
PANEL
100
AcDbLine
 10
156.548091186265
 20
246.2390872574792
 30
0.0
 11
153.4480911862649
 21
244.4493014229914
 31
0.0
  0
ARC
  5
92B
330
A1A
100
AcDbEntity
  8
PANEL
100
AcDbCircle
 10
149.4480911862649
 20
251.3775046532669
 30
0.0
 40
7.999999999999966
100
AcDbArc
 50
180.0
 51
300.0
  0
LINE
  5
92C
330
A1A
100
AcDbEntity
  8
PANEL
100
AcDbLine
 10
141.4480911862649
 20
251.3775046532669
 30
0.0
 11
141.4480911862649
 21
318.1775046532667
 31
0.0
  0
ARC
  5
92D
330
A1A
100
AcDbEntity
  8
PANEL
100
AcDbCircle
 10
149.4480911862649
 20
318.1775046532668
 30
0.0
 40
8.0
100
AcDbArc
 50
60.00000000000006
 51
180.0
  0
LINE
  5
92E
330
A1A
100
AcDbEntity
  8
PANEL
100
AcDbLine
 10
153.4480911862649
 20
325.1057078835423
 30
0.0
 11
156.5480911862653
 21
323.3159220490543
 31
0.0
  0
LINE
  5
92F
330
A1A
100
AcDbEntity
  8
PANEL
100
AcDbLine
 10
156.5480911862653
 20
323.3159220490543
 30
0.0
 11
156.848091186265
 21
323.835537291325
 31
0.0
  0
LINE
  5
930
330
A1A
100
AcDbEntity
  8
PANEL
100
AcDbLine
 10
156.848091186265
 20
323.835537291325
 30
0.0
 11
153.7480911862651
 21
325.6253231258128
 31
0.0
  0
LINE
  5
931
330
A1A
100
AcDbEntity
  8
STRINGA
100
AcDbLine
 10
150.9480911862649
 20
326.0344811863144
 30
0.0
 11
150.9480911862649
 21
243.5205281202192
 31
0.0
  0
LINE
  5
932
330
A1A
100
AcDbEntity
  8
STRINGA
100
AcDbLine
 10
149.4480911862624
 20
325.9153127059608
 30
0.0
 11
149.4480911862624
 21
243.6396966005728
 31
0.0
  0
LINE
  5
933
330
A1A
100
AcDbEntity
  8
STRINGA
100
AcDbLine
 10
160.8480911862649
 20
338.7775046532671
 30
0.0
 11
161.1480911862615
 21
338.7775046532671
 31
0.0
  0
LINE
  5
938
330
A1A
100
AcDbEntity
  8
STRINGA
  6
Continuous
100
AcDbLine
 10
173.8480911862606
 20
363.7775046532669
 30
0.0
 11
173.8480911862608
 21
35.7775046532669
 31
0.0
  0
LINE
  5
945
330
A1A
100
AcDbEntity
  8
STRINGA
100
AcDbLine
 10
161.1480911862615
 20
363.7775046532669
 30
0.0
 11
161.1480911862615
 21
338.7775046532671
 31
0.0
  0
LINE
  5
946
330
A1A
100
AcDbEntity
  8
STRINGA
100
AcDbLine
 10
161.1480911862614
 20
60.77750465326667
 30
0.0
 11
161.1480911862614
 21
35.7775046532669
 31
0.0
  0
DIMENSION
  5
C92
330
A1A
100
AcDbEntity
  8
SUNPOU
100
AcDbDimension
280
     0
  2
*D14
 10
193.8480911862606
 20
375.3378091220926
 30
0.0
 11
167.3480911862628
 21
378.9628091220926
 31
0.0
 70
    32
 71
     5
 42
52.99999999999562
 73
     0
 74
     0
 75
     0
  3
STANDARD
100
AcDbAlignedDimension
 13
140.848091186265
 23
318.1775046532667
 33
0.0
 14
193.8480911862606
 24
363.7775046532669
 34
0.0
100
AcDbRotatedDimension
1001
ACAD
1000
DSTYLE
1002
{
1070
   140
1040
6.0
1070
   173
1070
     1
1070
   274
1070
     2
1070
   279
1070
     0
1070
   284
1070
     0
1070
   285
1070
     0
1070
   286
1070
     0
1070
   341
1005
A2D
1070
   343
1005
A2D
1070
   344
1005
A2D
1002
}
  0
DIMENSION
  5
CD1
330
A1A
100
AcDbEntity
  8
SUNPOU
100
AcDbDimension
280
     0
  2
*D17
 10
126.1684629940374
 20
326.7775046532668
 30
0.0
 11
122.5434629940374
 21
284.7775046532667
 31
0.0
 70
    32
 71
     5
 42
83.99999999999991
 73
     0
 74
     0
 75
     0
  3
STANDARD
100
AcDbAlignedDimension
 13
149.4480911862651
 23
242.7775046532667
 33
0.0
 14
149.4480911862651
 24
326.7775046532667
 34
0.0
 50
90.0
100
AcDbRotatedDimension
1001
ACAD
1000
DSTYLE
1002
{
1070
   140
1040
6.0
1070
   173
1070
     1
1070
   274
1070
     2
1070
   279
1070
     0
1070
   284
1070
     0
1070
   285
1070
     0
1070
   286
1070
     0
1070
   341
1005
A2D
1070
   343
1005
A2D
1070
   344
1005
A2D
1002
}
  0
DIMENSION
  5
CDD
330
A1A
100
AcDbEntity
  8
SUNPOU
100
AcDbDimension
280
     0
  2
*D18
 10
126.1684629940374
 20
242.7775046532669
 30
0.0
 11
122.5434629940375
 21
199.7775046532667
 31
0.0
 70
    32
 71
     5
 42
86.0000000000002
 73
     0
 74
     0
 75
     0
  3
STANDARD
100
AcDbAlignedDimension
 13
149.4480911862624
 23
156.7775046532666
 33
0.0
 14
149.4480911862624
 24
242.7775046532667
 34
0.0
 50
90.0
100
AcDbRotatedDimension
1001
ACAD
1000
DSTYLE
1002
{
1070
   140
1040
6.0
1070
   173
1070
     1
1070
   274
1070
     2
1070
   279
1070
     0
1070
   284
1070
     0
1070
   285
1070
     0
1070
   286
1070
     0
1070
   341
1005
A2D
1070
   343
1005
A2D
1070
   344
1005
A2D
1002
}
  0
DIMENSION
  5
CEC
330
A1A
100
AcDbEntity
  8
SUNPOU
100
AcDbDimension
280
     0
  2
*D19
 10
100.7288632211631
 20
114.7775046532662
 30
0.0
 11
97.10386322116308
 21
199.7775046532666
 31
0.0
 70
    32
 71
     5
 42
170.0000000000009
 73
     0
 74
     0
 75
     0
  3
STANDARD
100
AcDbAlignedDimension
 13
140.848091186265
 23
284.7775046532671
 33
0.0
 14
140.848091186265
 24
114.7775046532662
 34
0.0
 50
90.0
100
AcDbRotatedDimension
1001
ACAD
1000
DSTYLE
1002
{
1070
   140
1040
6.0
1070
   173
1070
     1
1070
   274
1070
     2
1070
   279
1070
     0
1070
   284
1070
     0
1070
   285
1070
     0
1070
   286
1070
     0
1070
   341
1005
A2D
1070
   343
1005
A2D
1070
   344
1005
A2D
1002
}
  0
VIEWPORT
  5
22
330
A16
100
AcDbEntity
 67
     1
  8
0
100
AcDbViewport
 10
261.5176991150442
 20
148.5
 30
0.0
 40
523.0353982300885
 41
297.0
 68
     1
 69
     1
 12
261.5176991150442
 22
148.5
 13
0.0
 23
0.0
 14
1.0
 24
1.0
 15
10.0
 25
10.0
 16
0.0
 26
0.0
 36
1.0
 17
0.0
 27
0.0
 37
0.0
 42
50.0
 43
0.0
 44
0.0
 45
297.0
 50
0.0
 51
0.0
 72
   100
 90
    32800
  1

281
     0
 71
     0
 74
     0
110
0.0
120
0.0
130
0.0
111
1.0
121
0.0
131
0.0
112
0.0
122
1.0
132
0.0
 79
     0
146
0.0
170
     0
 61
     5
348
9DA
292
     1
282
     1
141
0.0
142
0.0
 63
   250
421
  3355443
  0
ENDSEC
  0
SECTION
  2
OBJECTS
  0
DICTIONARY
  5
9B7
330
0
100
AcDbDictionary
281
     1
  3
ACAD_CIP_PREVIOUS_PRODUCT_INFO
350
A40
  3
ACAD_COLOR
350
A0D
  3
ACAD_DETAILVIEWSTYLE
350
A14
  3
ACAD_GROUP
350
9B8
  3
ACAD_LAYOUT
350
A0C
  3
ACAD_MATERIAL
350
9BB
  3
ACAD_MLEADERSTYLE
350
A10
  3
ACAD_MLINESTYLE
350
A09
  3
ACAD_PLOTSETTINGS
350
A0B
  3
ACAD_PLOTSTYLENAME
350
9B9
  3
ACAD_SCALELIST
350
9ED
  3
ACAD_SECTIONVIEWSTYLE
350
A12
  3
ACAD_TABLESTYLE
350
A0E
  3
ACAD_VISUALSTYLE
350
9D4
  3
ACDB_RECOMPOSE_DATA
350
D0E
  3
AcDbVariableDictionary
350
D02
  0
DICTIONARY
  5
CF8
330
9FF
100
AcDbDictionary
280
     1
281
     1
  3
ADSK_XREC_LAYER_RECONCILED
360
CF9
  0
DICTIONARY
  5
CFA
330
A1E
100
AcDbDictionary
280
     1
281
     1
  3
ADSK_XREC_LAYER_RECONCILED
360
CFB
  0
DICTIONARY
  5
CFC
330
A22
100
AcDbDictionary
280
     1
281
     1
  3
ADSK_XREC_LAYER_RECONCILED
360
CFD
  0
DICTIONARY
  5
CFE
330
A23
100
AcDbDictionary
280
     1
281
     1
  3
ADSK_XREC_LAYER_RECONCILED
360
CFF
  0
DICTIONARY
  5
D00
330
A24
100
AcDbDictionary
280
     1
281
     1
  3
ADSK_XREC_LAYER_RECONCILED
360
D01
  0
DICTIONARY
  5
CE9
330
A1A
100
AcDbDictionary
280
     1
281
     1
  3
ACAD_SORTENTS
360
CEA
  0
XRECORD
  5
A40
102
{ACAD_REACTORS
330
9B7
102
}
330
9B7
100
AcDbXrecord
280
     1
300
ACD
300
2022
300

  0
DICTIONARY
  5
A0D
102
{ACAD_REACTORS
330
9B7
102
}
330
9B7
100
AcDbDictionary
281
     1
  0
DICTIONARY
  5
A14
102
{ACAD_REACTORS
330
9B7
102
}
330
9B7
100
AcDbDictionary
281
     1
  3
Imperial24
350
A15
  0
DICTIONARY
  5
9B8
102
{ACAD_REACTORS
330
9B7
102
}
330
9B7
100
AcDbDictionary
281
     1
  0
DICTIONARY
  5
A0C
102
{ACAD_REACTORS
330
9B7
102
}
330
9B7
100
AcDbDictionary
281
     1
  3
Model
350
A1D
  3
レイアウト1
350
A19
  0
DICTIONARY
  5
9BB
102
{ACAD_REACTORS
330
9B7
102
}
330
9B7
100
AcDbDictionary
281
     1
  3
ByBlock
350
9C4
  3
ByLayer
350
9BC
  3
Global
350
9CC
  0
DICTIONARY
  5
A10
102
{ACAD_REACTORS
330
9B7
102
}
330
9B7
100
AcDbDictionary
281
     1
  3
Standard
350
A11
  0
DICTIONARY
  5
A09
102
{ACAD_REACTORS
330
9B7
102
}
330
9B7
100
AcDbDictionary
281
     1
  3
Standard
350
A0A
  0
DICTIONARY
  5
A0B
102
{ACAD_REACTORS
330
9B7
102
}
330
9B7
100
AcDbDictionary
281
     1
  0
ACDBDICTIONARYWDFLT
  5
9B9
102
{ACAD_REACTORS
330
9B7
102
}
330
9B7
100
AcDbDictionary
281
     1
  3
Normal
350
9BA
100
AcDbDictionaryWithDefault
340
9BA
  0
DICTIONARY
  5
9ED
102
{ACAD_REACTORS
330
9B7
102
}
330
9B7
100
AcDbDictionary
281
     1
  3
A0
350
9EE
  3
A1
350
9EF
  3
A2
350
9F0
  3
A3
350
9F1
  3
A4
350
9F2
  3
A5
350
9F3
  3
A6
350
9F4
  3
A7
350
9F5
  3
A8
350
9F6
  3
A9
350
9F7
  3
B0
350
9F8
  3
B1
350
9F9
  3
B2
350
9FA
  3
B3
350
9FB
  3
B4
350
9FC
  3
B5
350
9FD
  3
B6
350
9FE
  0
DICTIONARY
  5
A12
102
{ACAD_REACTORS
330
9B7
102
}
330
9B7
100
AcDbDictionary
281
     1
  3
Imperial24
350
A13
  0
DICTIONARY
  5
A0E
102
{ACAD_REACTORS
330
9B7
102
}
330
9B7
100
AcDbDictionary
281
     1
  3
Standard
350
A0F
  0
DICTIONARY
  5
9D4
102
{ACAD_REACTORS
330
9B7
102
}
330
9B7
100
AcDbDictionary
281
     1
  3
2dWireframe
350
9DA
  3
Basic
350
9D9
  3
Brighten
350
9E0
  3
ColorChange
350
9E4
  3
Conceptual
350
9DD
  3
Dim
350
9DF
  3
EdgeColorOff
350
9EC
  3
Facepattern
350
9E3
  3
Flat
350
9D5
  3
FlatWithEdges
350
9D6
  3
Gouraud
350
9D7
  3
GouraudWithEdges
350
9D8
  3
Hidden
350
9DC
  3
JitterOff
350
9EA
  3
Linepattern
350
9E2
  3
OverhangOff
350
9EB
  3
Realistic
350
9DE
  3
Shaded
350
9E9
  3
Shaded with edges
350
9E8
  3
Shades of Gray
350
9E5
  3
Sketchy
350
9E6
  3
Thicken
350
9E1
  3
Wireframe
350
9DB
  3
X-Ray
350
9E7
  0
XRECORD
  5
D0E
102
{ACAD_REACTORS
330
9B7
102
}
330
9B7
100
AcDbXrecord
280
     1
 90
        1
330
A0F
  0
DICTIONARY
  5
D02
102
{ACAD_REACTORS
330
9B7
102
}
330
9B7
100
AcDbDictionary
281
     1
  3
CANNOSCALE
350
D08
  3
CMLEADERSTYLE
350
D04
  3
CTABLESTYLE
350
D03
  3
CVIEWDETAILSTYLE
350
D05
  3
CVIEWSECTIONSTYLE
350
D06
  3
LAYEREVAL
350
D0A
  3
LAYERNOTIFY
350
D0B
  3
LIGHTINGUNITS
350
D09
  3
MSLTSCALE
350
D07
  0
XRECORD
  5
CF9
102
{ACAD_REACTORS
330
CF8
102
}
330
CF8
100
AcDbXrecord
280
     1
290
     1
  0
XRECORD
  5
CFB
102
{ACAD_REACTORS
330
CFA
102
}
330
CFA
100
AcDbXrecord
280
     1
290
     1
  0
XRECORD
  5
CFD
102
{ACAD_REACTORS
330
CFC
102
}
330
CFC
100
AcDbXrecord
280
     1
290
     1
  0
XRECORD
  5
CFF
102
{ACAD_REACTORS
330
CFE
102
}
330
CFE
100
AcDbXrecord
280
     1
290
     1
  0
XRECORD
  5
D01
102
{ACAD_REACTORS
330
D00
102
}
330
D00
100
AcDbXrecord
280
     1
290
     1
  0
SORTENTSTABLE
  5
CEA
102
{ACAD_REACTORS
330
CE9
102
}
330
CE9
100
AcDbSortentsTable
330
A1A
331
855
  5
856
331
856
  5
857
331
857
  5
858
331
858
  5
859
331
859
  5
85A
331
85A
  5
85B
331
85B
  5
85C
331
85C
  5
85D
331
85D
  5
85E
331
85E
  5
85F
331
85F
  5
860
331
860
  5
861
331
861
  5
862
331
862
  5
863
331
863
  5
864
331
864
  5
865
331
865
  5
866
331
866
  5
867
331
867
  5
868
331
868
  5
904
331
904
  5
905
331
905
  5
906
331
906
  5
907
331
907
  5
908
331
908
  5
909
331
909
  5
90A
331
90A
  5
90B
331
90B
  5
90C
331
90C
  5
90D
331
90D
  5
90E
331
90E
  5
90F
331
90F
  5
910
331
910
  5
911
331
911
  5
912
331
912
  5
913
331
913
  5
914
331
914
  5
915
331
915
  5
916
331
916
  5
917
331
917
  5
918
331
918
  5
919
331
919
  5
91A
331
91A
  5
91B
331
91B
  5
91C
331
91C
  5
91D
331
91D
  5
91E
331
91E
  5
91F
331
91F
  5
920
331
920
  5
921
331
921
  5
922
331
922
  5
923
331
923
  5
924
331
924
  5
926
331
925
  5
927
331
926
  5
928
331
927
  5
929
331
928
  5
92A
331
929
  5
92B
331
92A
  5
92C
331
92B
  5
92D
331
92C
  5
92E
331
92D
  5
92F
331
92E
  5
930
331
92F
  5
931
331
930
  5
932
331
931
  5
933
331
932
  5
938
331
933
  5
945
331
938
  5
946
331
945
  5
C92
331
946
  5
CD1
331
C92
  5
CDD
331
CD1
  5
CE8
331
CDD
  5
CEB
  0
ACDBDETAILVIEWSTYLE
  5
A15
102
{ACAD_REACTORS
330
A14
102
}
330
A14
100
AcDbModelDocViewStyle
 70
     0
  3
Imperial24
290
     0
300
Imperial24
 90
        0
100
AcDbDetailViewStyle
 70
     0
 71
     0
 90
        3
 71
     1
340
A00
 62
   256
 40
0.24
340
0
 62
   256
 40
0.24
300

 40
0.36
280
     3
 71
     2
340
A07
 90
       25
 62
   256
 71
     3
340
A00
 62
   256
 40
0.24
 90
        1
 40
0.75
 90
        1
300
%<\AcVar ViewType \f "%tc1">% %<\AcVar ViewDetailId>%\PSCALE %<\AcVar ViewScale \f "%sn">%
 71
     4
340
A07
 90
       25
 62
   256
340
A07
 90
       25
 62
   256
280
     0
  0
LAYOUT
  5
A1D
102
{ACAD_REACTORS
330
A0C
102
}
330
A0C
100
AcDbPlotSettings
  1

  2
RICOH MP C2503 JPN RPCS V2
  4

  6

 40
0.0
 41
0.0
 42
0.0
 43
0.0
 44
0.0
 45
0.0
 46
0.0
 47
0.0
 48
0.0
 49
0.0
140
0.0
141
0.0
142
1.0
143
1.0
 70
  1712
 72
     0
 73
     0
 74
     0
  7

 75
     0
147
1.0
 76
     0
 77
     2
 78
   300
148
0.0
149
0.0
100
AcDbLayout
  1
Model
 70
     1
 71
     0
 10
0.0
 20
0.0
 11
12.0
 21
9.0
 12
0.0
 22
0.0
 32
0.0
 14
0.0
 24
0.0
 34
0.0
 15
0.0
 25
0.0
 35
0.0
146
0.0
 13
0.0
 23
0.0
 33
0.0
 16
1.0
 26
0.0
 36
0.0
 17
0.0
 27
1.0
 37
0.0
 76
     0
330
A1A
331
A1F
  0
LAYOUT
  5
A19
102
{ACAD_REACTORS
330
A0C
102
}
330
A0C
100
AcDbPlotSettings
  1

  2
RICOH MP C2503 JPN RPCS V2
  4

  6

 40
0.0
 41
0.0
 42
0.0
 43
0.0
 44
0.0
 45
0.0
 46
0.0
 47
0.0
 48
0.0
 49
0.0
140
0.0
141
0.0
142
1.0
143
1.0
 70
   688
 72
     0
 73
     0
 74
     5
  7

 75
    16
147
1.0
 76
     0
 77
     2
 78
   300
148
0.0
149
0.0
100
AcDbLayout
  1
レイアウト1
 70
     1
 71
     1
 10
0.0
 20
0.0
 11
420.0
 21
297.0
 12
0.0
 22
0.0
 32
0.0
 14
1.000000000000000E+20
 24
1.000000000000000E+20
 34
1.000000000000000E+20
 15
-1.000000000000000E+20
 25
-1.000000000000000E+20
 35
-1.000000000000000E+20
146
0.0
 13
0.0
 23
0.0
 33
0.0
 16
1.0
 26
0.0
 36
0.0
 17
0.0
 27
1.0
 37
0.0
 76
     0
330
A16
331
22
  0
MATERIAL
  5
9C4
102
{ACAD_XDICTIONARY
360
9C5
102
}
102
{ACAD_REACTORS
330
9BB
102
}
330
9BB
100
AcDbMaterial
  1
ByBlock
 72
     0
 43
0.0208333333333333
 43
0.0
 43
0.0
 43
0.0
 43
0.0
 43
0.0208333333333333
 43
0.0
 43
0.0
 43
0.0
 43
0.0
 43
1.0
 43
0.0
 43
0.0
 43
0.0
 43
0.0
 43
1.0
 77
     0
 47
0.0208333333333333
 47
0.0
 47
0.0
 47
0.0
 47
0.0
 47
0.0208333333333333
 47
0.0
 47
0.0
 47
0.0
 47
0.0
 47
1.0
 47
0.0
 47
0.0
 47
0.0
 47
0.0
 47
1.0
171
     0
 49
0.0208333333333333
 49
0.0
 49
0.0
 49
0.0
 49
0.0
 49
0.0208333333333333
 49
0.0
 49
0.0
 49
0.0
 49
0.0
 49
1.0
 49
0.0
 49
0.0
 49
0.0
 49
0.0
 49
1.0
175
     0
142
0.0208333333333333
142
0.0
142
0.0
142
0.0
142
0.0
142
0.0208333333333333
142
0.0
142
0.0
142
0.0
142
0.0
142
1.0
142
0.0
142
0.0
142
0.0
142
0.0
142
1.0
179
     0
144
0.0208333333333333
144
0.0
144
0.0
144
0.0
144
0.0
144
0.0208333333333333
144
0.0
144
0.0
144
0.0
144
0.0
144
1.0
144
0.0
144
0.0
144
0.0
144
0.0
144
1.0
147
0.0208333333333333
147
0.0
147
0.0
147
0.0
147
0.0
147
0.0208333333333333
147
0.0
147
0.0
147
0.0
147
0.0
147
1.0
147
0.0
147
0.0
147
0.0
147
0.0
147
1.0
  0
MATERIAL
  5
9BC
102
{ACAD_XDICTIONARY
360
9BD
102
}
102
{ACAD_REACTORS
330
9BB
102
}
330
9BB
100
AcDbMaterial
  1
ByLayer
 72
     0
 43
0.0208333333333333
 43
0.0
 43
0.0
 43
0.0
 43
0.0
 43
0.0208333333333333
 43
0.0
 43
0.0
 43
0.0
 43
0.0
 43
1.0
 43
0.0
 43
0.0
 43
0.0
 43
0.0
 43
1.0
 77
     0
 47
0.0208333333333333
 47
0.0
 47
0.0
 47
0.0
 47
0.0
 47
0.0208333333333333
 47
0.0
 47
0.0
 47
0.0
 47
0.0
 47
1.0
 47
0.0
 47
0.0
 47
0.0
 47
0.0
 47
1.0
171
     0
 49
0.0208333333333333
 49
0.0
 49
0.0
 49
0.0
 49
0.0
 49
0.0208333333333333
 49
0.0
 49
0.0
 49
0.0
 49
0.0
 49
1.0
 49
0.0
 49
0.0
 49
0.0
 49
0.0
 49
1.0
175
     0
142
0.0208333333333333
142
0.0
142
0.0
142
0.0
142
0.0
142
0.0208333333333333
142
0.0
142
0.0
142
0.0
142
0.0
142
1.0
142
0.0
142
0.0
142
0.0
142
0.0
142
1.0
179
     0
144
0.0208333333333333
144
0.0
144
0.0
144
0.0
144
0.0
144
0.0208333333333333
144
0.0
144
0.0
144
0.0
144
0.0
144
1.0
144
0.0
144
0.0
144
0.0
144
0.0
144
1.0
147
0.0208333333333333
147
0.0
147
0.0
147
0.0
147
0.0
147
0.0208333333333333
147
0.0
147
0.0
147
0.0
147
0.0
147
1.0
147
0.0
147
0.0
147
0.0
147
0.0
147
1.0
  0
MATERIAL
  5
9CC
102
{ACAD_XDICTIONARY
360
9CD
102
}
102
{ACAD_REACTORS
330
9BB
102
}
330
9BB
100
AcDbMaterial
  1
Global
 72
     0
 43
0.0208333333333333
 43
0.0
 43
0.0
 43
0.0
 43
0.0
 43
0.0208333333333333
 43
0.0
 43
0.0
 43
0.0
 43
0.0
 43
1.0
 43
0.0
 43
0.0
 43
0.0
 43
0.0
 43
1.0
 77
     0
 47
0.0208333333333333
 47
0.0
 47
0.0
 47
0.0
 47
0.0
 47
0.0208333333333333
 47
0.0
 47
0.0
 47
0.0
 47
0.0
 47
1.0
 47
0.0
 47
0.0
 47
0.0
 47
0.0
 47
1.0
171
     0
 49
0.0208333333333333
 49
0.0
 49
0.0
 49
0.0
 49
0.0
 49
0.0208333333333333
 49
0.0
 49
0.0
 49
0.0
 49
0.0
 49
1.0
 49
0.0
 49
0.0
 49
0.0
 49
0.0
 49
1.0
175
     0
142
0.0208333333333333
142
0.0
142
0.0
142
0.0
142
0.0
142
0.0208333333333333
142
0.0
142
0.0
142
0.0
142
0.0
142
1.0
142
0.0
142
0.0
142
0.0
142
0.0
142
1.0
179
     0
144
0.0208333333333333
144
0.0
144
0.0
144
0.0
144
0.0
144
0.0208333333333333
144
0.0
144
0.0
144
0.0
144
0.0
144
1.0
144
0.0
144
0.0
144
0.0
144
0.0
144
1.0
147
0.0208333333333333
147
0.0
147
0.0
147
0.0
147
0.0
147
0.0208333333333333
147
0.0
147
0.0
147
0.0
147
0.0
147
1.0
147
0.0
147
0.0
147
0.0
147
0.0
147
1.0
  0
MLEADERSTYLE
  5
A11
102
{ACAD_REACTORS
330
A10
102
}
330
A10
100
AcDbMLeaderStyle
179
     2
170
     2
171
     1
172
     0
 90
        2
 40
0.0
 41
0.0
173
     1
 91
-1056964608
340
A05
 92
       -2
290
     1
 42
0.09
291
     1
 43
0.36
  3
Standard
 44
0.18
300

342
A00
174
     1
178
     6
175
     1
176
     0
 93
-1056964608
 45
0.18
292
     0
297
     0
 46
0.18
 94
-1056964608
 47
1.0
 49
1.0
140
1.0
293
     1
141
0.0
294
     1
177
     0
142
1.0
295
     0
296
     0
143
0.125
271
     0
272
     9
273
     9
298
     0
  0
MLINESTYLE
  5
A0A
102
{ACAD_REACTORS
330
A09
102
}
330
A09
100
AcDbMlineStyle
  2
STANDARD
 70
     0
  3

 62
   256
 51
90.0
 52
90.0
 71
     2
 49
0.5
 62
   256
  6
BYLAYER
 49
-0.5
 62
   256
  6
BYLAYER
  0
ACDBPLACEHOLDER
  5
9BA
102
{ACAD_REACTORS
330
9B9
102
}
330
9B9
  0
SCALE
  5
9EE
102
{ACAD_REACTORS
330
9ED
102
}
330
9ED
100
AcDbScale
 70
     0
300
1:1
140
1.0
141
1.0
290
     1
  0
SCALE
  5
9EF
102
{ACAD_REACTORS
330
9ED
102
}
330
9ED
100
AcDbScale
 70
     0
300
1/128" = 1'-0"
140
0.0078125
141
12.0
290
     0
  0
SCALE
  5
9F0
102
{ACAD_REACTORS
330
9ED
102
}
330
9ED
100
AcDbScale
 70
     0
300
1/64" = 1'-0"
140
0.015625
141
12.0
290
     0
  0
SCALE
  5
9F1
102
{ACAD_REACTORS
330
9ED
102
}
330
9ED
100
AcDbScale
 70
     0
300
1/32" = 1'-0"
140
0.03125
141
12.0
290
     0
  0
SCALE
  5
9F2
102
{ACAD_REACTORS
330
9ED
102
}
330
9ED
100
AcDbScale
 70
     0
300
1/16" = 1'-0"
140
0.0625
141
12.0
290
     0
  0
SCALE
  5
9F3
102
{ACAD_REACTORS
330
9ED
102
}
330
9ED
100
AcDbScale
 70
     0
300
3/32" = 1'-0"
140
0.09375
141
12.0
290
     0
  0
SCALE
  5
9F4
102
{ACAD_REACTORS
330
9ED
102
}
330
9ED
100
AcDbScale
 70
     0
300
1/8" = 1'-0"
140
0.125
141
12.0
290
     0
  0
SCALE
  5
9F5
102
{ACAD_REACTORS
330
9ED
102
}
330
9ED
100
AcDbScale
 70
     0
300
3/16" = 1'-0"
140
0.1875
141
12.0
290
     0
  0
SCALE
  5
9F6
102
{ACAD_REACTORS
330
9ED
102
}
330
9ED
100
AcDbScale
 70
     0
300
1/4" = 1'-0"
140
0.25
141
12.0
290
     0
  0
SCALE
  5
9F7
102
{ACAD_REACTORS
330
9ED
102
}
330
9ED
100
AcDbScale
 70
     0
300
3/8" = 1'-0"
140
0.375
141
12.0
290
     0
  0
SCALE
  5
9F8
102
{ACAD_REACTORS
330
9ED
102
}
330
9ED
100
AcDbScale
 70
     0
300
1/2" = 1'-0"
140
0.5
141
12.0
290
     0
  0
SCALE
  5
9F9
102
{ACAD_REACTORS
330
9ED
102
}
330
9ED
100
AcDbScale
 70
     0
300
3/4" = 1'-0"
140
0.75
141
12.0
290
     0
  0
SCALE
  5
9FA
102
{ACAD_REACTORS
330
9ED
102
}
330
9ED
100
AcDbScale
 70
     0
300
1" = 1'-0"
140
1.0
141
12.0
290
     0
  0
SCALE
  5
9FB
102
{ACAD_REACTORS
330
9ED
102
}
330
9ED
100
AcDbScale
 70
     0
300
1-1/2" = 1'-0"
140
1.5
141
12.0
290
     0
  0
SCALE
  5
9FC
102
{ACAD_REACTORS
330
9ED
102
}
330
9ED
100
AcDbScale
 70
     0
300
3" = 1'-0"
140
3.0
141
12.0
290
     0
  0
SCALE
  5
9FD
102
{ACAD_REACTORS
330
9ED
102
}
330
9ED
100
AcDbScale
 70
     0
300
6" = 1'-0"
140
6.0
141
12.0
290
     0
  0
SCALE
  5
9FE
102
{ACAD_REACTORS
330
9ED
102
}
330
9ED
100
AcDbScale
 70
     0
300
1'-0" = 1'-0"
140
12.0
141
12.0
290
     0
  0
ACDBSECTIONVIEWSTYLE
  5
A13
102
{ACAD_REACTORS
330
A12
102
}
330
A12
100
AcDbModelDocViewStyle
 70
     0
  3
Imperial24
290
     0
300
Imperial24
 90
        0
100
AcDbSectionViewStyle
 70
     0
 71
     0
 90
       78
 71
     1
340
A00
 62
   256
 40
0.24
340
0
340
0
 62
   256
 40
0.24
300
I, O, Q, S, X, Z
 40
0.48
 90
        3
 40
0.18
 90
        1
 71
     2
340
A07
 90
       25
 62
   256
340
A07
 90
       50
 62
   256
 40
0.24
 40
0.0
 40
0.24
 71
     3
340
A00
 62
   256
 40
0.24
 90
        1
 40
0.75
 90
        1
300
%<\AcVar ViewType \f "%tc1">% %<\AcVar ViewSectionStartId>%-%<\AcVar ViewSectionEndId>%\PSCALE %<\AcVar ViewScale \f "%sn">%
 71
     4
 62
   256
 62
   257
300
ANSI31
 40
1.0
 90
        0
290
     0
290
     0
 90
        6
 40
0.0
 40
1.570796326794896
 40
0.2617993877991494
 40
1.308996938995747
 40
-0.2617993877991494
 40
1.832595714594046
  0
TABLESTYLE
  5
A0F
102
{ACAD_XDICTIONARY
360
D0C
102
}
102
{ACAD_REACTORS
330
A0E
102
}
330
A0E
100
AcDbTableStyle
280
     0
  3
Standard
 70
     0
 71
     0
 40
0.06
 41
0.06
280
     0
281
     0
  7
STANDARD
140
0.18
170
     2
 62
     0
 63
     7
283
     0
 90
      512
 91
        0
  1

274
    -2
284
     1
 64
     0
275
    -2
285
     1
 65
     0
276
    -2
286
     1
 66
     0
277
    -2
287
     1
 67
     0
278
    -2
288
     1
 68
     0
279
    -2
289
     1
 69
     0
  7
STANDARD
140
0.25
170
     5
 62
     0
 63
     7
283
     0
 90
      512
 91
        0
  1

274
    -2
284
     1
 64
     0
275
    -2
285
     1
 65
     0
276
    -2
286
     1
 66
     0
277
    -2
287
     1
 67
     0
278
    -2
288
     1
 68
     0
279
    -2
289
     1
 69
     0
  7
STANDARD
140
0.18
170
     5
 62
     0
 63
     7
283
     0
 90
      512
 91
        0
  1

274
    -2
284
     1
 64
     0
275
    -2
285
     1
 65
     0
276
    -2
286
     1
 66
     0
277
    -2
287
     1
 67
     0
278
    -2
288
     1
 68
     0
279
    -2
289
     1
 69
     0
  0
VISUALSTYLE
  5
9DA
102
{ACAD_REACTORS
330
9D4
102
}
330
9D4
100
AcDbVisualStyle
  2
2dWireframe
 70
     4
177
     3
291
     0
 70
    58
 90
        0
176
     1
 90
        2
176
     1
 90
        0
176
     1
 90
        0
176
     1
 40
0.6
176
     1
 40
30.0
176
     1
 62
     7
420
 16777215
176
     1
 90
        1
176
     1
 90
        4
176
     1
 62
     7
176
     1
 62
   257
176
     1
 90
        1
176
     1
 90
        1
176
     1
 40
1.0
176
     1
 90
        0
176
     1
 62
   257
176
     1
 40
1.0
176
     1
 90
        1
176
     1
 90
        6
176
     1
 90
        2
176
     1
 62
     7
176
     1
 90
        5
176
     1
 90
        0
176
     1
 90
        0
176
     1
290
     0
176
     1
 90
        1
176
     1
 40
0.0
176
     1
 90
        0
176
     1
290
     1
176
     1
290
     1
176
     1
290
     0
176
     1
290
     0
176
     1
290
     0
176
     1
290
     0
176
     1
290
     0
176
     1
290
     0
176
     1
290
     0
176
     1
 90
       50
176
     1
 40
0.0
176
     1
 40
1.0
176
     1
 90
        0
176
     1
 62
    18
420
        0
176
     1
 90
       50
176
     1
 90
        3
176
     1
 62
     5
420
      255
176
     1
290
     0
176
     1
 90
       50
176
     1
 90
       50
176
     1
 90
       50
176
     1
290
     0
176
     1
 90
       50
176
     1
 62
   256
176
     0
 40
1.0
176
     0
 90
        2
176
     1
  1
strokes_ogs.tif
176
     1
290
     0
176
     1
 40
1.0
176
     1
 40
1.0
176
     1
  0
VISUALSTYLE
  5
9D9
102
{ACAD_REACTORS
330
9D4
102
}
330
9D4
100
AcDbVisualStyle
  2
Basic
 70
     7
177
     3
291
     1
 70
    58
 90
        1
176
     1
 90
        0
176
     1
 90
        1
176
     1
 90
        0
176
     1
 40
0.6
176
     1
 40
30.0
176
     1
 62
     7
420
 16777215
176
     1
 90
        0
176
     1
 90
        4
176
     1
 62
     7
176
     1
 62
   257
176
     1
 90
        1
176
     1
 90
        1
176
     1
 40
1.0
176
     1
 90
        8
176
     1
 62
     7
176
     1
 40
1.0
176
     1
 90
        1
176
     1
 90
        6
176
     1
 90
        2
176
     1
 62
     7
176
     1
 90
        5
176
     1
 90
        0
176
     1
 90
        0
176
     1
290
     0
176
     1
 90
        1
176
     1
 40
0.0
176
     1
 90
        0
176
     1
290
     0
176
     1
290
     1
176
     1
290
     1
176
     1
290
     0
176
     1
290
     0
176
     1
290
     0
176
     1
290
     0
176
     1
290
     0
176
     1
290
     0
176
     1
 90
       50
176
     1
 40
0.0
176
     1
 40
1.0
176
     1
 90
        0
176
     1
 62
    18
420
        0
176
     1
 90
       50
176
     1
 90
        3
176
     1
 62
     5
420
      255
176
     1
290
     0
176
     1
 90
       50
176
     1
 90
       50
176
     1
 90
       50
176
     1
290
     0
176
     1
 90
       50
176
     1
 62
   256
176
     0
 40
1.0
176
     0
 90
        2
176
     1
  1
strokes_ogs.tif
176
     1
290
     0
176
     1
 40
1.0
176
     1
 40
1.0
176
     1
  0
VISUALSTYLE
  5
9E0
102
{ACAD_REACTORS
330
9D4
102
}
330
9D4
100
AcDbVisualStyle
  2
Brighten
 70
    12
177
     3
291
     1
 70
    58
 90
        2
176
     1
 90
        2
176
     1
 90
        0
176
     1
 90
        0
176
     1
 40
0.6
176
     1
 40
30.0
176
     1
 62
     7
420
 16777215
176
     1
 90
        1
176
     1
 90
        4
176
     1
 62
     7
176
     1
 62
   257
176
     1
 90
        1
176
     1
 90
        1
176
     1
 40
1.0
176
     1
 90
        8
176
     1
 62
     7
176
     1
 40
1.0
176
     1
 90
        1
176
     1
 90
        6
176
     1
 90
        2
176
     1
 62
     7
176
     1
 90
        5
176
     1
 90
        0
176
     1
 90
        0
176
     1
290
     0
176
     1
 90
        1
176
     1
 40
50.0
176
     1
 90
        0
176
     1
290
     0
176
     1
290
     1
176
     1
290
     1
176
     1
290
     0
176
     1
290
     0
176
     1
290
     0
176
     1
290
     0
176
     1
290
     0
176
     1
290
     0
176
     1
 90
       50
176
     1
 40
0.0
176
     1
 40
1.0
176
     1
 90
        0
176
     1
 62
    18
420
        0
176
     1
 90
       50
176
     1
 90
        3
176
     1
 62
     5
420
      255
176
     1
290
     0
176
     1
 90
       50
176
     1
 90
       50
176
     1
 90
       50
176
     1
290
     0
176
     1
 90
       50
176
     1
 62
   256
176
     0
 40
1.0
176
     0
 90
        2
176
     1
  1
strokes_ogs.tif
176
     1
290
     0
176
     1
 40
1.0
176
     1
 40
1.0
176
     1
  0
VISUALSTYLE
  5
9E4
102
{ACAD_REACTORS
330
9D4
102
}
330
9D4
100
AcDbVisualStyle
  2
ColorChange
 70
    16
177
     3
291
     1
 70
    58
 90
        2
176
     1
 90
        2
176
     1
 90
        3
176
     1
 90
        0
176
     1
 40
0.6
176
     1
 40
30.0
176
     1
 62
     8
420
  8421504
176
     1
 90
        1
176
     1
 90
        4
176
     1
 62
     7
176
     1
 62
   257
176
     1
 90
        1
176
     1
 90
        1
176
     1
 40
1.0
176
     1
 90
        8
176
     1
 62
     8
420
  8421504
176
     1
 40
1.0
176
     1
 90
        1
176
     1
 90
        6
176
     1
 90
        2
176
     1
 62
     7
176
     1
 90
        5
176
     1
 90
        0
176
     1
 90
        0
176
     1
290
     0
176
     1
 90
        1
176
     1
 40
0.0
176
     1
 90
        0
176
     1
290
     0
176
     1
290
     1
176
     1
290
     1
176
     1
290
     0
176
     1
290
     0
176
     1
290
     0
176
     1
290
     0
176
     1
290
     0
176
     1
290
     0
176
     1
 90
       50
176
     1
 40
0.0
176
     1
 40
1.0
176
     1
 90
        0
176
     1
 62
    18
420
        0
176
     1
 90
       50
176
     1
 90
        3
176
     1
 62
     5
420
      255
176
     1
290
     0
176
     1
 90
       50
176
     1
 90
       50
176
     1
 90
       50
176
     1
290
     0
176
     1
 90
       50
176
     1
 62
   256
176
     0
 40
1.0
176
     0
 90
        2
176
     1
  1
strokes_ogs.tif
176
     1
290
     0
176
     1
 40
1.0
176
     1
 40
1.0
176
     1
  0
VISUALSTYLE
  5
9DD
102
{ACAD_REACTORS
330
9D4
102
}
330
9D4
100
AcDbVisualStyle
  2
Conceptual
 70
     9
177
     3
291
     0
 70
    58
 90
        3
176
     1
 90
        2
176
     1
 90
        0
176
     1
 90
        0
176
     1
 40
0.6
176
     1
 40
30.0
176
     1
 62
     7
420
 16777215
176
     1
 90
        2
176
     1
 90
        2
176
     1
 62
     7
176
     1
 62
   257
176
     1
 90
        1
176
     1
 90
        1
176
     1
 40
179.0
176
     1
 90
        8
176
     1
 62
     7
176
     1
 40
1.0
176
     1
 90
        1
176
     1
 90
        6
176
     1
 90
        2
176
     1
 62
     7
176
     1
 90
        3
176
     1
 90
        0
176
     1
 90
        0
176
     1
290
     0
176
     1
 90
        1
176
     1
 40
0.0
176
     1
 90
        0
176
     1
290
     0
176
     1
290
     1
176
     1
290
     1
176
     1
290
     0
176
     1
290
     0
176
     1
290
     0
176
     1
290
     0
176
     1
290
     0
176
     1
290
     0
176
     1
 90
       50
176
     1
 40
0.0
176
     1
 40
1.0
176
     1
 90
        0
176
     1
 62
    18
420
        0
176
     1
 90
       50
176
     1
 90
        3
176
     1
 62
     5
420
      255
176
     1
290
     0
176
     1
 90
       50
176
     1
 90
       50
176
     1
 90
       50
176
     1
290
     0
176
     1
 90
       50
176
     1
 62
   256
176
     0
 40
1.0
176
     0
 90
        2
176
     1
  1
strokes_ogs.tif
176
     1
290
     0
176
     1
 40
1.0
176
     1
 40
1.0
176
     1
  0
VISUALSTYLE
  5
9DF
102
{ACAD_REACTORS
330
9D4
102
}
330
9D4
100
AcDbVisualStyle
  2
Dim
 70
    11
177
     3
291
     1
 70
    58
 90
        2
176
     1
 90
        2
176
     1
 90
        0
176
     1
 90
        0
176
     1
 40
0.6
176
     1
 40
30.0
176
     1
 62
     7
420
 16777215
176
     1
 90
        1
176
     1
 90
        4
176
     1
 62
     7
176
     1
 62
   257
176
     1
 90
        1
176
     1
 90
        1
176
     1
 40
1.0
176
     1
 90
        8
176
     1
 62
     7
176
     1
 40
1.0
176
     1
 90
        1
176
     1
 90
        6
176
     1
 90
        2
176
     1
 62
     7
176
     1
 90
        5
176
     1
 90
        0
176
     1
 90
        0
176
     1
290
     0
176
     1
 90
        1
176
     1
 40
-50.0
176
     1
 90
        0
176
     1
290
     0
176
     1
290
     1
176
     1
290
     1
176
     1
290
     0
176
     1
290
     0
176
     1
290
     0
176
     1
290
     0
176
     1
290
     0
176
     1
290
     0
176
     1
 90
       50
176
     1
 40
0.0
176
     1
 40
1.0
176
     1
 90
        0
176
     1
 62
    18
420
        0
176
     1
 90
       50
176
     1
 90
        3
176
     1
 62
     5
420
      255
176
     1
290
     0
176
     1
 90
       50
176
     1
 90
       50
176
     1
 90
       50
176
     1
290
     0
176
     1
 90
       50
176
     1
 62
   256
176
     0
 40
1.0
176
     0
 90
        2
176
     1
  1
strokes_ogs.tif
176
     1
290
     0
176
     1
 40
1.0
176
     1
 40
1.0
176
     1
  0
VISUALSTYLE
  5
9EC
102
{ACAD_REACTORS
330
9D4
102
}
330
9D4
100
AcDbVisualStyle
  2
EdgeColorOff
 70
    22
177
     3
291
     1
 70
    58
 90
        2
176
     0
 90
        2
176
     0
 90
        0
176
     0
 90
        0
176
     0
 40
0.6
176
     0
 40
30.0
176
     0
 62
     7
420
 16777215
176
     0
 90
        1
176
     0
 90
        4
176
     0
 62
     7
176
     0
 62
   257
176
     0
 90
        1
176
     0
 90
        1
176
     0
 40
1.0
176
     0
 90
        8
176
     2
 62
     7
176
     0
 40
1.0
176
     0
 90
        1
176
     0
 90
        6
176
     0
 90
        2
176
     0
 62
     7
176
     0
 90
        5
176
     0
 90
        0
176
     0
 90
        0
176
     0
290
     0
176
     0
 90
        1
176
     0
 40
0.0
176
     0
 90
        0
176
     0
290
     0
176
     1
290
     1
176
     1
290
     1
176
     1
290
     0
176
     1
290
     0
176
     1
290
     0
176
     1
290
     0
176
     1
290
     0
176
     1
290
     0
176
     1
 90
       50
176
     0
 40
0.0
176
     0
 40
1.0
176
     0
 90
        0
176
     0
 62
    18
420
        0
176
     0
 90
       50
176
     0
 90
        3
176
     0
 62
     5
420
      255
176
     0
290
     0
176
     1
 90
       50
176
     0
 90
       50
176
     0
 90
       50
176
     0
290
     0
176
     1
 90
       50
176
     0
 62
   256
176
     0
 40
1.0
176
     0
 90
        2
176
     0
  1
strokes_ogs.tif
176
     0
290
     0
176
     1
 40
1.0
176
     0
 40
1.0
176
     0
  0
VISUALSTYLE
  5
9E3
102
{ACAD_REACTORS
330
9D4
102
}
330
9D4
100
AcDbVisualStyle
  2
Facepattern
 70
    15
177
     3
291
     1
 70
    58
 90
        2
176
     1
 90
        2
176
     1
 90
        0
176
     1
 90
        0
176
     1
 40
0.6
176
     1
 40
30.0
176
     1
 62
     7
420
 16777215
176
     1
 90
        1
176
     1
 90
        4
176
     1
 62
     7
176
     1
 62
   257
176
     1
 90
        1
176
     1
 90
        1
176
     1
 40
1.0
176
     1
 90
        8
176
     1
 62
     7
176
     1
 40
1.0
176
     1
 90
        1
176
     1
 90
        6
176
     1
 90
        2
176
     1
 62
     7
176
     1
 90
        5
176
     1
 90
        0
176
     1
 90
        0
176
     1
290
     0
176
     1
 90
        1
176
     1
 40
0.0
176
     1
 90
        0
176
     1
290
     0
176
     1
290
     1
176
     1
290
     1
176
     1
290
     0
176
     1
290
     0
176
     1
290
     0
176
     1
290
     0
176
     1
290
     0
176
     1
290
     0
176
     1
 90
       50
176
     1
 40
0.0
176
     1
 40
1.0
176
     1
 90
        0
176
     1
 62
    18
420
        0
176
     1
 90
       50
176
     1
 90
        3
176
     1
 62
     5
420
      255
176
     1
290
     0
176
     1
 90
       50
176
     1
 90
       50
176
     1
 90
       50
176
     1
290
     0
176
     1
 90
       50
176
     1
 62
   256
176
     0
 40
1.0
176
     0
 90
        2
176
     1
  1
strokes_ogs.tif
176
     1
290
     0
176
     1
 40
1.0
176
     1
 40
1.0
176
     1
  0
VISUALSTYLE
  5
9D5
102
{ACAD_REACTORS
330
9D4
102
}
330
9D4
100
AcDbVisualStyle
  2
Flat
 70
     0
177
     3
291
     1
 70
    58
 90
        2
176
     1
 90
        1
176
     1
 90
        1
176
     1
 90
        2
176
     1
 40
0.6
176
     1
 40
30.0
176
     1
 62
     7
420
 16777215
176
     1
 90
        0
176
     1
 90
        0
176
     1
 62
     7
176
     1
 62
   257
176
     1
 90
        1
176
     1
 90
        1
176
     1
 40
1.0
176
     1
 90
        8
176
     1
 62
     7
176
     1
 40
1.0
176
     1
 90
        1
176
     1
 90
        6
176
     1
 90
        2
176
     1
 62
     7
176
     1
 90
        5
176
     1
 90
        0
176
     1
 90
        0
176
     1
290
     0
176
     1
 90
       13
176
     1
 40
0.0
176
     1
 90
        0
176
     1
290
     0
176
     1
290
     1
176
     1
290
     1
176
     1
290
     0
176
     1
290
     0
176
     1
290
     0
176
     1
290
     0
176
     1
290
     0
176
     1
290
     0
176
     1
 90
       50
176
     1
 40
0.0
176
     1
 40
1.0
176
     1
 90
        0
176
     1
 62
    18
420
        0
176
     1
 90
       50
176
     1
 90
        3
176
     1
 62
     5
420
      255
176
     1
290
     0
176
     1
 90
       50
176
     1
 90
       50
176
     1
 90
       50
176
     1
290
     0
176
     1
 90
       50
176
     1
 62
   256
176
     0
 40
1.0
176
     0
 90
        2
176
     1
  1
strokes_ogs.tif
176
     1
290
     0
176
     1
 40
1.0
176
     1
 40
1.0
176
     1
  0
VISUALSTYLE
  5
9D6
102
{ACAD_REACTORS
330
9D4
102
}
330
9D4
100
AcDbVisualStyle
  2
FlatWithEdges
 70
     1
177
     3
291
     1
 70
    58
 90
        2
176
     1
 90
        1
176
     1
 90
        1
176
     1
 90
        2
176
     1
 40
0.6
176
     1
 40
30.0
176
     1
 62
     7
420
 16777215
176
     1
 90
        1
176
     1
 90
        0
176
     1
 62
     7
176
     1
 62
   257
176
     1
 90
        1
176
     1
 90
        1
176
     1
 40
1.0
176
     1
 90
        0
176
     1
 62
   257
176
     1
 40
1.0
176
     1
 90
        1
176
     1
 90
        6
176
     1
 90
        2
176
     1
 62
     7
176
     1
 90
        5
176
     1
 90
        0
176
     1
 90
        0
176
     1
290
     0
176
     1
 90
       13
176
     1
 40
0.0
176
     1
 90
        0
176
     1
290
     0
176
     1
290
     1
176
     1
290
     1
176
     1
290
     0
176
     1
290
     0
176
     1
290
     0
176
     1
290
     0
176
     1
290
     0
176
     1
290
     0
176
     1
 90
       50
176
     1
 40
0.0
176
     1
 40
1.0
176
     1
 90
        0
176
     1
 62
    18
420
        0
176
     1
 90
       50
176
     1
 90
        3
176
     1
 62
     5
420
      255
176
     1
290
     0
176
     1
 90
       50
176
     1
 90
       50
176
     1
 90
       50
176
     1
290
     0
176
     1
 90
       50
176
     1
 62
   256
176
     0
 40
1.0
176
     0
 90
        2
176
     1
  1
strokes_ogs.tif
176
     1
290
     0
176
     1
 40
1.0
176
     1
 40
1.0
176
     1
  0
VISUALSTYLE
  5
9D7
102
{ACAD_REACTORS
330
9D4
102
}
330
9D4
100
AcDbVisualStyle
  2
Gouraud
 70
     2
177
     3
291
     1
 70
    58
 90
        2
176
     1
 90
        2
176
     1
 90
        1
176
     1
 90
        2
176
     1
 40
0.6
176
     1
 40
30.0
176
     1
 62
     7
420
 16777215
176
     1
 90
        0
176
     1
 90
        0
176
     1
 62
     7
176
     1
 62
   257
176
     1
 90
        1
176
     1
 90
        1
176
     1
 40
1.0
176
     1
 90
        0
176
     1
 62
     7
176
     1
 40
1.0
176
     1
 90
        1
176
     1
 90
        6
176
     1
 90
        2
176
     1
 62
     7
176
     1
 90
        5
176
     1
 90
        0
176
     1
 90
        0
176
     1
290
     0
176
     1
 90
       13
176
     1
 40
0.0
176
     1
 90
        0
176
     1
290
     0
176
     1
290
     1
176
     1
290
     1
176
     1
290
     0
176
     1
290
     0
176
     1
290
     0
176
     1
290
     0
176
     1
290
     0
176
     1
290
     0
176
     1
 90
       50
176
     1
 40
0.0
176
     1
 40
1.0
176
     1
 90
        0
176
     1
 62
    18
420
        0
176
     1
 90
       50
176
     1
 90
        3
176
     1
 62
     5
420
      255
176
     1
290
     0
176
     1
 90
       50
176
     1
 90
       50
176
     1
 90
       50
176
     1
290
     0
176
     1
 90
       50
176
     1
 62
   256
176
     0
 40
1.0
176
     0
 90
        2
176
     1
  1
strokes_ogs.tif
176
     1
290
     0
176
     1
 40
1.0
176
     1
 40
1.0
176
     1
  0
VISUALSTYLE
  5
9D8
102
{ACAD_REACTORS
330
9D4
102
}
330
9D4
100
AcDbVisualStyle
  2
GouraudWithEdges
 70
     3
177
     3
291
     1
 70
    58
 90
        2
176
     1
 90
        2
176
     1
 90
        1
176
     1
 90
        2
176
     1
 40
0.6
176
     1
 40
30.0
176
     1
 62
     7
420
 16777215
176
     1
 90
        1
176
     1
 90
        0
176
     1
 62
     7
176
     1
 62
   257
176
     1
 90
        1
176
     1
 90
        1
176
     1
 40
1.0
176
     1
 90
        0
176
     1
 62
   257
176
     1
 40
1.0
176
     1
 90
        1
176
     1
 90
        6
176
     1
 90
        2
176
     1
 62
     7
176
     1
 90
        5
176
     1
 90
        0
176
     1
 90
        0
176
     1
290
     0
176
     1
 90
       13
176
     1
 40
0.0
176
     1
 90
        0
176
     1
290
     0
176
     1
290
     1
176
     1
290
     1
176
     1
290
     0
176
     1
290
     0
176
     1
290
     0
176
     1
290
     0
176
     1
290
     0
176
     1
290
     0
176
     1
 90
       50
176
     1
 40
0.0
176
     1
 40
1.0
176
     1
 90
        0
176
     1
 62
    18
420
        0
176
     1
 90
       50
176
     1
 90
        3
176
     1
 62
     5
420
      255
176
     1
290
     0
176
     1
 90
       50
176
     1
 90
       50
176
     1
 90
       50
176
     1
290
     0
176
     1
 90
       50
176
     1
 62
   256
176
     0
 40
1.0
176
     0
 90
        2
176
     1
  1
strokes_ogs.tif
176
     1
290
     0
176
     1
 40
1.0
176
     1
 40
1.0
176
     1
  0
VISUALSTYLE
  5
9DC
102
{ACAD_REACTORS
330
9D4
102
}
330
9D4
100
AcDbVisualStyle
  2
Hidden
 70
     6
177
     3
291
     0
 70
    58
 90
        1
176
     1
 90
        2
176
     1
 90
        2
176
     1
 90
        0
176
     1
 40
0.6
176
     1
 40
30.0
176
     1
 62
     7
420
 16777215
176
     1
 90
        2
176
     1
 90
        2
176
     1
 62
     7
176
     1
 62
   257
176
     1
 90
        2
176
     1
 90
        1
176
     1
 40
40.0
176
     1
 90
        0
176
     1
 62
   257
176
     1
 40
1.0
176
     1
 90
        1
176
     1
 90
        6
176
     1
 90
        2
176
     1
 62
     7
176
     1
 90
        3
176
     1
 90
        0
176
     1
 90
        0
176
     1
290
     0
176
     1
 90
        1
176
     1
 40
0.0
176
     1
 90
        0
176
     1
290
     0
176
     1
290
     1
176
     1
290
     1
176
     1
290
     0
176
     1
290
     0
176
     1
290
     0
176
     1
290
     0
176
     1
290
     0
176
     1
290
     0
176
     1
 90
       50
176
     1
 40
0.0
176
     1
 40
1.0
176
     1
 90
        0
176
     1
 62
    18
420
        0
176
     1
 90
       50
176
     1
 90
        3
176
     1
 62
     5
420
      255
176
     1
290
     0
176
     1
 90
       50
176
     1
 90
       50
176
     1
 90
       50
176
     1
290
     0
176
     1
 90
       50
176
     1
 62
   256
176
     0
 40
1.0
176
     0
 90
        2
176
     1
  1
strokes_ogs.tif
176
     1
290
     0
176
     1
 40
1.0
176
     1
 40
1.0
176
     1
  0
VISUALSTYLE
  5
9EA
102
{ACAD_REACTORS
330
9D4
102
}
330
9D4
100
AcDbVisualStyle
  2
JitterOff
 70
    20
177
     3
291
     1
 70
    58
 90
        2
176
     0
 90
        2
176
     0
 90
        0
176
     0
 90
        0
176
     0
 40
0.6
176
     0
 40
30.0
176
     0
 62
     7
420
 16777215
176
     0
 90
        1
176
     0
 90
        4
176
     0
 62
     7
176
     0
 62
   257
176
     0
 90
        1
176
     0
 90
        1
176
     0
 40
1.0
176
     0
 90
       10
176
     2
 62
     7
176
     0
 40
1.0
176
     0
 90
        1
176
     0
 90
        6
176
     0
 90
        2
176
     0
 62
     7
176
     0
 90
        5
176
     0
 90
        0
176
     0
 90
        0
176
     0
290
     0
176
     0
 90
        1
176
     0
 40
0.0
176
     0
 90
        0
176
     0
290
     0
176
     1
290
     1
176
     1
290
     1
176
     1
290
     0
176
     1
290
     0
176
     1
290
     0
176
     1
290
     0
176
     1
290
     0
176
     1
290
     0
176
     1
 90
       50
176
     0
 40
0.0
176
     0
 40
1.0
176
     0
 90
        0
176
     0
 62
    18
420
        0
176
     0
 90
       50
176
     0
 90
        3
176
     0
 62
     5
420
      255
176
     0
290
     0
176
     1
 90
       50
176
     0
 90
       50
176
     0
 90
       50
176
     0
290
     0
176
     1
 90
       50
176
     0
 62
   256
176
     0
 40
1.0
176
     0
 90
        2
176
     0
  1
strokes_ogs.tif
176
     0
290
     0
176
     1
 40
1.0
176
     0
 40
1.0
176
     0
  0
VISUALSTYLE
  5
9E2
102
{ACAD_REACTORS
330
9D4
102
}
330
9D4
100
AcDbVisualStyle
  2
Linepattern
 70
    14
177
     3
291
     1
 70
    58
 90
        2
176
     1
 90
        2
176
     1
 90
        0
176
     1
 90
        0
176
     1
 40
0.6
176
     1
 40
30.0
176
     1
 62
     7
420
 16777215
176
     1
 90
        1
176
     1
 90
        4
176
     1
 62
     7
176
     1
 62
   257
176
     1
 90
        7
176
     1
 90
        7
176
     1
 40
1.0
176
     1
 90
        8
176
     1
 62
     7
176
     1
 40
1.0
176
     1
 90
        1
176
     1
 90
        6
176
     1
 90
        2
176
     1
 62
     7
176
     1
 90
        5
176
     1
 90
        0
176
     1
 90
        0
176
     1
290
     0
176
     1
 90
        1
176
     1
 40
0.0
176
     1
 90
        0
176
     1
290
     0
176
     1
290
     1
176
     1
290
     1
176
     1
290
     0
176
     1
290
     0
176
     1
290
     0
176
     1
290
     0
176
     1
290
     0
176
     1
290
     0
176
     1
 90
       50
176
     1
 40
0.0
176
     1
 40
1.0
176
     1
 90
        0
176
     1
 62
    18
420
        0
176
     1
 90
       50
176
     1
 90
        3
176
     1
 62
     5
420
      255
176
     1
290
     0
176
     1
 90
       50
176
     1
 90
       50
176
     1
 90
       50
176
     1
290
     0
176
     1
 90
       50
176
     1
 62
   256
176
     0
 40
1.0
176
     0
 90
        2
176
     1
  1
strokes_ogs.tif
176
     1
290
     0
176
     1
 40
1.0
176
     1
 40
1.0
176
     1
  0
VISUALSTYLE
  5
9EB
102
{ACAD_REACTORS
330
9D4
102
}
330
9D4
100
AcDbVisualStyle
  2
OverhangOff
 70
    21
177
     3
291
     1
 70
    58
 90
        2
176
     0
 90
        2
176
     0
 90
        0
176
     0
 90
        0
176
     0
 40
0.6
176
     0
 40
30.0
176
     0
 62
     7
420
 16777215
176
     0
 90
        1
176
     0
 90
        4
176
     0
 62
     7
176
     0
 62
   257
176
     0
 90
        1
176
     0
 90
        1
176
     0
 40
1.0
176
     0
 90
        9
176
     2
 62
     7
176
     0
 40
1.0
176
     0
 90
        1
176
     0
 90
        6
176
     0
 90
        2
176
     0
 62
     7
176
     0
 90
        5
176
     0
 90
        0
176
     0
 90
        0
176
     0
290
     0
176
     0
 90
        1
176
     0
 40
0.0
176
     0
 90
        0
176
     0
290
     0
176
     1
290
     1
176
     1
290
     1
176
     1
290
     0
176
     1
290
     0
176
     1
290
     0
176
     1
290
     0
176
     1
290
     0
176
     1
290
     0
176
     1
 90
       50
176
     0
 40
0.0
176
     0
 40
1.0
176
     0
 90
        0
176
     0
 62
    18
420
        0
176
     0
 90
       50
176
     0
 90
        3
176
     0
 62
     5
420
      255
176
     0
290
     0
176
     1
 90
       50
176
     0
 90
       50
176
     0
 90
       50
176
     0
290
     0
176
     1
 90
       50
176
     0
 62
   256
176
     0
 40
1.0
176
     0
 90
        2
176
     0
  1
strokes_ogs.tif
176
     0
290
     0
176
     1
 40
1.0
176
     0
 40
1.0
176
     0
  0
VISUALSTYLE
  5
9DE
102
{ACAD_REACTORS
330
9D4
102
}
330
9D4
100
AcDbVisualStyle
  2
Realistic
 70
     8
177
     3
291
     0
 70
    58
 90
        2
176
     1
 90
        3
176
     1
 90
        0
176
     1
 90
        2
176
     1
 40
0.6
176
     1
 40
30.0
176
     1
 62
     7
420
 16777215
176
     1
 90
        0
176
     1
 90
        0
176
     1
 62
     7
176
     1
 62
   257
176
     1
 90
        1
176
     1
 90
        1
176
     1
 40
1.0
176
     1
 90
        8
176
     1
 62
   257
176
     1
 40
1.0
176
     1
 90
        1
176
     1
 90
        6
176
     1
 90
        2
176
     1
 62
     7
176
     1
 90
        3
176
     1
 90
        0
176
     1
 90
        0
176
     1
290
     0
176
     1
 90
       13
176
     1
 40
0.0
176
     1
 90
        0
176
     1
290
     0
176
     1
290
     1
176
     1
290
     1
176
     1
290
     0
176
     1
290
     0
176
     1
290
     0
176
     1
290
     0
176
     1
290
     0
176
     1
290
     0
176
     1
 90
       50
176
     1
 40
0.0
176
     1
 40
1.0
176
     1
 90
        0
176
     1
 62
    18
420
        0
176
     1
 90
       50
176
     1
 90
        3
176
     1
 62
     5
420
      255
176
     1
290
     0
176
     1
 90
       50
176
     1
 90
       50
176
     1
 90
       50
176
     1
290
     0
176
     1
 90
       50
176
     1
 62
   256
176
     0
 40
1.0
176
     0
 90
        2
176
     1
  1
strokes_ogs.tif
176
     1
290
     0
176
     1
 40
1.0
176
     1
 40
1.0
176
     1
  0
VISUALSTYLE
  5
9E9
102
{ACAD_REACTORS
330
9D4
102
}
330
9D4
100
AcDbVisualStyle
  2
Shaded
 70
    27
177
     3
291
     0
 70
    58
 90
        2
176
     1
 90
        2
176
     1
 90
        1
176
     1
 90
        2
176
     1
 40
0.6
176
     1
 40
30.0
176
     1
 62
     7
420
 16777215
176
     1
 90
        0
176
     1
 90
        4
176
     1
 62
     7
176
     1
 62
   257
176
     1
 90
        1
176
     1
 90
        1
176
     1
 40
1.0
176
     1
 90
        8
176
     1
 62
   257
176
     1
 40
1.0
176
     1
 90
        1
176
     1
 90
        6
176
     1
 90
        2
176
     1
 62
     8
420
  7895160
176
     1
 90
        3
176
     1
 90
        0
176
     1
 90
        0
176
     1
290
     0
176
     1
 90
        5
176
     1
 40
0.0
176
     1
 90
        0
176
     1
290
     0
176
     1
290
     1
176
     1
290
     1
176
     1
290
     0
176
     1
290
     0
176
     1
290
     0
176
     1
290
     0
176
     1
290
     0
176
     1
290
     0
176
     1
 90
       50
176
     1
 40
0.0
176
     1
 40
1.0
176
     1
 90
        0
176
     1
 62
    18
420
        0
176
     1
 90
       50
176
     1
 90
        3
176
     1
 62
     5
420
      255
176
     1
290
     0
176
     1
 90
       50
176
     1
 90
       50
176
     1
 90
       50
176
     1
290
     0
176
     1
 90
       50
176
     1
 62
   256
176
     0
 40
1.0
176
     0
 90
        2
176
     1
  1
strokes_ogs.tif
176
     1
290
     0
176
     1
 40
1.0
176
     1
 40
1.0
176
     1
  0
VISUALSTYLE
  5
9E8
102
{ACAD_REACTORS
330
9D4
102
}
330
9D4
100
AcDbVisualStyle
  2
Shaded with edges
 70
    26
177
     3
291
     0
 70
    58
 90
        2
176
     1
 90
        2
176
     1
 90
        1
176
     1
 90
        2
176
     1
 40
0.6
176
     1
 40
30.0
176
     1
 62
     7
420
 16777215
176
     1
 90
        1
176
     1
 90
        2
176
     1
 62
     7
176
     1
 62
   257
176
     1
 90
        2
176
     1
 90
        1
176
     1
 40
1.0
176
     1
 90
        8
176
     1
 62
   257
176
     1
 40
1.0
176
     1
 90
        1
176
     1
 90
        6
176
     1
 90
        2
176
     1
 62
     7
176
     1
 90
        3
176
     1
 90
        0
176
     1
 90
        0
176
     1
290
     0
176
     1
 90
        5
176
     1
 40
0.0
176
     1
 90
        0
176
     1
290
     0
176
     1
290
     1
176
     1
290
     1
176
     1
290
     0
176
     1
290
     0
176
     1
290
     0
176
     1
290
     0
176
     1
290
     0
176
     1
290
     0
176
     1
 90
       50
176
     1
 40
0.0
176
     1
 40
1.0
176
     1
 90
        0
176
     1
 62
    18
420
        0
176
     1
 90
       50
176
     1
 90
        3
176
     1
 62
     5
420
      255
176
     1
290
     0
176
     1
 90
       50
176
     1
 90
       50
176
     1
 90
       50
176
     1
290
     0
176
     1
 90
       50
176
     1
 62
   256
176
     0
 40
1.0
176
     0
 90
        2
176
     1
  1
strokes_ogs.tif
176
     1
290
     0
176
     1
 40
1.0
176
     1
 40
1.0
176
     1
  0
VISUALSTYLE
  5
9E5
102
{ACAD_REACTORS
330
9D4
102
}
330
9D4
100
AcDbVisualStyle
  2
Shades of Gray
 70
    23
177
     3
291
     0
 70
    58
 90
        2
176
     1
 90
        2
176
     1
 90
        3
176
     1
 90
        0
176
     1
 40
0.6
176
     1
 40
30.0
176
     1
 62
     7
420
 16777215
176
     1
 90
        2
176
     1
 90
        2
176
     1
 62
     7
176
     1
 62
     7
176
     1
 90
        1
176
     1
 90
        1
176
     1
 40
40.0
176
     1
 90
        8
176
     1
 62
     7
176
     1
 40
1.0
176
     1
 90
        1
176
     1
 90
        6
176
     1
 90
        2
176
     1
 62
     7
176
     1
 90
        3
176
     1
 90
        0
176
     1
 90
        0
176
     1
290
     0
176
     1
 90
        1
176
     1
 40
0.0
176
     1
 90
        0
176
     1
290
     0
176
     1
290
     1
176
     1
290
     1
176
     1
290
     0
176
     1
290
     0
176
     1
290
     0
176
     1
290
     0
176
     1
290
     0
176
     1
290
     0
176
     1
 90
       50
176
     1
 40
0.0
176
     1
 40
1.0
176
     1
 90
        0
176
     1
 62
    18
420
        0
176
     1
 90
       50
176
     1
 90
        3
176
     1
 62
     5
420
      255
176
     1
290
     0
176
     1
 90
       50
176
     1
 90
       50
176
     1
 90
       50
176
     1
290
     0
176
     1
 90
       50
176
     1
 62
   256
176
     0
 40
1.0
176
     0
 90
        2
176
     1
  1
strokes_ogs.tif
176
     1
290
     0
176
     1
 40
1.0
176
     1
 40
1.0
176
     1
  0
VISUALSTYLE
  5
9E6
102
{ACAD_REACTORS
330
9D4
102
}
330
9D4
100
AcDbVisualStyle
  2
Sketchy
 70
    24
177
     3
291
     0
 70
    58
 90
        1
176
     1
 90
        2
176
     1
 90
        2
176
     1
 90
        0
176
     1
 40
0.6
176
     1
 40
30.0
176
     1
 62
     7
420
 16777215
176
     1
 90
        2
176
     1
 90
        2
176
     1
 62
     7
176
     1
 62
     7
176
     1
 90
        1
176
     1
 90
        1
176
     1
 40
40.0
176
     1
 90
       11
176
     1
 62
     7
176
     1
 40
1.0
176
     1
 90
        1
176
     1
 90
        6
176
     1
 90
        2
176
     1
 62
     7
176
     1
 90
        6
176
     1
 90
        0
176
     1
 90
        0
176
     1
290
     0
176
     1
 90
        1
176
     1
 40
0.0
176
     1
 90
        0
176
     1
290
     0
176
     1
290
     1
176
     1
290
     1
176
     1
290
     0
176
     1
290
     0
176
     1
290
     0
176
     1
290
     0
176
     1
290
     0
176
     1
290
     0
176
     1
 90
       50
176
     1
 40
0.0
176
     1
 40
1.0
176
     1
 90
        0
176
     1
 62
    18
420
        0
176
     1
 90
       50
176
     1
 90
        3
176
     1
 62
     5
420
      255
176
     1
290
     0
176
     1
 90
       50
176
     1
 90
       50
176
     1
 90
       50
176
     1
290
     0
176
     1
 90
       50
176
     1
 62
   256
176
     0
 40
1.0
176
     0
 90
        2
176
     1
  1
strokes_ogs.tif
176
     1
290
     0
176
     1
 40
1.0
176
     1
 40
1.0
176
     1
  0
VISUALSTYLE
  5
9E1
102
{ACAD_REACTORS
330
9D4
102
}
330
9D4
100
AcDbVisualStyle
  2
Thicken
 70
    13
177
     3
291
     1
 70
    58
 90
        2
176
     1
 90
        2
176
     1
 90
        0
176
     1
 90
        0
176
     1
 40
0.6
176
     1
 40
30.0
176
     1
 62
     7
420
 16777215
176
     1
 90
        1
176
     1
 90
        4
176
     1
 62
     7
176
     1
 62
   257
176
     1
 90
        1
176
     1
 90
        1
176
     1
 40
1.0
176
     1
 90
       12
176
     1
 62
     7
176
     1
 40
1.0
176
     1
 90
        1
176
     1
 90
        6
176
     1
 90
        2
176
     1
 62
     7
176
     1
 90
        5
176
     1
 90
        0
176
     1
 90
        0
176
     1
290
     0
176
     1
 90
        1
176
     1
 40
0.0
176
     1
 90
        0
176
     1
290
     0
176
     1
290
     1
176
     1
290
     1
176
     1
290
     0
176
     1
290
     0
176
     1
290
     0
176
     1
290
     0
176
     1
290
     0
176
     1
290
     0
176
     1
 90
       50
176
     1
 40
0.0
176
     1
 40
1.0
176
     1
 90
        0
176
     1
 62
    18
420
        0
176
     1
 90
       50
176
     1
 90
        3
176
     1
 62
     5
420
      255
176
     1
290
     0
176
     1
 90
       50
176
     1
 90
       50
176
     1
 90
       50
176
     1
290
     0
176
     1
 90
       50
176
     1
 62
   256
176
     0
 40
1.0
176
     0
 90
        2
176
     1
  1
strokes_ogs.tif
176
     1
290
     0
176
     1
 40
1.0
176
     1
 40
1.0
176
     1
  0
VISUALSTYLE
  5
9DB
102
{ACAD_REACTORS
330
9D4
102
}
330
9D4
100
AcDbVisualStyle
  2
Wireframe
 70
     5
177
     3
291
     0
 70
    58
 90
        0
176
     1
 90
        2
176
     1
 90
        0
176
     1
 90
        0
176
     1
 40
0.6
176
     1
 40
30.0
176
     1
 62
     7
420
 16777215
176
     1
 90
        1
176
     1
 90
        4
176
     1
 62
     7
176
     1
 62
   257
176
     1
 90
        1
176
     1
 90
        1
176
     1
 40
1.0
176
     1
 90
        0
176
     1
 62
   257
176
     1
 40
1.0
176
     1
 90
        1
176
     1
 90
        6
176
     1
 90
        2
176
     1
 62
     7
176
     1
 90
        3
176
     1
 90
        0
176
     1
 90
        0
176
     1
290
     0
176
     1
 90
        1
176
     1
 40
0.0
176
     1
 90
        0
176
     1
290
     0
176
     1
290
     1
176
     1
290
     1
176
     1
290
     0
176
     1
290
     0
176
     1
290
     0
176
     1
290
     0
176
     1
290
     0
176
     1
290
     0
176
     1
 90
       50
176
     1
 40
0.0
176
     1
 40
1.0
176
     1
 90
        0
176
     1
 62
    18
420
        0
176
     1
 90
       50
176
     1
 90
        3
176
     1
 62
     5
420
      255
176
     1
290
     0
176
     1
 90
       50
176
     1
 90
       50
176
     1
 90
       50
176
     1
290
     0
176
     1
 90
       50
176
     1
 62
   256
176
     0
 40
1.0
176
     0
 90
        2
176
     1
  1
strokes_ogs.tif
176
     1
290
     0
176
     1
 40
1.0
176
     1
 40
1.0
176
     1
  0
VISUALSTYLE
  5
9E7
102
{ACAD_REACTORS
330
9D4
102
}
330
9D4
100
AcDbVisualStyle
  2
X-Ray
 70
    25
177
     3
291
     0
 70
    58
 90
        2
176
     1
 90
        2
176
     1
 90
        1
176
     1
 90
        1
176
     1
 40
0.5
176
     1
 40
30.0
176
     1
 62
     7
420
 16777215
176
     1
 90
        1
176
     1
 90
        0
176
     1
 62
     7
176
     1
 62
   257
176
     1
 90
        1
176
     1
 90
        1
176
     1
 40
1.0
176
     1
 90
        8
176
     1
 62
     7
176
     1
 40
1.0
176
     1
 90
        1
176
     1
 90
        6
176
     1
 90
        2
176
     1
 62
     7
176
     1
 90
        3
176
     1
 90
        0
176
     1
 90
        0
176
     1
290
     0
176
     1
 90
       13
176
     1
 40
0.0
176
     1
 90
        0
176
     1
290
     0
176
     1
290
     1
176
     1
290
     1
176
     1
290
     0
176
     1
290
     0
176
     1
290
     0
176
     1
290
     0
176
     1
290
     0
176
     1
290
     0
176
     1
 90
       50
176
     1
 40
0.0
176
     1
 40
1.0
176
     1
 90
        0
176
     1
 62
    18
420
        0
176
     1
 90
       50
176
     1
 90
        3
176
     1
 62
     5
420
      255
176
     1
290
     0
176
     1
 90
       50
176
     1
 90
       50
176
     1
 90
       50
176
     1
290
     0
176
     1
 90
       50
176
     1
 62
   256
176
     0
 40
1.0
176
     0
 90
        2
176
     1
  1
strokes_ogs.tif
176
     1
290
     0
176
     1
 40
1.0
176
     1
 40
1.0
176
     1
  0
DICTIONARYVAR
  5
D08
102
{ACAD_REACTORS
330
D02
102
}
330
D02
100
DictionaryVariables
280
     0
  1
1:1
  0
DICTIONARYVAR
  5
D04
102
{ACAD_REACTORS
330
D02
102
}
330
D02
100
DictionaryVariables
280
     0
  1
STANDARD
  0
DICTIONARYVAR
  5
D03
102
{ACAD_REACTORS
330
D02
102
}
330
D02
100
DictionaryVariables
280
     0
  1
STANDARD
  0
DICTIONARYVAR
  5
D05
102
{ACAD_REACTORS
330
D02
102
}
330
D02
100
DictionaryVariables
280
     0
  1
Imperial24
  0
DICTIONARYVAR
  5
D06
102
{ACAD_REACTORS
330
D02
102
}
330
D02
100
DictionaryVariables
280
     0
  1
Imperial24
  0
DICTIONARYVAR
  5
D0A
102
{ACAD_REACTORS
330
D02
102
}
330
D02
100
DictionaryVariables
280
     0
  1
1
  0
DICTIONARYVAR
  5
D0B
102
{ACAD_REACTORS
330
D02
102
}
330
D02
100
DictionaryVariables
280
     0
  1
15
  0
DICTIONARYVAR
  5
D09
102
{ACAD_REACTORS
330
D02
102
}
330
D02
100
DictionaryVariables
280
     0
  1
0
  0
DICTIONARYVAR
  5
D07
102
{ACAD_REACTORS
330
D02
102
}
330
D02
100
DictionaryVariables
280
     0
  1
0
  0
DICTIONARY
  5
9C5
330
9C4
100
AcDbDictionary
280
     1
281
     1
  3
BUMPTILE
360
9C7
  3
DIFFUSETILE
360
9C6
  3
OPACITYTILE
360
9CA
  3
REFLECTIONTILE
360
9C9
  3
REFRACTIONTILE
360
9CB
  3
SPECULARTILE
360
9C8
  0
DICTIONARY
  5
9BD
330
9BC
100
AcDbDictionary
280
     1
281
     1
  3
BUMPTILE
360
9BF
  3
DIFFUSETILE
360
9BE
  3
OPACITYTILE
360
9C2
  3
REFLECTIONTILE
360
9C1
  3
REFRACTIONTILE
360
9C3
  3
SPECULARTILE
360
9C0
  0
DICTIONARY
  5
9CD
330
9CC
100
AcDbDictionary
280
     1
281
     1
  3
BUMPTILE
360
9CF
  3
DIFFUSETILE
360
9CE
  3
OPACITYTILE
360
9D2
  3
REFLECTIONTILE
360
9D1
  3
REFRACTIONTILE
360
9D3
  3
SPECULARTILE
360
9D0
  0
DICTIONARY
  5
D0C
330
A0F
100
AcDbDictionary
280
     1
281
     1
  3
ACAD_ROUNDTRIP_2008_TABLESTYLE_CELLSTYLEMAP
360
D0D
  0
XRECORD
  5
9C7
102
{ACAD_REACTORS
330
9C5
102
}
330
9C5
100
AcDbXrecord
280
     1
270
     1
271
     1
  0
XRECORD
  5
9C6
102
{ACAD_REACTORS
330
9C5
102
}
330
9C5
100
AcDbXrecord
280
     1
270
     1
271
     1
  0
XRECORD
  5
9CA
102
{ACAD_REACTORS
330
9C5
102
}
330
9C5
100
AcDbXrecord
280
     1
270
     1
271
     1
  0
XRECORD
  5
9C9
102
{ACAD_REACTORS
330
9C5
102
}
330
9C5
100
AcDbXrecord
280
     1
270
     1
271
     1
  0
XRECORD
  5
9CB
102
{ACAD_REACTORS
330
9C5
102
}
330
9C5
100
AcDbXrecord
280
     1
270
     1
271
     1
  0
XRECORD
  5
9C8
102
{ACAD_REACTORS
330
9C5
102
}
330
9C5
100
AcDbXrecord
280
     1
270
     1
271
     1
  0
XRECORD
  5
9BF
102
{ACAD_REACTORS
330
9BD
102
}
330
9BD
100
AcDbXrecord
280
     1
270
     1
271
     1
  0
XRECORD
  5
9BE
102
{ACAD_REACTORS
330
9BD
102
}
330
9BD
100
AcDbXrecord
280
     1
270
     1
271
     1
  0
XRECORD
  5
9C2
102
{ACAD_REACTORS
330
9BD
102
}
330
9BD
100
AcDbXrecord
280
     1
270
     1
271
     1
  0
XRECORD
  5
9C1
102
{ACAD_REACTORS
330
9BD
102
}
330
9BD
100
AcDbXrecord
280
     1
270
     1
271
     1
  0
XRECORD
  5
9C3
102
{ACAD_REACTORS
330
9BD
102
}
330
9BD
100
AcDbXrecord
280
     1
270
     1
271
     1
  0
XRECORD
  5
9C0
102
{ACAD_REACTORS
330
9BD
102
}
330
9BD
100
AcDbXrecord
280
     1
270
     1
271
     1
  0
XRECORD
  5
9CF
102
{ACAD_REACTORS
330
9CD
102
}
330
9CD
100
AcDbXrecord
280
     1
270
     1
271
     1
  0
XRECORD
  5
9CE
102
{ACAD_REACTORS
330
9CD
102
}
330
9CD
100
AcDbXrecord
280
     1
270
     1
271
     1
  0
XRECORD
  5
9D2
102
{ACAD_REACTORS
330
9CD
102
}
330
9CD
100
AcDbXrecord
280
     1
270
     1
271
     1
  0
XRECORD
  5
9D1
102
{ACAD_REACTORS
330
9CD
102
}
330
9CD
100
AcDbXrecord
280
     1
270
     1
271
     1
  0
XRECORD
  5
9D3
102
{ACAD_REACTORS
330
9CD
102
}
330
9CD
100
AcDbXrecord
280
     1
270
     1
271
     1
  0
XRECORD
  5
9D0
102
{ACAD_REACTORS
330
9CD
102
}
330
9CD
100
AcDbXrecord
280
     1
270
     1
271
     1
  0
CELLSTYLEMAP
  5
D0D
102
{ACAD_REACTORS
330
D0C
102
}
330
D0C
100
AcDbCellStyleMap
 90
        3
300
CELLSTYLE
  1
TABLEFORMAT_BEGIN
 90
        5
170
     1
 91
        0
 92
    32768
 62
   257
 93
        1
300
CONTENTFORMAT
  1
CONTENTFORMAT_BEGIN
 90
        0
 91
        0
 92
      512
 93
        0
300

 40
0.0
140
1.0
 94
        5
 62
     0
340
A00
144
0.25
309
CONTENTFORMAT_END
171
     0
 94
        0
309
TABLEFORMAT_END
  1
CELLSTYLE_BEGIN
 90
        1
 91
        1
300
_TITLE
309
CELLSTYLE_END
300
CELLSTYLE
  1
TABLEFORMAT_BEGIN
 90
        5
170
     1
 91
        0
 92
        0
 62
   257
 93
        1
300
CONTENTFORMAT
  1
CONTENTFORMAT_BEGIN
 90
        0
 91
        0
 92
      512
 93
        0
300

 40
0.0
140
1.0
 94
        5
 62
     0
340
A00
144
0.18
309
CONTENTFORMAT_END
171
     0
 94
        0
309
TABLEFORMAT_END
  1
CELLSTYLE_BEGIN
 90
        2
 91
        1
300
_HEADER
309
CELLSTYLE_END
300
CELLSTYLE
  1
TABLEFORMAT_BEGIN
 90
        5
170
     1
 91
        0
 92
        0
 62
   257
 93
        1
300
CONTENTFORMAT
  1
CONTENTFORMAT_BEGIN
 90
        0
 91
        0
 92
      512
 93
        0
300

 40
0.0
140
1.0
 94
        2
 62
     0
340
A00
144
0.18
309
CONTENTFORMAT_END
171
     0
 94
        0
309
TABLEFORMAT_END
  1
CELLSTYLE_BEGIN
 90
        3
 91
        2
300
_DATA
309
CELLSTYLE_END
  0
ENDSEC
  0
EOF
